  0
SECTION
  2
HEADER
  9
$ACADVER
  1
AC1015
  9
$ACADMAINTVER
 70
     6
  9
$DWGCODEPAGE
  3
ANSI_932
  9
$INSBASE
 10
0.0
 20
0.0
 30
0.0
  9
$EXTMIN
 10
-527.9106241254564
 20
-397.6375
 30
0.0
  9
$EXTMAX
 10
479.8212482509127
 20
402.2750000000001
 30
0.0
  9
$LIMMIN
 10
-210.0
 20
-148.5
  9
$LIMMAX
 10
210.0
 20
148.5
  9
$ORTHOMODE
 70
     0
  9
$REGENMODE
 70
     1
  9
$FILLMODE
 70
     1
  9
$QTEXTMODE
 70
     0
  9
$MIRRTEXT
 70
     1
  9
$LTSCALE
 40
0.25
  9
$ATTMODE
 70
     1
  9
$TEXTSIZE
 40
0.2
  9
$TRACEWID
 40
0.05
  9
$TEXTSTYLE
  7
Standard
  9
$CLAYER
  8
0
  9
$CELTYPE
  6
ByLayer
  9
$CECOLOR
 62
   256
  9
$CELTSCALE
 40
1.0
  9
$DISPSILH
 70
     0
  9
$DIMSCALE
 40
1.0
  9
$DIMASZ
 40
3.000001907348633
  9
$DIMEXO
 40
1.0
  9
$DIMDLI
 40
10.0
  9
$DIMRND
 40
0.0
  9
$DIMDLE
 40
0.0
  9
$DIMEXE
 40
1.0
  9
$DIMTP
 40
0.0
  9
$DIMTM
 40
0.0
  9
$DIMTXT
 40
3.0
  9
$DIMCEN
 40
0.0
  9
$DIMTSZ
 40
0.0
  9
$DIMTOL
 70
     0
  9
$DIMLIM
 70
     0
  9
$DIMTIH
 70
     0
  9
$DIMTOH
 70
     0
  9
$DIMSE1
 70
     0
  9
$DIMSE2
 70
     0
  9
$DIMTAD
 70
     1
  9
$DIMZIN
 70
     8
  9
$DIMBLK
  1

  9
$DIMASO
 70
     1
  9
$DIMSHO
 70
     1
  9
$DIMPOST
  1

  9
$DIMAPOST
  1

  9
$DIMALT
 70
     0
  9
$DIMALTD
 70
     2
  9
$DIMALTF
 40
25.4
  9
$DIMLFAC
 40
1.0
  9
$DIMTOFL
 70
     0
  9
$DIMTVP
 40
0.0
  9
$DIMTIX
 70
     0
  9
$DIMSOXD
 70
     0
  9
$DIMSAH
 70
     0
  9
$DIMBLK1
  1

  9
$DIMBLK2
  1

  9
$DIMSTYLE
  2
Standard
  9
$DIMCLRD
 70
     0
  9
$DIMCLRE
 70
     0
  9
$DIMCLRT
 70
     0
  9
$DIMTFAC
 40
0.65
  9
$DIMGAP
 40
0.09
  9
$DIMJUST
 70
     0
  9
$DIMSD1
 70
     0
  9
$DIMSD2
 70
     0
  9
$DIMTOLJ
 70
     0
  9
$DIMTZIN
 70
     0
  9
$DIMALTZ
 70
     0
  9
$DIMALTTZ
 70
     0
  9
$DIMUPT
 70
     0
  9
$DIMDEC
 70
     2
  9
$DIMTDEC
 70
     2
  9
$DIMALTU
 70
     2
  9
$DIMALTTD
 70
     2
  9
$DIMTXSTY
  7
Standard
  9
$DIMAUNIT
 70
     0
  9
$DIMADEC
 70
     2
  9
$DIMALTRND
 40
0.0
  9
$DIMAZIN
 70
     2
  9
$DIMDSEP
 70
    46
  9
$DIMATFIT
 70
     3
  9
$DIMFRAC
 70
     0
  9
$DIMLDRBLK
  1

  9
$DIMLUNIT
 70
     2
  9
$DIMLWD
 70
    -2
  9
$DIMLWE
 70
    -2
  9
$DIMTMOVE
 70
     0
  9
$LUNITS
 70
     2
  9
$LUPREC
 70
     4
  9
$SKETCHINC
 40
0.1
  9
$FILLETRAD
 40
0.5
  9
$AUNITS
 70
     0
  9
$AUPREC
 70
     0
  9
$MENU
  1
.
  9
$ELEVATION
 40
0.0
  9
$PELEVATION
 40
0.0
  9
$THICKNESS
 40
0.0
  9
$LIMCHECK
 70
     0
  9
$CHAMFERA
 40
0.5
  9
$CHAMFERB
 40
0.5
  9
$CHAMFERC
 40
1.0
  9
$CHAMFERD
 40
0.0
  9
$SKPOLY
 70
     0
  9
$TDCREATE
 40
2456727.447974375
  9
$TDUCREATE
 40
2456727.072974375
  9
$TDUPDATE
 40
2456727.447974907
  9
$TDUUPDATE
 40
2456727.072974907
  9
$TDINDWG
 40
0.0000000116
  9
$TDUSRTIMER
 40
0.0000000116
  9
$USRTIMER
 70
     1
  9
$ANGBASE
 50
0.0
  9
$ANGDIR
 70
     0
  9
$PDMODE
 70
     0
  9
$PDSIZE
 40
1.0
  9
$PLINEWID
 40
0.0
  9
$SPLFRAME
 70
     0
  9
$SPLINETYPE
 70
     6
  9
$SPLINESEGS
 70
     8
  9
$HANDSEED
  5
25A
  9
$SURFTAB1
 70
     6
  9
$SURFTAB2
 70
     6
  9
$SURFTYPE
 70
     6
  9
$SURFU
 70
     6
  9
$SURFV
 70
     6
  9
$UCSBASE
  2

  9
$UCSNAME
  2

  9
$UCSORG
 10
0.0
 20
0.0
 30
0.0
  9
$UCSXDIR
 10
1.0
 20
0.0
 30
0.0
  9
$UCSYDIR
 10
0.0
 20
1.0
 30
0.0
  9
$UCSORTHOREF
  2

  9
$UCSORTHOVIEW
 70
     0
  9
$UCSORGTOP
 10
0.0
 20
0.0
 30
0.0
  9
$UCSORGBOTTOM
 10
0.0
 20
0.0
 30
0.0
  9
$UCSORGLEFT
 10
0.0
 20
0.0
 30
0.0
  9
$UCSORGRIGHT
 10
0.0
 20
0.0
 30
0.0
  9
$UCSORGFRONT
 10
0.0
 20
0.0
 30
0.0
  9
$UCSORGBACK
 10
0.0
 20
0.0
 30
0.0
  9
$PUCSBASE
  2

  9
$PUCSNAME
  2

  9
$PUCSORG
 10
0.0
 20
0.0
 30
0.0
  9
$PUCSXDIR
 10
1.0
 20
0.0
 30
0.0
  9
$PUCSYDIR
 10
0.0
 20
1.0
 30
0.0
  9
$PUCSORTHOREF
  2

  9
$PUCSORTHOVIEW
 70
     0
  9
$PUCSORGTOP
 10
0.0
 20
0.0
 30
0.0
  9
$PUCSORGBOTTOM
 10
0.0
 20
0.0
 30
0.0
  9
$PUCSORGLEFT
 10
0.0
 20
0.0
 30
0.0
  9
$PUCSORGRIGHT
 10
0.0
 20
0.0
 30
0.0
  9
$PUCSORGFRONT
 10
0.0
 20
0.0
 30
0.0
  9
$PUCSORGBACK
 10
0.0
 20
0.0
 30
0.0
  9
$USERI1
 70
     0
  9
$USERI2
 70
     0
  9
$USERI3
 70
     0
  9
$USERI4
 70
     0
  9
$USERI5
 70
     0
  9
$USERR1
 40
0.0
  9
$USERR2
 40
0.0
  9
$USERR3
 40
0.0
  9
$USERR4
 40
0.0
  9
$USERR5
 40
0.0
  9
$WORLDVIEW
 70
     1
  9
$SHADEDGE
 70
     3
  9
$SHADEDIF
 70
    70
  9
$TILEMODE
 70
     1
  9
$MAXACTVP
 70
    64
  9
$PINSBASE
 10
0.0
 20
0.0
 30
0.0
  9
$PLIMCHECK
 70
     0
  9
$PEXTMIN
 10
1.000000000000000E+20
 20
1.000000000000000E+20
 30
1.000000000000000E+20
  9
$PEXTMAX
 10
-1.000000000000000E+20
 20
-1.000000000000000E+20
 30
-1.000000000000000E+20
  9
$PLIMMIN
 10
0.0
 20
0.0
  9
$PLIMMAX
 10
12.0
 20
9.0
  9
$UNITMODE
 70
     0
  9
$VISRETAIN
 70
     0
  9
$PLINEGEN
 70
     1
  9
$PSLTSCALE
 70
     0
  9
$TREEDEPTH
 70
  3020
  9
$CMLSTYLE
  2
Standard
  9
$CMLJUST
 70
     0
  9
$CMLSCALE
 40
1.0
  9
$PROXYGRAPHICS
 70
     0
  9
$MEASUREMENT
 70
     1
  9
$CELWEIGHT
370
    -1
  9
$ENDCAPS
280
     0
  9
$JOINSTYLE
280
     0
  9
$LWDISPLAY
290
     1
  9
$INSUNITS
 70
     4
  9
$HYPERLINKBASE
  1

  9
$STYLESHEET
  1

  9
$XEDIT
290
     1
  9
$CEPSNTYPE
380
     0
  9
$PSTYLEMODE
290
     1
  9
$FINGERPRINTGUID
  2
{325BE68C-760E-45EA-A9E2-834EC6464264}
  9
$VERSIONGUID
  2
{FAEB1C32-E019-11D5-929B-00C0DF256EC4}
  9
$EXTNAMES
290
     1
  9
$PSVPSCALE
 40
0.0
  9
$OLESTARTUP
290
     0
  0
ENDSEC
  0
SECTION
  2
CLASSES
  0
CLASS
  1
ACDBDICTIONARYWDFLT
  2
AcDbDictionaryWithDefault
  3
ObjectDBX Classes
 90
        0
280
     0
281
     0
  0
CLASS
  1
VISUALSTYLE
  2
AcDbVisualStyle
  3
ObjectDBX Classes
 90
     4095
280
     0
281
     0
  0
CLASS
  1
MATERIAL
  2
AcDbMaterial
  3
ObjectDBX Classes
 90
     1153
280
     0
281
     0
  0
CLASS
  1
SCALE
  2
AcDbScale
  3
ObjectDBX Classes
 90
     1153
280
     0
281
     0
  0
CLASS
  1
DICTIONARYVAR
  2
AcDbDictionaryVar
  3
ObjectDBX Classes
 90
        0
280
     0
281
     0
  0
CLASS
  1
ACDBPLACEHOLDER
  2
AcDbPlaceHolder
  3
ObjectDBX Classes
 90
        0
280
     0
281
     0
  0
CLASS
  1
LAYOUT
  2
AcDbLayout
  3
ObjectDBX Classes
 90
        0
280
     0
281
     0
  0
ENDSEC
  0
SECTION
  2
TABLES
  0
TABLE
  2
VPORT
  5
8
330
0
100
AcDbSymbolTable
 70
     1
  0
VPORT
  5
29
330
8
100
AcDbSymbolTableRecord
100
AcDbViewportTableRecord
  2
*Active
 70
     0
 10
0.0
 20
0.0
 11
1.0
 21
1.0
 12
-24.04468793727182
 22
0.1375000000000171
 13
0.0
 23
0.0
 14
0.5
 24
0.5
 15
0.5
 25
0.5
 16
0.0
 26
0.0
 36
1.0
 17
0.0
 27
0.0
 37
0.0
 40
276.4200000000001
 41
1.239522598248916
 42
50.0
 43
0.0
 44
0.0
 50
0.0
 51
0.0
 71
     0
 72
  1000
 73
     1
 74
     1
 75
     0
 76
     0
 77
     0
 78
     0
281
     0
 65
     1
110
0.0
120
0.0
130
0.0
111
1.0
121
0.0
131
0.0
112
0.0
122
1.0
132
0.0
 79
     0
146
0.0
  0
ENDTAB
  0
TABLE
  2
LTYPE
  5
5
330
0
100
AcDbSymbolTable
 70
    53
  0
LTYPE
  5
14
330
5
100
AcDbSymbolTableRecord
100
AcDbLinetypeTableRecord
  2
ByBlock
 70
     0
  3

 72
    65
 73
     0
 40
0.0
  0
LTYPE
  5
15
330
5
100
AcDbSymbolTableRecord
100
AcDbLinetypeTableRecord
  2
ByLayer
 70
     0
  3

 72
    65
 73
     0
 40
0.0
  0
LTYPE
  5
16
330
5
100
AcDbSymbolTableRecord
100
AcDbLinetypeTableRecord
  2
Continuous
 70
     0
  3
Solid line
 72
    65
 73
     0
 40
0.0
  0
LTYPE
  5
40
330
5
100
AcDbSymbolTableRecord
100
AcDbLinetypeTableRecord
  2
HIDDENX2
 70
     0
  3
Hidden (2x) ____ ____ ____ ____ ____ ____ ____ 
 72
    65
 73
     2
 40
19.05
 49
12.7
 74
     0
 49
-6.35
 74
     0
  0
LTYPE
  5
41
330
5
100
AcDbSymbolTableRecord
100
AcDbLinetypeTableRecord
  2
HIDDEN
 70
     0
  3
Hidden __ __ __ __ __ __ __ __ __ __ __ __ __ __
 72
    65
 73
     2
 40
9.524999999999999
 49
6.35
 74
     0
 49
-3.175
 74
     0
  0
LTYPE
  5
42
330
5
100
AcDbSymbolTableRecord
100
AcDbLinetypeTableRecord
  2
HIDDEN2
 70
     0
  3
Hidden (.5x) _ _ _ _ _ _ _ _ _ _ _ _ _ _ _ _ _ 
 72
    65
 73
     2
 40
4.762499999999999
 49
3.175
 74
     0
 49
-1.5875
 74
     0
  0
LTYPE
  5
43
330
5
100
AcDbSymbolTableRecord
100
AcDbLinetypeTableRecord
  2
DASHED
 70
     0
  3
Dashed __ __ __ __ __ __ __ __ __ __ __ __ __ _
 72
    65
 73
     2
 40
19.05
 49
12.7
 74
     0
 49
-6.35
 74
     0
  0
LTYPE
  5
44
330
5
100
AcDbSymbolTableRecord
100
AcDbLinetypeTableRecord
  2
DASHED2
 70
     0
  3
Dashed (.5x) _ _ _ _ _ _ _ _ _ _ _ _ _ _ _ _ _ 
 72
    65
 73
     2
 40
9.524999999999999
 49
6.35
 74
     0
 49
-3.175
 74
     0
  0
LTYPE
  5
45
330
5
100
AcDbSymbolTableRecord
100
AcDbLinetypeTableRecord
  2
DASHEDX2
 70
     0
  3
Dashed (2x) ____  ____  ____  ____  ____  ___
 72
    65
 73
     2
 40
38.09999999999999
 49
25.4
 74
     0
 49
-12.7
 74
     0
  0
LTYPE
  5
46
330
5
100
AcDbSymbolTableRecord
100
AcDbLinetypeTableRecord
  2
DOTX2
 70
     0
  3
Dot (2x) .  .  .  .  .  .  .  .  .  .  .  .  .  .
 72
    65
 73
     2
 40
12.7
 49
0.0
 74
     0
 49
-12.7
 74
     0
  0
LTYPE
  5
47
330
5
100
AcDbSymbolTableRecord
100
AcDbLinetypeTableRecord
  2
DOT
 70
     0
  3
Dot . . . . . . . . . . . . . . . . . . . . . . . .
 72
    65
 73
     2
 40
6.35
 49
0.0
 74
     0
 49
-6.35
 74
     0
  0
LTYPE
  5
48
330
5
100
AcDbSymbolTableRecord
100
AcDbLinetypeTableRecord
  2
DOT2
 70
     0
  3
Dot (.5x) ........................................
 72
    65
 73
     2
 40
3.175
 49
0.0
 74
     0
 49
-3.175
 74
     0
  0
LTYPE
  5
49
330
5
100
AcDbSymbolTableRecord
100
AcDbLinetypeTableRecord
  2
CENTERX2
 70
     0
  3
Center (2x) ________  __  ________  __  _____
 72
    65
 73
     4
 40
101.6
 49
63.5
 74
     0
 49
-12.7
 74
     0
 49
12.7
 74
     0
 49
-12.7
 74
     0
  0
LTYPE
  5
4A
330
5
100
AcDbSymbolTableRecord
100
AcDbLinetypeTableRecord
  2
CENTER
 70
     0
  3
Center ____ _ ____ _ ____ _ ____ _ ____ _ ____
 72
    65
 73
     4
 40
50.8
 49
31.75
 74
     0
 49
-6.35
 74
     0
 49
6.35
 74
     0
 49
-6.35
 74
     0
  0
LTYPE
  5
4B
330
5
100
AcDbSymbolTableRecord
100
AcDbLinetypeTableRecord
  2
CENTER2
 70
     0
  3
Center (.5x) ___ _ ___ _ ___ _ ___ _ ___ _ ___
 72
    65
 73
     4
 40
28.575
 49
19.05
 74
     0
 49
-3.175
 74
     0
 49
3.175
 74
     0
 49
-3.175
 74
     0
  0
LTYPE
  5
4C
330
5
100
AcDbSymbolTableRecord
100
AcDbLinetypeTableRecord
  2
DASHDOTX2
 70
     0
  3
Dash dot (2x) ____  .  ____  .  ____  .  ___
 72
    65
 73
     4
 40
50.8
 49
25.4
 74
     0
 49
-12.7
 74
     0
 49
0.0
 74
     0
 49
-12.7
 74
     0
  0
LTYPE
  5
4D
330
5
100
AcDbSymbolTableRecord
100
AcDbLinetypeTableRecord
  2
DASHDOT
 70
     0
  3
Dash dot __ . __ . __ . __ . __ . __ . __ . __
 72
    65
 73
     4
 40
25.4
 49
12.7
 74
     0
 49
-6.35
 74
     0
 49
0.0
 74
     0
 49
-6.35
 74
     0
  0
LTYPE
  5
4E
330
5
100
AcDbSymbolTableRecord
100
AcDbLinetypeTableRecord
  2
DASHDOT2
 70
     0
  3
Dash dot (.5x) _._._._._._._._._._._._._._._.
 72
    65
 73
     4
 40
12.7
 49
6.35
 74
     0
 49
-3.175
 74
     0
 49
0.0
 74
     0
 49
-3.175
 74
     0
  0
LTYPE
  5
4F
330
5
100
AcDbSymbolTableRecord
100
AcDbLinetypeTableRecord
  2
DIVIDEX2
 70
     0
  3
Divide (2x) ________  .  .  ________  .  .  _
 72
    65
 73
     6
 40
63.5
 49
25.4
 74
     0
 49
-12.7
 74
     0
 49
0.0
 74
     0
 49
-12.7
 74
     0
 49
0.0
 74
     0
 49
-12.7
 74
     0
  0
LTYPE
  5
50
330
5
100
AcDbSymbolTableRecord
100
AcDbLinetypeTableRecord
  2
DIVIDE
 70
     0
  3
Divide ____ . . ____ . . ____ . . ____ . . ____
 72
    65
 73
     6
 40
31.75
 49
12.7
 74
     0
 49
-6.35
 74
     0
 49
0.0
 74
     0
 49
-6.35
 74
     0
 49
0.0
 74
     0
 49
-6.35
 74
     0
  0
LTYPE
  5
51
330
5
100
AcDbSymbolTableRecord
100
AcDbLinetypeTableRecord
  2
DIVIDE2
 70
     0
  3
Divide (.5x) __..__..__..__..__..__..__..__.._
 72
    65
 73
     6
 40
15.875
 49
6.35
 74
     0
 49
-3.175
 74
     0
 49
0.0
 74
     0
 49
-3.175
 74
     0
 49
0.0
 74
     0
 49
-3.175
 74
     0
  0
LTYPE
  5
52
330
5
100
AcDbSymbolTableRecord
100
AcDbLinetypeTableRecord
  2
BORDERX2
 70
     0
  3
Border (2x) ____  ____  .  ____  ____  .  ___
 72
    65
 73
     6
 40
88.89999999999999
 49
25.4
 74
     0
 49
-12.7
 74
     0
 49
25.4
 74
     0
 49
-12.7
 74
     0
 49
0.0
 74
     0
 49
-12.7
 74
     0
  0
LTYPE
  5
53
330
5
100
AcDbSymbolTableRecord
100
AcDbLinetypeTableRecord
  2
BORDER
 70
     0
  3
Border __ __ . __ __ . __ __ . __ __ . __ __ .
 72
    65
 73
     6
 40
44.45
 49
12.7
 74
     0
 49
-6.35
 74
     0
 49
12.7
 74
     0
 49
-6.35
 74
     0
 49
0.0
 74
     0
 49
-6.35
 74
     0
  0
LTYPE
  5
54
330
5
100
AcDbSymbolTableRecord
100
AcDbLinetypeTableRecord
  2
BORDER2
 70
     0
  3
Border (.5x) __.__.__.__.__.__.__.__.__.__.__.
 72
    65
 73
     6
 40
22.225
 49
6.35
 74
     0
 49
-3.175
 74
     0
 49
6.35
 74
     0
 49
-3.175
 74
     0
 49
0.0
 74
     0
 49
-3.175
 74
     0
  0
LTYPE
  5
55
330
5
100
AcDbSymbolTableRecord
100
AcDbLinetypeTableRecord
  2
PHANTOMX2
 70
     0
  3
Phantom (2x) ____________    ____    ____   _
 72
    65
 73
     6
 40
127.0
 49
63.5
 74
     0
 49
-12.7
 74
     0
 49
12.7
 74
     0
 49
-12.7
 74
     0
 49
12.7
 74
     0
 49
-12.7
 74
     0
  0
LTYPE
  5
56
330
5
100
AcDbSymbolTableRecord
100
AcDbLinetypeTableRecord
  2
PHANTOM
 70
     0
  3
Phantom ______  __  __  ______  __  __  ______ 
 72
    65
 73
     6
 40
63.5
 49
31.75
 74
     0
 49
-6.35
 74
     0
 49
6.35
 74
     0
 49
-6.35
 74
     0
 49
6.35
 74
     0
 49
-6.35
 74
     0
  0
LTYPE
  5
57
330
5
100
AcDbSymbolTableRecord
100
AcDbLinetypeTableRecord
  2
PHANTOM2
 70
     0
  3
Phantom (.5x) ___ _ _ ___ _ _ ___ _ _ ___ _ _
 72
    65
 73
     6
 40
31.75
 49
15.875
 74
     0
 49
-3.175
 74
     0
 49
3.175
 74
     0
 49
-3.175
 74
     0
 49
3.175
 74
     0
 49
-3.175
 74
     0
  0
LTYPE
  5
58
330
5
100
AcDbSymbolTableRecord
100
AcDbLinetypeTableRecord
  2
ACAD_ISO06W100
 70
     0
  3
ISO long-dash triple-dot ____ ... ____ ... ____
 72
    65
 73
     8
 40
36.0
 49
24.0
 74
     0
 49
-3.0
 74
     0
 49
0.0
 74
     0
 49
-3.0
 74
     0
 49
0.0
 74
     0
 49
-3.0
 74
     0
 49
0.0
 74
     0
 49
-3.0
 74
     0
  0
LTYPE
  5
59
330
5
100
AcDbSymbolTableRecord
100
AcDbLinetypeTableRecord
  2
ACAD_ISO13W100
 70
     0
  3
ISO double-dash double-dot __ __ . . __ __ . . _
 72
    65
 73
     8
 40
36.0
 49
12.0
 74
     0
 49
-3.0
 74
     0
 49
12.0
 74
     0
 49
-3.0
 74
     0
 49
0.0
 74
     0
 49
-3.0
 74
     0
 49
0.0
 74
     0
 49
-3.0
 74
     0
  0
LTYPE
  5
5A
330
5
100
AcDbSymbolTableRecord
100
AcDbLinetypeTableRecord
  2
ACAD_ISO14W100
 70
     0
  3
ISO dash triple-dot __ . . . __ . . . __ . . . _
 72
    65
 73
     8
 40
24.0
 49
12.0
 74
     0
 49
-3.0
 74
     0
 49
0.0
 74
     0
 49
-3.0
 74
     0
 49
0.0
 74
     0
 49
-3.0
 74
     0
 49
0.0
 74
     0
 49
-3.0
 74
     0
  0
LTYPE
  5
5B
330
5
100
AcDbSymbolTableRecord
100
AcDbLinetypeTableRecord
  2
ACAD_ISO02W100
 70
     0
  3
ISO dash __ __ __ __ __ __ __ __ __ __ __ __ __
 72
    65
 73
     2
 40
15.0
 49
12.0
 74
     0
 49
-3.0
 74
     0
  0
LTYPE
  5
5C
330
5
100
AcDbSymbolTableRecord
100
AcDbLinetypeTableRecord
  2
ACAD_ISO03W100
 70
     0
  3
ISO dash space __    __    __    __    __    __
 72
    65
 73
     2
 40
30.0
 49
12.0
 74
     0
 49
-18.0
 74
     0
  0
LTYPE
  5
5D
330
5
100
AcDbSymbolTableRecord
100
AcDbLinetypeTableRecord
  2
ACAD_ISO04W100
 70
     0
  3
ISO long-dash dot ____ . ____ . ____ . ____ . _
 72
    65
 73
     4
 40
30.0
 49
24.0
 74
     0
 49
-3.0
 74
     0
 49
0.0
 74
     0
 49
-3.0
 74
     0
  0
LTYPE
  5
5E
330
5
100
AcDbSymbolTableRecord
100
AcDbLinetypeTableRecord
  2
ACAD_ISO05W100
 70
     0
  3
ISO long-dash double-dot ____ .. ____ .. ____ . 
 72
    65
 73
     6
 40
33.0
 49
24.0
 74
     0
 49
-3.0
 74
     0
 49
0.0
 74
     0
 49
-3.0
 74
     0
 49
0.0
 74
     0
 49
-3.0
 74
     0
  0
LTYPE
  5
5F
330
5
100
AcDbSymbolTableRecord
100
AcDbLinetypeTableRecord
  2
ACAD_ISO07W100
 70
     0
  3
ISO dot . . . . . . . . . . . . . . . . . . . . 
 72
    65
 73
     2
 40
3.0
 49
0.0
 74
     0
 49
-3.0
 74
     0
  0
LTYPE
  5
60
330
5
100
AcDbSymbolTableRecord
100
AcDbLinetypeTableRecord
  2
ACAD_ISO08W100
 70
     0
  3
ISO long-dash short-dash ____ __ ____ __ ____ _
 72
    65
 73
     4
 40
36.0
 49
24.0
 74
     0
 49
-3.0
 74
     0
 49
6.0
 74
     0
 49
-3.0
 74
     0
  0
LTYPE
  5
61
330
5
100
AcDbSymbolTableRecord
100
AcDbLinetypeTableRecord
  2
ACAD_ISO09W100
 70
     0
  3
ISO long-dash double-short-dash ____ __ __ ____
 72
    65
 73
     6
 40
45.0
 49
24.0
 74
     0
 49
-3.0
 74
     0
 49
6.0
 74
     0
 49
-3.0
 74
     0
 49
6.0
 74
     0
 49
-3.0
 74
     0
  0
LTYPE
  5
62
330
5
100
AcDbSymbolTableRecord
100
AcDbLinetypeTableRecord
  2
ACAD_ISO10W100
 70
     0
  3
ISO dash dot __ . __ . __ . __ . __ . __ . __ . 
 72
    65
 73
     4
 40
18.0
 49
12.0
 74
     0
 49
-3.0
 74
     0
 49
0.0
 74
     0
 49
-3.0
 74
     0
  0
LTYPE
  5
63
330
5
100
AcDbSymbolTableRecord
100
AcDbLinetypeTableRecord
  2
ACAD_ISO11W100
 70
     0
  3
ISO double-dash dot __ __ . __ __ . __ __ . __ _
 72
    65
 73
     6
 40
33.0
 49
12.0
 74
     0
 49
-3.0
 74
     0
 49
12.0
 74
     0
 49
-3.0
 74
     0
 49
0.0
 74
     0
 49
-3.0
 74
     0
  0
LTYPE
  5
64
330
5
100
AcDbSymbolTableRecord
100
AcDbLinetypeTableRecord
  2
ACAD_ISO12W100
 70
     0
  3
ISO dash double-dot __ . . __ . . __ . . __ . . 
 72
    65
 73
     6
 40
21.0
 49
12.0
 74
     0
 49
-3.0
 74
     0
 49
0.0
 74
     0
 49
-3.0
 74
     0
 49
0.0
 74
     0
 49
-3.0
 74
     0
  0
LTYPE
  5
65
330
5
100
AcDbSymbolTableRecord
100
AcDbLinetypeTableRecord
  2
ACAD_ISO15W100
 70
     0
  3
ISO double-dash triple-dot __ __ . . . __ __ . .
 72
    65
 73
    10
 40
39.0
 49
12.0
 74
     0
 49
-3.0
 74
     0
 49
12.0
 74
     0
 49
-3.0
 74
     0
 49
0.0
 74
     0
 49
-3.0
 74
     0
 49
0.0
 74
     0
 49
-3.0
 74
     0
 49
0.0
 74
     0
 49
-3.0
 74
     0
  0
LTYPE
  5
66
330
5
100
AcDbSymbolTableRecord
100
AcDbLinetypeTableRecord
  2
JIS_02_0.7
 70
     0
  3
HIDDEN0.75 _ _ _ _ _ _ _ _ _ _ _ _ _ _ _ _ _ 
 72
    65
 73
     2
 40
1.35
 49
0.75
 74
     0
 49
-0.6
 74
     0
  0
LTYPE
  5
67
330
5
100
AcDbSymbolTableRecord
100
AcDbLinetypeTableRecord
  2
JIS_02_1.0
 70
     0
  3
HIDDEN01 _ _ _ _ _ _ _ _ _ _ _ _ _ _ _ _ _ 
 72
    65
 73
     2
 40
2.0
 49
1.0
 74
     0
 49
-1.0
 74
     0
  0
LTYPE
  5
68
330
5
100
AcDbSymbolTableRecord
100
AcDbLinetypeTableRecord
  2
JIS_02_1.2
 70
     0
  3
HIDDEN01.25  _ _ _ _ _ _ _ _ _ _ _ _ _ _ _ _ _ 
 72
    65
 73
     2
 40
2.5
 49
1.25
 74
     0
 49
-1.25
 74
     0
  0
LTYPE
  5
69
330
5
100
AcDbSymbolTableRecord
100
AcDbLinetypeTableRecord
  2
JIS_02_2.0
 70
     0
  3
HIDDEN02 __ __ __ __ __ __ __ __ __ __ __ 
 72
    65
 73
     2
 40
3.0
 49
2.0
 74
     0
 49
-1.0
 74
     0
  0
LTYPE
  5
6A
330
5
100
AcDbSymbolTableRecord
100
AcDbLinetypeTableRecord
  2
JIS_02_4.0
 70
     0
  3
HIDDEN04 ____ ____ ____ ____ ____ ____ ____ 
 72
    65
 73
     2
 40
5.5
 49
4.0
 74
     0
 49
-1.5
 74
     0
  0
LTYPE
  5
6B
330
5
100
AcDbSymbolTableRecord
100
AcDbLinetypeTableRecord
  2
JIS_08_11
 70
     0
  3
1SASEN11 ___ _ ___ _ ___ _ ___ _ ___ _ ___
 72
    65
 73
     4
 40
12.8
 49
11.0
 74
     0
 49
-0.6
 74
     0
 49
0.6
 74
     0
 49
-0.6
 74
     0
  0
LTYPE
  5
6C
330
5
100
AcDbSymbolTableRecord
100
AcDbLinetypeTableRecord
  2
JIS_08_15
 70
     0
  3
1SASEN15 ____ _ ____ _ ____ _ ____ _ ____ 
 72
    65
 73
     4
 40
17.25
 49
15.0
 74
     0
 49
-0.75
 74
     0
 49
0.75
 74
     0
 49
-0.75
 74
     0
  0
LTYPE
  5
6D
330
5
100
AcDbSymbolTableRecord
100
AcDbLinetypeTableRecord
  2
JIS_08_25
 70
     0
  3
1SASEN25 ________  __  ________  __  _____
 72
    65
 73
     4
 40
28.0
 49
25.0
 74
     0
 49
-1.125
 74
     0
 49
0.75
 74
     0
 49
-1.125
 74
     0
  0
LTYPE
  5
6E
330
5
100
AcDbSymbolTableRecord
100
AcDbLinetypeTableRecord
  2
JIS_08_37
 70
     0
  3
1SASEN37 ________  __  ________  __  _____
 72
    65
 73
     4
 40
40.5
 49
37.5
 74
     0
 49
-1.125
 74
     0
 49
0.75
 74
     0
 49
-1.125
 74
     0
  0
LTYPE
  5
6F
330
5
100
AcDbSymbolTableRecord
100
AcDbLinetypeTableRecord
  2
JIS_08_50
 70
     0
  3
1SASEN50 _______________  __  ____________
 72
    65
 73
     4
 40
53.0
 49
50.0
 74
     0
 49
-1.125
 74
     0
 49
0.75
 74
     0
 49
-1.125
 74
     0
  0
LTYPE
  5
70
330
5
100
AcDbSymbolTableRecord
100
AcDbLinetypeTableRecord
  2
JIS_09_08
 70
     0
  3
2SASEN8 __ _ _ __ _ _ __ _ _ __ _ _ __ _ _ 
 72
    65
 73
     6
 40
10.75
 49
8.0
 74
     0
 49
-0.55
 74
     0
 49
0.55
 74
     0
 49
-0.55
 74
     0
 49
0.55
 74
     0
 49
-0.55
 74
     0
  0
LTYPE
  5
71
330
5
100
AcDbSymbolTableRecord
100
AcDbLinetypeTableRecord
  2
JIS_09_15
 70
     0
  3
2SASEN15 ___ _ _ ___ _ _ ___ _ _ ___ _ _ ___ 
 72
    65
 73
     6
 40
18.9
 49
15.0
 74
     0
 49
-0.9
 74
     0
 49
0.6
 74
     0
 49
-0.9
 74
     0
 49
0.6
 74
     0
 49
-0.9
 74
     0
  0
LTYPE
  5
72
330
5
100
AcDbSymbolTableRecord
100
AcDbLinetypeTableRecord
  2
JIS_09_29
 70
     0
  3
2SASEN29 ______　__  __  ______　__  __  ___
 72
    65
 73
     6
 40
34.0
 49
29.0
 74
     0
 49
-1.2
 74
     0
 49
0.7
 74
     0
 49
-1.2
 74
     0
 49
0.7
 74
     0
 49
-1.2
 74
     0
  0
LTYPE
  5
73
330
5
100
AcDbSymbolTableRecord
100
AcDbLinetypeTableRecord
  2
JIS_09_50
 70
     0
  3
2SASEN50 ____________　__  __  _____________
 72
    65
 73
     6
 40
55.0
 49
50.0
 74
     0
 49
-1.2
 74
     0
 49
0.7
 74
     0
 49
-1.2
 74
     0
 49
0.7
 74
     0
 49
-1.2
 74
     0
  0
ENDTAB
  0
TABLE
  2
LAYER
  5
2
330
0
100
AcDbSymbolTable
 70
     1
  0
LAYER
  5
10
330
2
100
AcDbSymbolTableRecord
100
AcDbLayerTableRecord
  2
0
 70
     0
 62
     7
  6
Continuous
370
    -3
390
F
  0
ENDTAB
  0
TABLE
  2
STYLE
  5
3
330
0
100
AcDbSymbolTable
 70
     2
  0
STYLE
  5
11
330
3
100
AcDbSymbolTableRecord
100
AcDbTextStyleTableRecord
  2
Standard
 70
     0
 40
0.0
 41
1.0
 50
0.0
 71
     0
 42
0.2
  3
txt.shx
  4
bigfont.shx
  0
STYLE
  5
BA
330
3
100
AcDbSymbolTableRecord
100
AcDbTextStyleTableRecord
  2
dcStyle0
 70
     0
 40
0.0
 41
1.0
 50
0.0
 71
     0
 42
0.2
  3
HG丸ｺﾞｼｯｸM-PRO
  4

1001
ACAD
1000
HG丸ｺﾞｼｯｸM-PRO
1071
    32802
  0
ENDTAB
  0
TABLE
  2
VIEW
  5
6
330
0
100
AcDbSymbolTable
 70
     0
  0
ENDTAB
  0
TABLE
  2
UCS
  5
7
330
0
100
AcDbSymbolTable
 70
     0
  0
ENDTAB
  0
TABLE
  2
APPID
  5
9
330
0
100
AcDbSymbolTable
 70
     3
  0
APPID
  5
12
330
9
100
AcDbSymbolTableRecord
100
AcDbRegAppTableRecord
  2
ACAD
 70
     0
  0
APPID
  5
3F
330
9
100
AcDbSymbolTableRecord
100
AcDbRegAppTableRecord
  2
DaFusionOut
 70
     0
  0
APPID
  5
233
330
9
100
AcDbSymbolTableRecord
100
AcDbRegAppTableRecord
  2
ACAD_DSTYLE_DIMARC_LENGTH_SYMBOL
 70
     0
  0
ENDTAB
  0
TABLE
  2
DIMSTYLE
  5
A
330
0
100
AcDbSymbolTable
 70
     2
100
AcDbDimStyleTable
  0
DIMSTYLE
105
27
330
A
100
AcDbSymbolTableRecord
100
AcDbDimStyleTableRecord
  2
Standard
 70
     0
178
     0
340
11
  0
DIMSTYLE
105
1D0
102
{ACAD_REACTORS
330
1CF
330
1D1
330
1D4
330
1D5
330
1D6
330
1D7
330
1D8
330
1D9
330
1DA
330
1DB
330
1DC
330
1DD
330
1DE
330
1DF
330
1E0
330
1E1
330
1E2
330
1E3
102
}
330
A
100
AcDbSymbolTableRecord
100
AcDbDimStyleTableRecord
  2
dc_Rotated
 70
     0
 41
3.000001907348633
 42
1.0
 44
1.0
 73
     0
 74
     0
 77
     3
 78
     8
 79
     2
140
3.0
147
1.0
172
     1
173
     1
176
     4
177
     4
271
     2
178
     2
271
     2
274
     4
283
     0
284
     8
288
     1
340
11
343
E1
344
E1
1001
ACAD_DSTYLE_DIMARC_LENGTH_SYMBOL
1070
   379
1070
     1
  0
ENDTAB
  0
TABLE
  2
BLOCK_RECORD
  5
1
330
0
100
AcDbSymbolTable
 70
    25
  0
BLOCK_RECORD
  5
1F
330
1
100
AcDbSymbolTableRecord
100
AcDbBlockTableRecord
  2
*Model_Space
340
22
  0
BLOCK_RECORD
  5
1B
330
1
100
AcDbSymbolTableRecord
100
AcDbBlockTableRecord
  2
*Paper_Space
340
1E
  0
BLOCK_RECORD
  5
23
330
1
100
AcDbSymbolTableRecord
100
AcDbBlockTableRecord
  2
*Paper_Space0
340
26
  0
BLOCK_RECORD
  5
75
330
1
100
AcDbSymbolTableRecord
100
AcDbBlockTableRecord
  2
DC_GROUP_KL500彫込本締錠_1
340
0
102
{BLKREFS
331
1CC
102
}
  0
BLOCK_RECORD
  5
78
330
1
100
AcDbSymbolTableRecord
100
AcDbBlockTableRecord
  2
DC_GROUP_KL500彫込本締錠_2
340
0
102
{BLKREFS
331
1CD
102
}
  0
BLOCK_RECORD
  5
7B
330
1
100
AcDbSymbolTableRecord
100
AcDbBlockTableRecord
  2
DC_GROUP_KL500彫込本締錠_3
340
0
102
{BLKREFS
331
1CE
102
}
  0
BLOCK_RECORD
  5
7E
330
1
100
AcDbSymbolTableRecord
100
AcDbBlockTableRecord
  2
*D4
340
0
  0
BLOCK_RECORD
  5
81
330
1
100
AcDbSymbolTableRecord
100
AcDbBlockTableRecord
  2
*D5
340
0
  0
BLOCK_RECORD
  5
84
330
1
100
AcDbSymbolTableRecord
100
AcDbBlockTableRecord
  2
DC_GROUP_KL500彫込本締錠_4
340
0
102
{BLKREFS
331
1D2
102
}
  0
BLOCK_RECORD
  5
87
330
1
100
AcDbSymbolTableRecord
100
AcDbBlockTableRecord
  2
DC_GROUP_KL500彫込本締錠_5
340
0
102
{BLKREFS
331
1D3
102
}
  0
BLOCK_RECORD
  5
8A
330
1
100
AcDbSymbolTableRecord
100
AcDbBlockTableRecord
  2
*D8
340
0
  0
BLOCK_RECORD
  5
8D
330
1
100
AcDbSymbolTableRecord
100
AcDbBlockTableRecord
  2
*D9
340
0
  0
BLOCK_RECORD
  5
90
330
1
100
AcDbSymbolTableRecord
100
AcDbBlockTableRecord
  2
*D10
340
0
  0
BLOCK_RECORD
  5
93
330
1
100
AcDbSymbolTableRecord
100
AcDbBlockTableRecord
  2
*D11
340
0
  0
BLOCK_RECORD
  5
96
330
1
100
AcDbSymbolTableRecord
100
AcDbBlockTableRecord
  2
*D12
340
0
  0
BLOCK_RECORD
  5
99
330
1
100
AcDbSymbolTableRecord
100
AcDbBlockTableRecord
  2
*D13
340
0
  0
BLOCK_RECORD
  5
9C
330
1
100
AcDbSymbolTableRecord
100
AcDbBlockTableRecord
  2
*D14
340
0
  0
BLOCK_RECORD
  5
9F
330
1
100
AcDbSymbolTableRecord
100
AcDbBlockTableRecord
  2
*D15
340
0
  0
BLOCK_RECORD
  5
A2
330
1
100
AcDbSymbolTableRecord
100
AcDbBlockTableRecord
  2
*D16
340
0
  0
BLOCK_RECORD
  5
A5
330
1
100
AcDbSymbolTableRecord
100
AcDbBlockTableRecord
  2
*D17
340
0
  0
BLOCK_RECORD
  5
A8
330
1
100
AcDbSymbolTableRecord
100
AcDbBlockTableRecord
  2
*D18
340
0
  0
BLOCK_RECORD
  5
AB
330
1
100
AcDbSymbolTableRecord
100
AcDbBlockTableRecord
  2
*D19
340
0
  0
BLOCK_RECORD
  5
AE
330
1
100
AcDbSymbolTableRecord
100
AcDbBlockTableRecord
  2
*D20
340
0
  0
BLOCK_RECORD
  5
B1
330
1
100
AcDbSymbolTableRecord
100
AcDbBlockTableRecord
  2
*D21
340
0
  0
BLOCK_RECORD
  5
B4
330
1
100
AcDbSymbolTableRecord
100
AcDbBlockTableRecord
  2
*D22
340
0
  0
BLOCK_RECORD
  5
B7
330
1
100
AcDbSymbolTableRecord
100
AcDbBlockTableRecord
  2
*D23
340
0
  0
BLOCK_RECORD
  5
E1
330
1
100
AcDbSymbolTableRecord
100
AcDbBlockTableRecord
  2
_OPEN30
340
0
102
{BLKREFS
331
E7
331
E8
331
ED
331
EE
331
133
331
134
331
139
331
13A
331
13F
331
140
331
148
331
14A
331
14D
331
14E
331
156
331
158
331
15D
331
15E
331
163
331
164
331
169
331
16A
331
16F
331
170
331
173
331
174
331
179
331
17A
331
17F
331
180
331
188
331
18B
331
18C
331
191
331
192
102
}
  0
ENDTAB
  0
ENDSEC
  0
SECTION
  2
BLOCKS
  0
BLOCK
  5
20
330
1F
100
AcDbEntity
  8
0
100
AcDbBlockBegin
  2
*Model_Space
 70
     0
 10
0.0
 20
0.0
 30
0.0
  3
*Model_Space
  1

  0
ENDBLK
  5
21
330
1F
100
AcDbEntity
  8
0
100
AcDbBlockEnd
  0
BLOCK
  5
1C
330
1B
100
AcDbEntity
 67
     1
  8
0
100
AcDbBlockBegin
  2
*Paper_Space
 70
     0
 10
0.0
 20
0.0
 30
0.0
  3
*Paper_Space
  1

  0
ENDBLK
  5
1D
330
1B
100
AcDbEntity
 67
     1
  8
0
100
AcDbBlockEnd
  0
BLOCK
  5
24
330
23
100
AcDbEntity
  8
0
100
AcDbBlockBegin
  2
*Paper_Space0
 70
     0
 10
0.0
 20
0.0
 30
0.0
  3
*Paper_Space0
  1

  0
ENDBLK
  5
25
330
23
100
AcDbEntity
  8
0
100
AcDbBlockEnd
  0
BLOCK
  5
76
330
75
100
AcDbEntity
  8
0
100
AcDbBlockBegin
  2
DC_GROUP_KL500彫込本締錠_1
 70
     0
 10
0.0
 20
0.0
 30
0.0
  3
DC_GROUP_KL500彫込本締錠_1
  1

  0
TEXT
  5
BB
330
75
100
AcDbEntity
  8
0
 62
     2
100
AcDbText
 10
-192.0
 20
126.0
 30
0.0
 40
5.0
  1
適用品番　KL22200
 41
0.7149772845758545
  7
dcStyle0
 72
     5
 11
-144.0
 21
126.0
 31
0.0
100
AcDbText
  0
ENDBLK
  5
77
330
75
100
AcDbEntity
  8
0
100
AcDbBlockEnd
  0
BLOCK
  5
79
330
78
100
AcDbEntity
  8
0
100
AcDbBlockBegin
  2
DC_GROUP_KL500彫込本締錠_2
 70
     0
 10
0.0
 20
0.0
 30
0.0
  3
DC_GROUP_KL500彫込本締錠_2
  1

  0
LINE
  5
BC
330
78
100
AcDbEntity
  8
0
  6
Continuous
 62
     9
370
    13
100
AcDbLine
 10
94.37509021952363
 20
112.1019660940673
 30
0.0
 11
96.41062412545638
 21
114.1375
 31
0.0
  0
LINE
  5
BD
330
78
100
AcDbEntity
  8
0
  6
Continuous
 62
     9
370
    13
100
AcDbLine
 10
99.41062412545637
 20
117.1375
 30
0.0
 11
101.4461580313891
 21
119.1730339059328
 31
0.0
  0
LINE
  5
BE
330
78
100
AcDbEntity
  8
0
  6
Continuous
 62
     9
370
    13
100
AcDbLine
 10
93.73941572913206
 20
112.8805051660488
 30
0.0
 11
94.99641056308327
 21
114.1375
 31
0.0
  0
LINE
  5
BF
330
78
100
AcDbEntity
  8
0
  6
Continuous
 62
     9
370
    13
100
AcDbLine
 10
97.99641056308326
 20
117.1375
 30
0.0
 11
100.6676189594076
 21
119.8087083963243
 31
0.0
  0
LINE
  5
C0
330
78
100
AcDbEntity
  8
0
  6
Continuous
 62
     9
370
    13
100
AcDbLine
 10
93.25604021387933
 20
113.8113432131692
 30
0.0
 11
93.58219700071017
 21
114.1375
 31
0.0
  0
LINE
  5
C1
330
78
100
AcDbEntity
  8
0
  6
Continuous
 62
     9
370
    13
100
AcDbLine
 10
96.58219700071015
 20
117.1375
 30
0.0
 11
99.73678091228719
 21
120.292083911577
 31
0.0
  0
LINE
  5
C2
330
78
100
AcDbEntity
  8
0
  6
Continuous
 62
     9
370
    13
100
AcDbLine
 10
92.96087665715052
 20
114.9303932188135
 30
0.0
 11
93.41062412545637
 21
115.3801406871193
 31
0.0
  0
LINE
  5
C3
330
78
100
AcDbEntity
  8
0
  6
Continuous
 62
     9
370
    13
100
AcDbLine
 10
95.16798343833705
 20
117.1375
 30
0.0
 11
98.61773090664289
 21
120.5872474683058
 31
0.0
  0
LINE
  5
C4
330
78
100
AcDbEntity
  8
0
  6
Continuous
 62
     9
370
    13
100
AcDbLine
 10
92.96087665715054
 20
116.3446067811866
 30
0.0
 11
93.41062412545637
 21
116.7943542494924
 31
0.0
  0
LINE
  5
C5
330
78
100
AcDbEntity
  8
0
  6
Continuous
 62
     9
370
    13
100
AcDbLine
 10
93.75376987596394
 20
117.1375
 30
0.0
 11
97.20351734426977
 21
120.5872474683058
 31
0.0
  0
LINE
  5
C6
330
78
100
AcDbEntity
  8
0
  6
Continuous
 62
     9
370
    13
100
AcDbLine
 10
95.15362929150517
 20
111.4662916036757
 30
0.0
 11
97.82483768782949
 21
114.1375
 31
0.0
  0
LINE
  5
C7
330
78
100
AcDbEntity
  8
0
  6
Continuous
 62
     9
370
    13
100
AcDbLine
 10
100.8248376878295
 20
117.1375
 30
0.0
 11
102.0818325217807
 21
118.3944948339512
 31
0.0
  0
LINE
  5
C8
330
78
100
AcDbEntity
  8
0
  6
Continuous
 62
     9
370
    13
100
AcDbLine
 10
96.08446733862554
 20
110.982916088423
 30
0.0
 11
99.23905125020259
 21
114.1375
 31
0.0
  0
LINE
  5
C9
330
78
100
AcDbEntity
  8
0
  6
Continuous
 62
     9
370
    13
100
AcDbLine
 10
102.2390512502026
 20
117.1375
 30
0.0
 11
102.5652080370334
 21
117.4636567868308
 31
0.0
  0
LINE
  5
CA
330
78
100
AcDbEntity
  8
0
  6
Continuous
 62
     9
370
    13
100
AcDbLine
 10
97.20351734426986
 20
110.6877525316942
 30
0.0
 11
100.6532648125757
 21
114.1375
 31
0.0
  0
LINE
  5
CB
330
78
100
AcDbEntity
  8
0
  6
Continuous
 62
     9
370
    13
100
AcDbLine
 10
102.4106241254564
 20
115.8948593128807
 30
0.0
 11
102.8603715937622
 21
116.3446067811865
 31
0.0
  0
LINE
  5
CC
330
78
100
AcDbEntity
  8
0
  6
Continuous
 62
     9
370
    13
100
AcDbLine
 10
98.61773090664298
 20
110.6877525316942
 30
0.0
 11
102.0674783749488
 21
114.1375
 31
0.0
  0
LINE
  5
CD
330
78
100
AcDbEntity
  8
0
  6
Continuous
 62
     9
370
    13
100
AcDbLine
 10
102.4106241254564
 20
114.4806457505076
 30
0.0
 11
102.8603715937622
 21
114.9303932188134
 31
0.0
  0
ENDBLK
  5
7A
330
78
100
AcDbEntity
  8
0
100
AcDbBlockEnd
  0
BLOCK
  5
7C
330
7B
100
AcDbEntity
  8
0
100
AcDbBlockBegin
  2
DC_GROUP_KL500彫込本締錠_3
 70
     0
 10
0.0
 20
0.0
 30
0.0
  3
DC_GROUP_KL500彫込本締錠_3
  1

  0
LINE
  5
CE
330
7B
100
AcDbEntity
  8
0
  6
Continuous
 62
     9
370
    13
100
AcDbLine
 10
94.37509021952363
 20
-70.89803390593273
 30
0.0
 11
96.41062412545638
 21
-68.8625
 31
0.0
  0
LINE
  5
CF
330
7B
100
AcDbEntity
  8
0
  6
Continuous
 62
     9
370
    13
100
AcDbLine
 10
99.41062412545637
 20
-65.86250000000001
 30
0.0
 11
101.4461580313891
 21
-63.82696609406725
 31
0.0
  0
LINE
  5
D0
330
7B
100
AcDbEntity
  8
0
  6
Continuous
 62
     9
370
    13
100
AcDbLine
 10
93.73941572913206
 20
-70.11949483395121
 30
0.0
 11
94.99641056308327
 21
-68.8625
 31
0.0
  0
LINE
  5
D1
330
7B
100
AcDbEntity
  8
0
  6
Continuous
 62
     9
370
    13
100
AcDbLine
 10
97.99641056308326
 20
-65.86250000000001
 30
0.0
 11
100.6676189594076
 21
-63.19129160367569
 31
0.0
  0
LINE
  5
D2
330
7B
100
AcDbEntity
  8
0
  6
Continuous
 62
     9
370
    13
100
AcDbLine
 10
93.25604021387933
 20
-69.18865678683083
 30
0.0
 11
93.58219700071017
 21
-68.8625
 31
0.0
  0
LINE
  5
D3
330
7B
100
AcDbEntity
  8
0
  6
Continuous
 62
     9
370
    13
100
AcDbLine
 10
96.58219700071015
 20
-65.86250000000001
 30
0.0
 11
99.73678091228719
 21
-62.70791608842296
 31
0.0
  0
LINE
  5
D4
330
7B
100
AcDbEntity
  8
0
  6
Continuous
 62
     9
370
    13
100
AcDbLine
 10
92.96087665715052
 20
-68.06960678118654
 30
0.0
 11
93.41062412545637
 21
-67.61985931288069
 31
0.0
  0
LINE
  5
D5
330
7B
100
AcDbEntity
  8
0
  6
Continuous
 62
     9
370
    13
100
AcDbLine
 10
95.16798343833705
 20
-65.86250000000001
 30
0.0
 11
98.61773090664289
 21
-62.41275253169417
 31
0.0
  0
LINE
  5
D6
330
7B
100
AcDbEntity
  8
0
  6
Continuous
 62
     9
370
    13
100
AcDbLine
 10
92.96087665715054
 20
-66.65539321881342
 30
0.0
 11
93.41062412545637
 21
-66.20564575050759
 31
0.0
  0
LINE
  5
D7
330
7B
100
AcDbEntity
  8
0
  6
Continuous
 62
     9
370
    13
100
AcDbLine
 10
93.75376987596394
 20
-65.86250000000001
 30
0.0
 11
97.20351734426977
 21
-62.41275253169417
 31
0.0
  0
LINE
  5
D8
330
7B
100
AcDbEntity
  8
0
  6
Continuous
 62
     9
370
    13
100
AcDbLine
 10
95.15362929150517
 20
-71.53370839632431
 30
0.0
 11
97.82483768782949
 21
-68.8625
 31
0.0
  0
LINE
  5
D9
330
7B
100
AcDbEntity
  8
0
  6
Continuous
 62
     9
370
    13
100
AcDbLine
 10
100.8248376878295
 20
-65.86250000000001
 30
0.0
 11
102.0818325217807
 21
-64.60550516604881
 31
0.0
  0
LINE
  5
DA
330
7B
100
AcDbEntity
  8
0
  6
Continuous
 62
     9
370
    13
100
AcDbLine
 10
96.08446733862554
 20
-72.01708391157705
 30
0.0
 11
99.23905125020259
 21
-68.8625
 31
0.0
  0
LINE
  5
DB
330
7B
100
AcDbEntity
  8
0
  6
Continuous
 62
     9
370
    13
100
AcDbLine
 10
102.2390512502026
 20
-65.86250000000001
 30
0.0
 11
102.5652080370334
 21
-65.53634321316919
 31
0.0
  0
LINE
  5
DC
330
7B
100
AcDbEntity
  8
0
  6
Continuous
 62
     9
370
    13
100
AcDbLine
 10
97.20351734426986
 20
-72.31224746830584
 30
0.0
 11
100.6532648125757
 21
-68.8625
 31
0.0
  0
LINE
  5
DD
330
7B
100
AcDbEntity
  8
0
  6
Continuous
 62
     9
370
    13
100
AcDbLine
 10
102.4106241254564
 20
-67.10514068711933
 30
0.0
 11
102.8603715937622
 21
-66.6553932188135
 31
0.0
  0
LINE
  5
DE
330
7B
100
AcDbEntity
  8
0
  6
Continuous
 62
     9
370
    13
100
AcDbLine
 10
98.61773090664298
 20
-72.31224746830583
 30
0.0
 11
102.0674783749488
 21
-68.8625
 31
0.0
  0
LINE
  5
DF
330
7B
100
AcDbEntity
  8
0
  6
Continuous
 62
     9
370
    13
100
AcDbLine
 10
102.4106241254564
 20
-68.51935424949244
 30
0.0
 11
102.8603715937622
 21
-68.06960678118662
 31
0.0
  0
ENDBLK
  5
7D
330
7B
100
AcDbEntity
  8
0
100
AcDbBlockEnd
  0
BLOCK
  5
7F
330
7E
100
AcDbEntity
  8
0
100
AcDbBlockBegin
  2
*D4
 70
     1
 10
0.0
 20
0.0
 30
0.0
  3
*D4
  1

  0
LINE
  5
E0
330
7E
100
AcDbEntity
  8
0
  6
Continuous
 62
     4
370
    13
100
AcDbLine
 10
142.9106241254564
 20
-67.3625
 30
0.0
 11
142.9106241254564
 21
-45.3625
 31
0.0
  0
INSERT
  5
E7
330
7E
100
AcDbEntity
  8
0
 62
     4
100
AcDbBlockReference
  2
_OPEN30
 10
142.9106241254564
 20
-67.3625
 30
0.0
 41
3.000002807615286
 42
2.999989368223643
 50
270.0
  0
INSERT
  5
E8
330
7E
100
AcDbEntity
  8
0
 62
     4
100
AcDbBlockReference
  2
_OPEN30
 10
142.9106241254564
 20
-45.3625
 30
0.0
 41
3.000002807615286
 42
2.999989368223643
 50
90.0
  0
LINE
  5
E9
330
7E
100
AcDbEntity
  8
0
  6
Continuous
 62
     4
370
    13
100
AcDbLine
 10
108.9106241254564
 20
-67.3625
 30
0.0
 11
143.9106241254564
 21
-67.3625
 31
0.0
  0
LINE
  5
EA
330
7E
100
AcDbEntity
  8
0
  6
Continuous
 62
     4
370
    13
100
AcDbLine
 10
115.9106241254564
 20
-45.3625
 30
0.0
 11
143.9106241254564
 21
-45.3625
 31
0.0
  0
MTEXT
  5
EB
330
7E
100
AcDbEntity
  8
0
 62
     2
100
AcDbMText
 10
141.9106241254564
 20
-56.3625
 30
0.0
 40
3.0
 41
15.75000000000003
 71
     8
 72
     1
  1
\T1.00;22mm
  7
dcStyle0
 11
6.123233995736766E-17
 21
1.0
 31
0.0
 73
     1
 44
1.0
  0
ENDBLK
  5
80
330
7E
100
AcDbEntity
  8
0
100
AcDbBlockEnd
  0
BLOCK
  5
82
330
81
100
AcDbEntity
  8
0
100
AcDbBlockBegin
  2
*D5
 70
     1
 10
0.0
 20
0.0
 30
0.0
  3
*D5
  1

  0
LINE
  5
EC
330
81
100
AcDbEntity
  8
0
  6
Continuous
 62
     4
370
    13
100
AcDbLine
 10
142.9106241254564
 20
-45.3625
 30
0.0
 11
142.9106241254564
 21
115.6375
 31
0.0
  0
INSERT
  5
ED
330
81
100
AcDbEntity
  8
0
 62
     4
100
AcDbBlockReference
  2
_OPEN30
 10
142.9106241254564
 20
-45.3625
 30
0.0
 41
3.000002807615286
 42
2.999989368223643
 50
270.0
  0
INSERT
  5
EE
330
81
100
AcDbEntity
  8
0
 62
     4
100
AcDbBlockReference
  2
_OPEN30
 10
142.9106241254564
 20
115.6375
 30
0.0
 41
3.000002807615286
 42
2.999989368223643
 50
90.0
  0
LINE
  5
EF
330
81
100
AcDbEntity
  8
0
  6
Continuous
 62
     4
370
    13
100
AcDbLine
 10
115.9106241254564
 20
-45.3625
 30
0.0
 11
143.9106241254564
 21
-45.3625
 31
0.0
  0
LINE
  5
F0
330
81
100
AcDbEntity
  8
0
  6
Continuous
 62
     4
370
    13
100
AcDbLine
 10
108.9106241254564
 20
115.6375
 30
0.0
 11
143.9106241254564
 21
115.6375
 31
0.0
  0
MTEXT
  5
F1
330
81
100
AcDbEntity
  8
0
 62
     2
100
AcDbMText
 10
141.9106241254564
 20
35.1375
 30
0.0
 40
3.0
 41
18.75
 71
     8
 72
     1
  1
\T1.00;161mm
  7
dcStyle0
 11
6.123233995736766E-17
 21
1.0
 31
0.0
 73
     1
 44
1.0
  0
ENDBLK
  5
83
330
81
100
AcDbEntity
  8
0
100
AcDbBlockEnd
  0
BLOCK
  5
85
330
84
100
AcDbEntity
  8
0
100
AcDbBlockBegin
  2
DC_GROUP_KL500彫込本締錠_4
 70
     0
 10
0.0
 20
0.0
 30
0.0
  3
DC_GROUP_KL500彫込本締錠_4
  1

  0
LINE
  5
F2
330
84
100
AcDbEntity
  8
0
  6
Continuous
 62
     9
370
    13
100
AcDbLine
 10
87.95626806813851
 20
-46.31685605731786
 30
0.0
 11
98.86498018277422
 21
-35.40814394268214
 31
0.0
  0
LINE
  5
F3
330
84
100
AcDbEntity
  8
0
  6
Continuous
 62
     9
370
    13
100
AcDbLine
 10
87.91958183369684
 20
-44.93932872938642
 30
0.0
 11
97.48745285484279
 21
-35.37145770824048
 31
0.0
  0
LINE
  5
F4
330
84
100
AcDbEntity
  8
0
  6
Continuous
 62
     9
370
    13
100
AcDbLine
 10
88.12057801527601
 20
-43.32411898543416
 30
0.0
 11
95.87224311089054
 21
-35.57245388981963
 31
0.0
  0
LINE
  5
F5
330
84
100
AcDbEntity
  8
0
  6
Continuous
 62
     9
370
    13
100
AcDbLine
 10
88.8077484413969
 20
-41.22273499694017
 30
0.0
 11
93.77085912239654
 21
-36.25962431594053
 31
0.0
  0
LINE
  5
F6
330
84
100
AcDbEntity
  8
0
  6
Continuous
 62
     9
370
    13
100
AcDbLine
 10
88.14998752822265
 20
-47.53735015960682
 30
0.0
 11
100.0854742850632
 21
-35.60186340276628
 31
0.0
  0
LINE
  5
F7
330
84
100
AcDbEntity
  8
0
  6
Continuous
 62
     9
370
    13
100
AcDbLine
 10
88.46261150029433
 20
-48.63893974990823
 30
0.0
 11
91.91062412545637
 21
-45.1909271247462
 31
0.0
  0
LINE
  5
F8
330
84
100
AcDbEntity
  8
0
  6
Continuous
 62
     9
370
    13
100
AcDbLine
 10
93.23905125020256
 20
-43.8625
 30
0.0
 11
101.1870638753646
 21
-35.91448737483796
 31
0.0
  0
LINE
  5
F9
330
84
100
AcDbEntity
  8
0
  6
Continuous
 62
     9
370
    13
100
AcDbLine
 10
88.87297434653935
 20
-49.6427904660363
 30
0.0
 11
91.91062412545637
 21
-46.6051406871193
 31
0.0
  0
LINE
  5
FA
330
84
100
AcDbEntity
  8
0
  6
Continuous
 62
     9
370
    13
100
AcDbLine
 10
94.65326481257566
 20
-43.8625
 30
0.0
 11
102.1909145914927
 21
-36.32485022108298
 31
0.0
  0
LINE
  5
FB
330
84
100
AcDbEntity
  8
0
  6
Continuous
 62
     9
370
    13
100
AcDbLine
 10
89.36840032596578
 20
-50.56157804898298
 30
0.0
 11
93.06747837494876
 21
-46.8625
 31
0.0
  0
LINE
  5
FC
330
84
100
AcDbEntity
  8
0
  6
Continuous
 62
     9
370
    13
100
AcDbLine
 10
96.06747837494876
 20
-43.8625
 30
0.0
 11
103.1097021744393
 21
-36.82027620050941
 31
0.0
  0
LINE
  5
FD
330
84
100
AcDbEntity
  8
0
  6
Continuous
 62
     9
370
    13
100
AcDbLine
 10
89.94117372352699
 20
-51.40301821379488
 30
0.0
 11
94.48169193732187
 21
-46.8625
 31
0.0
  0
LINE
  5
FE
330
84
100
AcDbEntity
  8
0
  6
Continuous
 62
     9
370
    13
100
AcDbLine
 10
97.48169193732187
 20
-43.8625
 30
0.0
 11
103.9511423392512
 21
-37.39304959807062
 31
0.0
  0
LINE
  5
FF
330
84
100
AcDbEntity
  8
0
  6
Continuous
 62
     9
370
    13
100
AcDbLine
 10
90.58688199078674
 20
-52.17152350890822
 30
0.0
 11
95.89590549969496
 21
-46.8625
 31
0.0
  0
LINE
  5
100
330
84
100
AcDbEntity
  8
0
  6
Continuous
 62
     9
370
    13
100
AcDbLine
 10
98.89590549969496
 20
-43.8625
 30
0.0
 11
104.7196476343646
 21
-38.03875786533037
 31
0.0
  0
LINE
  5
101
330
84
100
AcDbEntity
  8
0
  6
Continuous
 62
     9
370
    13
100
AcDbLine
 10
91.30362112242256
 20
-52.86899793964551
 30
0.0
 11
97.31011906206805
 21
-46.8625
 31
0.0
  0
LINE
  5
102
330
84
100
AcDbEntity
  8
0
  6
Continuous
 62
     9
370
    13
100
AcDbLine
 10
100.3101190620681
 20
-43.8625
 30
0.0
 11
105.4171220651019
 21
-38.75549699696619
 31
0.0
  0
LINE
  5
103
330
84
100
AcDbEntity
  8
0
  6
Continuous
 62
     9
370
    13
100
AcDbLine
 10
92.0916853558411
 20
-53.49514726860007
 30
0.0
 11
98.72433262444116
 21
-46.8625
 31
0.0
  0
LINE
  5
104
330
84
100
AcDbEntity
  8
0
  6
Continuous
 62
     9
370
    13
100
AcDbLine
 10
101.7243326244412
 20
-43.8625
 30
0.0
 11
106.0432713940564
 21
-39.54356123038472
 31
0.0
  0
LINE
  5
105
330
84
100
AcDbEntity
  8
0
  6
Continuous
 62
     9
370
    13
100
AcDbLine
 10
92.95361387074566
 20
-54.04743231606861
 30
0.0
 11
100.1385461868143
 21
-46.8625
 31
0.0
  0
LINE
  5
106
330
84
100
AcDbEntity
  8
0
  6
Continuous
 62
     9
370
    13
100
AcDbLine
 10
103.1385461868143
 20
-43.8625
 30
0.0
 11
106.595556441525
 21
-40.40548974528929
 31
0.0
  0
LINE
  5
107
330
84
100
AcDbEntity
  8
0
  6
Continuous
 62
     9
370
    13
100
AcDbLine
 10
93.89461289522824
 20
-54.52064685395913
 30
0.0
 11
101.5527597491874
 21
-46.8625
 31
0.0
  0
LINE
  5
108
330
84
100
AcDbEntity
  8
0
  6
Continuous
 62
     9
370
    13
100
AcDbLine
 10
103.9106241254564
 20
-44.50463562373099
 30
0.0
 11
107.0687709794155
 21
-41.34648876977186
 31
0.0
  0
LINE
  5
109
330
84
100
AcDbEntity
  8
0
  6
Continuous
 62
     9
370
    13
100
AcDbLine
 10
94.9235316581615
 20
-54.90594165339896
 30
0.0
 11
102.9669733115605
 21
-46.8625
 31
0.0
  0
LINE
  5
10A
330
84
100
AcDbEntity
  8
0
  6
Continuous
 62
     9
370
    13
100
AcDbLine
 10
103.9106241254564
 20
-45.91884918610409
 30
0.0
 11
107.4540657788553
 21
-42.37540753270513
 31
0.0
  0
LINE
  5
10B
330
84
100
AcDbEntity
  8
0
  6
Continuous
 62
     9
370
    13
100
AcDbLine
 10
96.05488398217365
 20
-55.1888028917599
 30
0.0
 11
107.7369270172163
 21
-43.50675985671729
 31
0.0
  0
LINE
  5
10C
330
84
100
AcDbEntity
  8
0
  6
Continuous
 62
     9
370
    13
100
AcDbLine
 10
97.31325865724025
 20
-55.3446417790664
 30
0.0
 11
107.8927659045228
 21
-44.76513453178389
 31
0.0
  0
LINE
  5
10D
330
84
100
AcDbEntity
  8
0
  6
Continuous
 62
     9
370
    13
100
AcDbLine
 10
98.74443680970919
 20
-55.32767718897055
 30
0.0
 11
107.8758013144269
 21
-46.19631268425283
 31
0.0
  0
LINE
  5
10E
330
84
100
AcDbEntity
  8
0
  6
Continuous
 62
     9
370
    13
100
AcDbLine
 10
100.4521991308465
 20
-55.03412843020637
 30
0.0
 11
107.5822525556627
 21
-47.9040750053901
 31
0.0
  0
LINE
  5
10F
330
84
100
AcDbEntity
  8
0
  6
Continuous
 62
     9
370
    13
100
AcDbLine
 10
102.8339949586094
 20
-54.06654616481658
 30
0.0
 11
106.614670290273
 21
-50.28587083315301
 31
0.0
  0
ENDBLK
  5
86
330
84
100
AcDbEntity
  8
0
100
AcDbBlockEnd
  0
BLOCK
  5
88
330
87
100
AcDbEntity
  8
0
100
AcDbBlockBegin
  2
DC_GROUP_KL500彫込本締錠_5
 70
     0
 10
0.0
 20
0.0
 30
0.0
  3
DC_GROUP_KL500彫込本締錠_5
  1

  0
LINE
  5
110
330
87
100
AcDbEntity
  8
0
  6
Continuous
 62
     9
370
    13
100
AcDbLine
 10
-14.08937587454363
 20
-41.3625
 30
0.0
 11
-2.089375874543627
 21
-29.3625
 31
0.0
  0
LINE
  5
111
330
87
100
AcDbEntity
  8
0
  6
Continuous
 62
     9
370
    13
100
AcDbLine
 10
-13.99405118589516
 20
-39.85296174897844
 30
0.0
 11
-3.598914125565177
 21
-29.45782468864846
 31
0.0
  0
LINE
  5
112
330
87
100
AcDbEntity
  8
0
  6
Continuous
 62
     9
370
    13
100
AcDbLine
 10
-13.63026330960437
 20
-38.07496031031455
 30
0.0
 11
-5.376915564229069
 21
-29.82161256493925
 31
0.0
  0
LINE
  5
113
330
87
100
AcDbEntity
  8
0
  6
Continuous
 62
     9
370
    13
100
AcDbLine
 10
-12.66918271944598
 20
-35.69966615778307
 30
0.0
 11
-7.75220971676055
 21
-30.78269315509764
 31
0.0
  0
LINE
  5
114
330
87
100
AcDbEntity
  8
0
  6
Continuous
 62
     9
370
    13
100
AcDbLine
 10
-14.01440912310906
 20
-42.70174681093852
 30
0.0
 11
-0.7501290636050975
 21
-29.43746675143456
 31
0.0
  0
LINE
  5
115
330
87
100
AcDbEntity
  8
0
  6
Continuous
 62
     9
370
    13
100
AcDbLine
 10
-13.81452942337004
 20
-43.91608067357259
 30
0.0
 11
0.4642047990289662
 21
-29.63734645117359
 31
0.0
  0
LINE
  5
116
330
87
100
AcDbEntity
  8
0
  6
Continuous
 62
     9
370
    13
100
AcDbLine
 10
-13.51496510528761
 20
-45.03072991786325
 30
0.0
 11
1.578854043319634
 21
-29.93691076925602
 31
0.0
  0
LINE
  5
117
330
87
100
AcDbEntity
  8
0
  6
Continuous
 62
     9
370
    13
100
AcDbLine
 10
-13.13121720118805
 20
-46.06119557613678
 30
0.0
 11
-8.089375874543624
 21
-41.01935424949237
 31
0.0
  0
LINE
  5
118
330
87
100
AcDbEntity
  8
0
  6
Continuous
 62
     9
370
    13
100
AcDbLine
 10
-6.932521625051255
 20
-39.8625
 30
0.0
 11
2.609319701593162
 21
-30.32065867335558
 31
0.0
  0
LINE
  5
119
330
87
100
AcDbEntity
  8
0
  6
Continuous
 62
     9
370
    13
100
AcDbLine
 10
-12.67334976595876
 20
-47.01754170328059
 30
0.0
 11
-8.089375874543624
 21
-42.43356781186546
 31
0.0
  0
LINE
  5
11A
330
87
100
AcDbEntity
  8
0
  6
Continuous
 62
     9
370
    13
100
AcDbLine
 10
-5.518308062678162
 20
-39.8625
 30
0.0
 11
3.565665828736977
 21
-30.77852610858486
 31
0.0
  0
LINE
  5
11B
330
87
100
AcDbEntity
  8
0
  6
Continuous
 62
     9
370
    13
100
AcDbLine
 10
-12.14804160541853
 20
-47.90644710511346
 30
0.0
 11
-7.10409450030507
 21
-42.8625
 31
0.0
  0
LINE
  5
11C
330
87
100
AcDbEntity
  8
0
  6
Continuous
 62
     9
370
    13
100
AcDbLine
 10
-4.10409450030507
 20
-39.8625
 30
0.0
 11
4.454571230569838
 21
-31.30383426912509
 31
0.0
  0
LINE
  5
11D
330
87
100
AcDbEntity
  8
0
  6
Continuous
 62
     9
370
    13
100
AcDbLine
 10
-11.55966223156594
 20
-48.73228129363396
 30
0.0
 11
-5.689880937931978
 21
-42.8625
 31
0.0
  0
LINE
  5
11E
330
87
100
AcDbEntity
  8
0
  6
Continuous
 62
     9
370
    13
100
AcDbLine
 10
-2.689880937931974
 20
-39.8625
 30
0.0
 11
5.280405419090339
 21
-31.89221364297769
 31
0.0
  0
LINE
  5
11F
330
87
100
AcDbEntity
  8
0
  6
Continuous
 62
     9
370
    13
100
AcDbLine
 10
-10.91086173346331
 20
-49.49769435790441
 30
0.0
 11
-4.275667375558886
 21
-42.8625
 31
0.0
  0
LINE
  5
120
330
87
100
AcDbEntity
  8
0
  6
Continuous
 62
     9
370
    13
100
AcDbLine
 10
-1.275667375558882
 20
-39.8625
 30
0.0
 11
6.045818483360804
 21
-32.54101414108032
 31
0.0
  0
LINE
  5
121
330
87
100
AcDbEntity
  8
0
  6
Continuous
 62
     9
370
    13
100
AcDbLine
 10
-10.20288689443186
 20
-50.20393308124606
 30
0.0
 11
-2.86145381318579
 21
-42.8625
 31
0.0
  0
LINE
  5
122
330
87
100
AcDbEntity
  8
0
  6
Continuous
 62
     9
370
    13
100
AcDbLine
 10
0.1385461868142119
 20
-39.8625
 30
0.0
 11
6.752057206702442
 21
-33.24898898011178
 31
0.0
  0
LINE
  5
123
330
87
100
AcDbEntity
  8
0
  6
Continuous
 62
     9
370
    13
100
AcDbLine
 10
-9.435719407170353
 20
-50.85097915635765
 30
0.0
 11
-1.447240250812698
 21
-42.8625
 31
0.0
  0
LINE
  5
124
330
87
100
AcDbEntity
  8
0
  6
Continuous
 62
     9
370
    13
100
AcDbLine
 10
1.552759749187304
 20
-39.8625
 30
0.0
 11
7.399103281814028
 21
-34.01615646737329
 31
0.0
  0
LINE
  5
125
330
87
100
AcDbEntity
  8
0
  6
Continuous
 62
     9
370
    13
100
AcDbLine
 10
-8.60807389209764
 20
-51.43754720365802
 30
0.0
 11
-0.0330266884396018
 21
-42.8625
 31
0.0
  0
LINE
  5
126
330
87
100
AcDbEntity
  8
0
  6
Continuous
 62
     9
370
    13
100
AcDbLine
 10
2.966973311560404
 20
-39.8625
 30
0.0
 11
7.985671329114407
 21
-34.843801982446
 31
0.0
  0
LINE
  5
127
330
87
100
AcDbEntity
  8
0
  6
Continuous
 62
     9
370
    13
100
AcDbLine
 10
-7.717255197028823
 20
-51.9609420709623
 30
0.0
 11
1.381186873933494
 21
-42.8625
 31
0.0
  0
LINE
  5
128
330
87
100
AcDbEntity
  8
0
  6
Continuous
 62
     9
370
    13
100
AcDbLine
 10
3.910624125456376
 20
-40.33306274847712
 30
0.0
 11
8.509066196418681
 21
-35.73462067751482
 31
0.0
  0
LINE
  5
129
330
87
100
AcDbEntity
  8
0
  6
Continuous
 62
     9
370
    13
100
AcDbLine
 10
-6.758835966515672
 20
-52.41673640282224
 30
0.0
 11
2.795400436306588
 21
-42.8625
 31
0.0
  0
LINE
  5
12A
330
87
100
AcDbEntity
  8
0
  6
Continuous
 62
     9
370
    13
100
AcDbLine
 10
3.910624125456376
 20
-41.74727631085021
 30
0.0
 11
8.964860528278624
 21
-36.69303990802797
 31
0.0
  0
LINE
  5
12B
330
87
100
AcDbEntity
  8
0
  6
Continuous
 62
     9
370
    13
100
AcDbLine
 10
-5.726056310051458
 20
-52.79817030873112
 30
0.0
 11
9.346294434187504
 21
-37.72581956449218
 31
0.0
  0
LINE
  5
12C
330
87
100
AcDbEntity
  8
0
  6
Continuous
 62
     9
370
    13
100
AcDbLine
 10
-4.608728171021614
 20
-53.09505573207437
 30
0.0
 11
9.643179857530745
 21
-38.84314770352204
 31
0.0
  0
LINE
  5
12D
330
87
100
AcDbEntity
  8
0
  6
Continuous
 62
     9
370
    13
100
AcDbLine
 10
-3.391141809627648
 20
-53.29168293305349
 30
0.0
 11
9.83980705850987
 21
-40.06073406491601
 31
0.0
  0
LINE
  5
12E
330
87
100
AcDbEntity
  8
0
  6
Continuous
 62
     9
370
    13
100
AcDbLine
 10
-2.047672849720616
 20
-53.36242753551956
 30
0.0
 11
9.910551660975935
 21
-41.40420302482303
 31
0.0
  0
LINE
  5
12F
330
87
100
AcDbEntity
  8
0
  6
Continuous
 62
     9
370
    13
100
AcDbLine
 10
-0.5320499815492248
 20
-53.26101822972126
 30
0.0
 11
9.809142355177633
 21
-42.91982589299442
 31
0.0
  0
LINE
  5
130
330
87
100
AcDbEntity
  8
0
  6
Continuous
 62
     9
370
    13
100
AcDbLine
 10
1.25660098611875
 20
-52.88658082442639
 30
0.0
 11
9.434704949882748
 21
-44.7084768606624
 31
0.0
  0
LINE
  5
131
330
87
100
AcDbEntity
  8
0
  6
Continuous
 62
     9
370
    13
100
AcDbLine
 10
3.664114215674269
 20
-51.89328115724396
 30
0.0
 11
8.441405282700318
 21
-47.11599009021792
 31
0.0
  0
ENDBLK
  5
89
330
87
100
AcDbEntity
  8
0
100
AcDbBlockEnd
  0
BLOCK
  5
8B
330
8A
100
AcDbEntity
  8
0
100
AcDbBlockBegin
  2
*D8
 70
     1
 10
0.0
 20
0.0
 30
0.0
  3
*D8
  1

  0
LINE
  5
132
330
8A
100
AcDbEntity
  8
0
  6
Continuous
 62
     4
370
    13
100
AcDbLine
 10
-14.58937587454362
 20
2.637500000000003
 30
0.0
 11
10.41062412545638
 21
2.637500000000003
 31
0.0
  0
INSERT
  5
133
330
8A
100
AcDbEntity
  8
0
 62
     4
100
AcDbBlockReference
  2
_OPEN30
 10
-14.58937587454362
 20
2.637500000000003
 30
0.0
 41
3.000002807615286
 42
2.999989368223643
 50
180.0
  0
INSERT
  5
134
330
8A
100
AcDbEntity
  8
0
 62
     4
100
AcDbBlockReference
  2
_OPEN30
 10
10.41062412545638
 20
2.637500000000003
 30
0.0
 41
3.000002807615286
 42
2.999989368223643
 50
360.0
  0
LINE
  5
135
330
8A
100
AcDbEntity
  8
0
  6
Continuous
 62
     4
370
    13
100
AcDbLine
 10
-14.58937587454362
 20
-11.3625
 30
0.0
 11
-14.58937587454362
 21
3.637500000000003
 31
0.0
  0
LINE
  5
136
330
8A
100
AcDbEntity
  8
0
  6
Continuous
 62
     4
370
    13
100
AcDbLine
 10
10.41062412545638
 20
-11.3625
 30
0.0
 11
10.41062412545638
 21
3.637500000000003
 31
0.0
  0
MTEXT
  5
137
330
8A
100
AcDbEntity
  8
0
 62
     2
100
AcDbMText
 10
-2.089375874543624
 20
3.637500000000003
 30
0.0
 40
3.0
 41
15.75
 71
     8
 72
     1
  1
\T1.00;25mm
  7
dcStyle0
 73
     1
 44
1.0
  0
ENDBLK
  5
8C
330
8A
100
AcDbEntity
  8
0
100
AcDbBlockEnd
  0
BLOCK
  5
8E
330
8D
100
AcDbEntity
  8
0
100
AcDbBlockBegin
  2
*D9
 70
     1
 10
0.0
 20
0.0
 30
0.0
  3
*D9
  1

  0
LINE
  5
138
330
8D
100
AcDbEntity
  8
0
  6
Continuous
 62
     4
370
    13
100
AcDbLine
 10
-29.58937587454362
 20
-62.3625
 30
0.0
 11
-29.58937587454362
 21
-20.3625
 31
0.0
  0
INSERT
  5
139
330
8D
100
AcDbEntity
  8
0
 62
     4
100
AcDbBlockReference
  2
_OPEN30
 10
-29.58937587454362
 20
-62.3625
 30
0.0
 41
3.000002807615286
 42
2.999989368223643
 50
270.0
  0
INSERT
  5
13A
330
8D
100
AcDbEntity
  8
0
 62
     4
100
AcDbBlockReference
  2
_OPEN30
 10
-29.58937587454362
 20
-20.3625
 30
0.0
 41
3.000002807615286
 42
2.999989368223643
 50
90.0
  0
LINE
  5
13B
330
8D
100
AcDbEntity
  8
0
  6
Continuous
 62
     4
370
    13
100
AcDbLine
 10
-9.089375874543627
 20
-62.3625
 30
0.0
 11
-30.58937587454362
 21
-62.3625
 31
0.0
  0
LINE
  5
13C
330
8D
100
AcDbEntity
  8
0
  6
Continuous
 62
     4
370
    13
100
AcDbLine
 10
-9.089375874543627
 20
-20.3625
 30
0.0
 11
-30.58937587454362
 21
-20.3625
 31
0.0
  0
MTEXT
  5
13D
330
8D
100
AcDbEntity
  8
0
 62
     2
100
AcDbMText
 10
-30.58937587454362
 20
-41.3625
 30
0.0
 40
3.0
 41
15.74999999999999
 71
     8
 72
     1
  1
\T1.00;42mm
  7
dcStyle0
 11
6.123233995736766E-17
 21
1.0
 31
0.0
 73
     1
 44
1.0
  0
ENDBLK
  5
8F
330
8D
100
AcDbEntity
  8
0
100
AcDbBlockEnd
  0
BLOCK
  5
91
330
90
100
AcDbEntity
  8
0
100
AcDbBlockBegin
  2
*D10
 70
     1
 10
0.0
 20
0.0
 30
0.0
  3
*D10
  1

  0
LINE
  5
13E
330
90
100
AcDbEntity
  8
0
  6
Continuous
 62
     4
370
    13
100
AcDbLine
 10
-37.58937587454362
 20
-70.3625
 30
0.0
 11
-37.58937587454362
 21
-12.3625
 31
0.0
  0
INSERT
  5
13F
330
90
100
AcDbEntity
  8
0
 62
     4
100
AcDbBlockReference
  2
_OPEN30
 10
-37.58937587454362
 20
-70.3625
 30
0.0
 41
3.000002807615286
 42
2.999989368223643
 50
270.0
  0
INSERT
  5
140
330
90
100
AcDbEntity
  8
0
 62
     4
100
AcDbBlockReference
  2
_OPEN30
 10
-37.58937587454362
 20
-12.3625
 30
0.0
 41
3.000002807615286
 42
2.999989368223643
 50
90.0
  0
LINE
  5
141
330
90
100
AcDbEntity
  8
0
  6
Continuous
 62
     4
370
    13
100
AcDbLine
 10
-15.58937587454362
 20
-70.3625
 30
0.0
 11
-38.58937587454362
 21
-70.3625
 31
0.0
  0
LINE
  5
142
330
90
100
AcDbEntity
  8
0
  6
Continuous
 62
     4
370
    13
100
AcDbLine
 10
-15.58937587454362
 20
-12.3625
 30
0.0
 11
-38.58937587454362
 21
-12.3625
 31
0.0
  0
MTEXT
  5
143
330
90
100
AcDbEntity
  8
0
 62
     2
100
AcDbMText
 10
-38.58937587454362
 20
-41.3625
 30
0.0
 40
3.0
 41
15.74999999999999
 71
     8
 72
     1
  1
\T1.00;58mm
  7
dcStyle0
 11
6.123233995736766E-17
 21
1.0
 31
0.0
 73
     1
 44
1.0
  0
ENDBLK
  5
92
330
90
100
AcDbEntity
  8
0
100
AcDbBlockEnd
  0
BLOCK
  5
94
330
93
100
AcDbEntity
  8
0
100
AcDbBlockBegin
  2
*D11
 70
     1
 10
0.0
 20
0.0
 30
0.0
  3
*D11
  1

  0
LINE
  5
144
330
93
100
AcDbEntity
  8
0
  6
Continuous
 62
     4
370
    13
100
AcDbLine
 10
37.91062412545637
 20
2.637500000000003
 30
0.0
 11
41.91062412545637
 21
2.637500000000003
 31
0.0
  0
LINE
  5
145
330
93
100
AcDbEntity
  8
0
  6
Continuous
 62
     4
370
    13
100
AcDbLine
 10
37.91062412545637
 20
-1.362499999999997
 30
0.0
 11
37.91062412545637
 21
3.637500000000003
 31
0.0
  0
LINE
  5
146
330
93
100
AcDbEntity
  8
0
  6
Continuous
 62
     4
370
    13
100
AcDbLine
 10
41.91062412545637
 20
-11.3625
 30
0.0
 11
41.91062412545637
 21
3.637500000000003
 31
0.0
  0
LINE
  5
147
330
93
100
AcDbEntity
  8
0
  6
Continuous
 62
     4
370
    13
100
AcDbLine
 10
32.91062412545637
 20
2.637500000000003
 30
0.0
 11
37.91062412545637
 21
2.637500000000003
 31
0.0
  0
INSERT
  5
148
330
93
100
AcDbEntity
  8
0
 62
     4
100
AcDbBlockReference
  2
_OPEN30
 10
37.91062412545637
 20
2.637500000000003
 30
0.0
 41
3.000002807615286
 42
2.999989368223643
 50
360.0
  0
LINE
  5
149
330
93
100
AcDbEntity
  8
0
  6
Continuous
 62
     4
370
    13
100
AcDbLine
 10
54.00840412545637
 20
2.637500000000003
 30
0.0
 11
41.91062412545637
 21
2.637500000000003
 31
0.0
  0
INSERT
  5
14A
330
93
100
AcDbEntity
  8
0
 62
     4
100
AcDbBlockReference
  2
_OPEN30
 10
41.91062412545637
 20
2.637500000000003
 30
0.0
 41
3.000002807615286
 42
2.999989368223643
 50
180.0
  0
MTEXT
  5
14B
330
93
100
AcDbEntity
  8
0
 62
     2
100
AcDbMText
 10
45.80840412545637
 20
3.637500000000003
 30
0.0
 40
3.0
 41
12.75
 71
     7
 72
     1
  1
\T1.00;4mm
  7
dcStyle0
 73
     1
 44
1.0
  0
ENDBLK
  5
95
330
93
100
AcDbEntity
  8
0
100
AcDbBlockEnd
  0
BLOCK
  5
97
330
96
100
AcDbEntity
  8
0
100
AcDbBlockBegin
  2
*D12
 70
     1
 10
0.0
 20
0.0
 30
0.0
  3
*D12
  1

  0
LINE
  5
14C
330
96
100
AcDbEntity
  8
0
  6
Continuous
 62
     4
370
    13
100
AcDbLine
 10
37.91062412545638
 20
-105.3625
 30
0.0
 11
127.9106241254564
 21
-105.3625
 31
0.0
  0
INSERT
  5
14D
330
96
100
AcDbEntity
  8
0
 62
     4
100
AcDbBlockReference
  2
_OPEN30
 10
37.91062412545638
 20
-105.3625
 30
0.0
 41
3.000002807615286
 42
2.999989368223643
 50
180.0
  0
INSERT
  5
14E
330
96
100
AcDbEntity
  8
0
 62
     4
100
AcDbBlockReference
  2
_OPEN30
 10
127.9106241254564
 20
-105.3625
 30
0.0
 41
3.000002807615286
 42
2.999989368223643
 50
360.0
  0
LINE
  5
14F
330
96
100
AcDbEntity
  8
0
  6
Continuous
 62
     4
370
    13
100
AcDbLine
 10
37.91062412545638
 20
-81.3625
 30
0.0
 11
37.91062412545638
 21
-106.3625
 31
0.0
  0
LINE
  5
150
330
96
100
AcDbEntity
  8
0
  6
Continuous
 62
     4
370
    13
100
AcDbLine
 10
127.9106241254564
 20
-54.3625
 30
0.0
 11
127.9106241254564
 21
-106.3625
 31
0.0
  0
MTEXT
  5
151
330
96
100
AcDbEntity
  8
0
 62
     2
100
AcDbMText
 10
82.91062412545638
 20
-104.3625
 30
0.0
 40
4.0
 41
36.99999999999999
 71
     8
 72
     1
  1
\T1.00;彫込寸法90mm
  7
dcStyle0
 73
     1
 44
1.0
  0
ENDBLK
  5
98
330
96
100
AcDbEntity
  8
0
100
AcDbBlockEnd
  0
BLOCK
  5
9A
330
99
100
AcDbEntity
  8
0
100
AcDbBlockBegin
  2
*D13
 70
     1
 10
0.0
 20
0.0
 30
0.0
  3
*D13
  1

  0
LINE
  5
152
330
99
100
AcDbEntity
  8
0
  6
Continuous
 62
     4
370
    13
100
AcDbLine
 10
27.91062412545638
 20
-45.3625
 30
0.0
 11
27.91062412545638
 21
-41.3625
 31
0.0
  0
LINE
  5
153
330
99
100
AcDbEntity
  8
0
  6
Continuous
 62
     4
370
    13
100
AcDbLine
 10
79.91062412545637
 20
-45.3625
 30
0.0
 11
26.91062412545638
 21
-45.3625
 31
0.0
  0
LINE
  5
154
330
99
100
AcDbEntity
  8
0
  6
Continuous
 62
     4
370
    13
100
AcDbLine
 10
19.41062412545638
 20
-41.3625
 30
0.0
 11
28.91062412545638
 21
-41.3625
 31
0.0
  0
LINE
  5
155
330
99
100
AcDbEntity
  8
0
  6
Continuous
 62
     4
370
    13
100
AcDbLine
 10
27.91062412545638
 20
-50.3625
 30
0.0
 11
27.91062412545638
 21
-45.3625
 31
0.0
  0
INSERT
  5
156
330
99
100
AcDbEntity
  8
0
 62
     4
100
AcDbBlockReference
  2
_OPEN30
 10
27.91062412545638
 20
-45.3625
 30
0.0
 41
3.000002807615286
 42
2.999989368223643
 50
90.0
  0
LINE
  5
157
330
99
100
AcDbEntity
  8
0
  6
Continuous
 62
     4
370
    13
100
AcDbLine
 10
27.91062412545638
 20
-29.26472
 30
0.0
 11
27.91062412545638
 21
-41.3625
 31
0.0
  0
INSERT
  5
158
330
99
100
AcDbEntity
  8
0
 62
     4
100
AcDbBlockReference
  2
_OPEN30
 10
27.91062412545638
 20
-41.3625
 30
0.0
 41
3.000002807615286
 42
2.999989368223643
 50
270.0
  0
MTEXT
  5
159
330
99
100
AcDbEntity
  8
0
 62
     2
100
AcDbMText
 10
26.91062412545638
 20
-37.46472
 30
0.0
 40
3.0
 41
12.75
 71
     7
 72
     1
  1
\T1.00;4mm
  7
dcStyle0
 11
6.123233995736766E-17
 21
1.0
 31
0.0
 73
     1
 44
1.0
  0
ENDBLK
  5
9B
330
99
100
AcDbEntity
  8
0
100
AcDbBlockEnd
  0
BLOCK
  5
9D
330
9C
100
AcDbEntity
  8
0
100
AcDbBlockBegin
  2
*D14
 70
     1
 10
0.0
 20
0.0
 30
0.0
  3
*D14
  1

  0
LINE
  5
15A
330
9C
100
AcDbEntity
  8
0
  6
Continuous
 62
     4
370
    25
100
AcDbLine
 10
-103.4893758745436
 20
-14.36249809265135
 30
0.0
 11
-129.5893758745436
 21
-14.36249809265135
 31
0.0
  0
LINE
  5
15B
330
9C
100
AcDbEntity
  8
0
  6
Continuous
 62
     4
370
    25
100
AcDbLine
 10
-103.4893758745436
 20
-68.3625
 30
0.0
 11
-129.5893758745436
 21
-68.3625
 31
0.0
  0
LINE
  5
15C
330
9C
100
AcDbEntity
  8
0
  6
Continuous
 62
     4
370
    25
100
AcDbLine
 10
-128.5893758745436
 20
-14.36249809265135
 30
0.0
 11
-128.5893758745436
 21
-68.3625
 31
0.0
  0
INSERT
  5
15D
330
9C
100
AcDbEntity
  8
0
 62
     4
100
AcDbBlockReference
  2
_OPEN30
 10
-128.5893758745436
 20
-14.36249809265135
 30
0.0
 41
3.000002807615286
 42
2.999989368223643
 50
90.0
  0
INSERT
  5
15E
330
9C
100
AcDbEntity
  8
0
 62
     4
100
AcDbBlockReference
  2
_OPEN30
 10
-128.5893758745436
 20
-68.3625
 30
0.0
 41
3.000002807615286
 42
2.999989368223643
 50
270.0
  0
MTEXT
  5
15F
330
9C
100
AcDbEntity
  8
0
 62
     2
100
AcDbMText
 10
-129.5893758745436
 20
-41.36249904632569
 30
0.0
 40
3.0
 41
15.75000000000001
 71
     8
 72
     1
  1
\T1.00;54mm
  7
dcStyle0
 11
6.123233995736766E-17
 21
1.0
 31
0.0
 73
     1
 44
1.0
  0
ENDBLK
  5
9E
330
9C
100
AcDbEntity
  8
0
100
AcDbBlockEnd
  0
BLOCK
  5
A0
330
9F
100
AcDbEntity
  8
0
100
AcDbBlockBegin
  2
*D15
 70
     1
 10
0.0
 20
0.0
 30
0.0
  3
*D15
  1

  0
LINE
  5
160
330
9F
100
AcDbEntity
  8
0
  6
Continuous
 62
     4
370
    25
100
AcDbLine
 10
-106.5893758745436
 20
-6.362496185302717
 30
0.0
 11
-137.5893758745436
 21
-6.362496185302717
 31
0.0
  0
LINE
  5
161
330
9F
100
AcDbEntity
  8
0
  6
Continuous
 62
     4
370
    25
100
AcDbLine
 10
-106.5893758745436
 20
-76.3625
 30
0.0
 11
-137.5893758745436
 21
-76.3625
 31
0.0
  0
LINE
  5
162
330
9F
100
AcDbEntity
  8
0
  6
Continuous
 62
     4
370
    25
100
AcDbLine
 10
-136.5893758745436
 20
-6.362496185302717
 30
0.0
 11
-136.5893758745436
 21
-76.3625
 31
0.0
  0
INSERT
  5
163
330
9F
100
AcDbEntity
  8
0
 62
     4
100
AcDbBlockReference
  2
_OPEN30
 10
-136.5893758745436
 20
-6.362496185302717
 30
0.0
 41
3.000002807615286
 42
2.999989368223643
 50
90.0
  0
INSERT
  5
164
330
9F
100
AcDbEntity
  8
0
 62
     4
100
AcDbBlockReference
  2
_OPEN30
 10
-136.5893758745436
 20
-76.3625
 30
0.0
 41
3.000002807615286
 42
2.999989368223643
 50
270.0
  0
MTEXT
  5
165
330
9F
100
AcDbEntity
  8
0
 62
     2
100
AcDbMText
 10
-137.5893758745436
 20
-41.36249809265136
 30
0.0
 40
3.0
 41
15.75000000000003
 71
     8
 72
     1
  1
\T1.00;70mm
  7
dcStyle0
 11
6.123233995736766E-17
 21
1.0
 31
0.0
 73
     1
 44
1.0
  0
ENDBLK
  5
A1
330
9F
100
AcDbEntity
  8
0
100
AcDbBlockEnd
  0
BLOCK
  5
A3
330
A2
100
AcDbEntity
  8
0
100
AcDbBlockBegin
  2
*D16
 70
     1
 10
0.0
 20
0.0
 30
0.0
  3
*D16
  1

  0
LINE
  5
166
330
A2
100
AcDbEntity
  8
0
  6
Continuous
 62
     4
370
    25
100
AcDbLine
 10
-103.5893758745436
 20
-119.3625
 30
0.0
 11
-103.5893758745436
 21
-135.3625
 31
0.0
  0
LINE
  5
167
330
A2
100
AcDbEntity
  8
0
  6
Continuous
 62
     4
370
    25
100
AcDbLine
 10
-82.58937587454362
 20
-119.3625
 30
0.0
 11
-82.58937587454362
 21
-135.3625
 31
0.0
  0
LINE
  5
168
330
A2
100
AcDbEntity
  8
0
  6
Continuous
 62
     4
370
    25
100
AcDbLine
 10
-103.5893758745436
 20
-134.3625
 30
0.0
 11
-82.58937587454362
 21
-134.3625
 31
0.0
  0
INSERT
  5
169
330
A2
100
AcDbEntity
  8
0
 62
     4
100
AcDbBlockReference
  2
_OPEN30
 10
-103.5893758745436
 20
-134.3625
 30
0.0
 41
3.000002807615286
 42
2.999989368223643
 50
180.0
  0
INSERT
  5
16A
330
A2
100
AcDbEntity
  8
0
 62
     4
100
AcDbBlockReference
  2
_OPEN30
 10
-82.58937587454362
 20
-134.3625
 30
0.0
 41
3.000002807615286
 42
2.999989368223643
 50
360.0
  0
MTEXT
  5
16B
330
A2
100
AcDbEntity
  8
0
 62
     2
100
AcDbMText
 10
-93.08937587454359
 20
-133.3625
 30
0.0
 40
3.0
 41
15.74999999999999
 71
     8
 72
     1
  1
\T1.00;21mm
  7
dcStyle0
 73
     1
 44
1.0
  0
ENDBLK
  5
A4
330
A2
100
AcDbEntity
  8
0
100
AcDbBlockEnd
  0
BLOCK
  5
A6
330
A5
100
AcDbEntity
  8
0
100
AcDbBlockBegin
  2
*D17
 70
     1
 10
0.0
 20
0.0
 30
0.0
  3
*D17
  1

  0
LINE
  5
16C
330
A5
100
AcDbEntity
  8
0
  6
Continuous
 62
     4
370
    25
100
AcDbLine
 10
-105.5893758745436
 20
-5.362496185302717
 30
0.0
 11
-105.5893758745436
 21
17.63750381469728
 31
0.0
  0
LINE
  5
16D
330
A5
100
AcDbEntity
  8
0
  6
Continuous
 62
     4
370
    25
100
AcDbLine
 10
-80.58937587454362
 20
-5.362496185302717
 30
0.0
 11
-80.58937587454362
 21
17.63750381469728
 31
0.0
  0
LINE
  5
16E
330
A5
100
AcDbEntity
  8
0
  6
Continuous
 62
     4
370
    25
100
AcDbLine
 10
-105.5893758745436
 20
16.63750381469728
 30
0.0
 11
-80.58937587454362
 21
16.63750381469728
 31
0.0
  0
INSERT
  5
16F
330
A5
100
AcDbEntity
  8
0
 62
     4
100
AcDbBlockReference
  2
_OPEN30
 10
-105.5893758745436
 20
16.63750381469728
 30
0.0
 41
3.000002807615286
 42
2.999989368223643
 50
180.0
  0
INSERT
  5
170
330
A5
100
AcDbEntity
  8
0
 62
     4
100
AcDbBlockReference
  2
_OPEN30
 10
-80.58937587454362
 20
16.63750381469728
 30
0.0
 41
3.000002807615286
 42
2.999989368223643
 50
360.0
  0
MTEXT
  5
171
330
A5
100
AcDbEntity
  8
0
 62
     2
100
AcDbMText
 10
-93.08937587454359
 20
17.63750381469728
 30
0.0
 40
3.0
 41
15.74999999999999
 71
     8
 72
     1
  1
\T1.00;25mm
  7
dcStyle0
 73
     1
 44
1.0
  0
ENDBLK
  5
A7
330
A5
100
AcDbEntity
  8
0
100
AcDbBlockEnd
  0
BLOCK
  5
A9
330
A8
100
AcDbEntity
  8
0
100
AcDbBlockBegin
  2
*D18
 70
     1
 10
0.0
 20
0.0
 30
0.0
  3
*D18
  1

  0
LINE
  5
172
330
A8
100
AcDbEntity
  8
0
  6
Continuous
 62
     4
370
    13
100
AcDbLine
 10
-103.5893758745436
 20
8.637503814697283
 30
0.0
 11
-82.58937587454359
 21
8.637503814697283
 31
0.0
  0
INSERT
  5
173
330
A8
100
AcDbEntity
  8
0
 62
     4
100
AcDbBlockReference
  2
_OPEN30
 10
-103.5893758745436
 20
8.637503814697283
 30
0.0
 41
3.000002807615286
 42
2.999989368223643
 50
180.0
  0
INSERT
  5
174
330
A8
100
AcDbEntity
  8
0
 62
     4
100
AcDbBlockReference
  2
_OPEN30
 10
-82.58937587454359
 20
8.637503814697283
 30
0.0
 41
3.000002807615286
 42
2.999989368223643
 50
360.0
  0
LINE
  5
175
330
A8
100
AcDbEntity
  8
0
  6
Continuous
 62
     4
370
    13
100
AcDbLine
 10
-103.5893758745436
 20
-24.3625
 30
0.0
 11
-103.5893758745436
 21
9.637503814697283
 31
0.0
  0
LINE
  5
176
330
A8
100
AcDbEntity
  8
0
  6
Continuous
 62
     4
370
    13
100
AcDbLine
 10
-82.58937587454359
 20
-24.3625
 30
0.0
 11
-82.58937587454359
 21
9.637503814697283
 31
0.0
  0
MTEXT
  5
177
330
A8
100
AcDbEntity
  8
0
 62
     2
100
AcDbMText
 10
-93.08937587454359
 20
9.637503814697283
 30
0.0
 40
3.0
 41
15.74999999999999
 71
     8
 72
     1
  1
\T1.00;21mm
  7
dcStyle0
 73
     1
 44
1.0
  0
ENDBLK
  5
AA
330
A8
100
AcDbEntity
  8
0
100
AcDbBlockEnd
  0
BLOCK
  5
AC
330
AB
100
AcDbEntity
  8
0
100
AcDbBlockBegin
  2
*D19
 70
     1
 10
0.0
 20
0.0
 30
0.0
  3
*D19
  1

  0
LINE
  5
178
330
AB
100
AcDbEntity
  8
0
  6
Continuous
 62
     4
370
    13
100
AcDbLine
 10
-120.5893758745436
 20
-57.3625
 30
0.0
 11
-120.5893758745436
 21
-25.3625
 31
0.0
  0
INSERT
  5
179
330
AB
100
AcDbEntity
  8
0
 62
     4
100
AcDbBlockReference
  2
_OPEN30
 10
-120.5893758745436
 20
-57.3625
 30
0.0
 41
3.000002807615286
 42
2.999989368223643
 50
270.0
  0
INSERT
  5
17A
330
AB
100
AcDbEntity
  8
0
 62
     4
100
AcDbBlockReference
  2
_OPEN30
 10
-120.5893758745436
 20
-25.3625
 30
0.0
 41
3.000002807615286
 42
2.999989368223643
 50
90.0
  0
LINE
  5
17B
330
AB
100
AcDbEntity
  8
0
  6
Continuous
 62
     4
370
    13
100
AcDbLine
 10
-104.5893758745436
 20
-57.3625
 30
0.0
 11
-121.5893758745436
 21
-57.3625
 31
0.0
  0
LINE
  5
17C
330
AB
100
AcDbEntity
  8
0
  6
Continuous
 62
     4
370
    13
100
AcDbLine
 10
-104.5893758745436
 20
-25.3625
 30
0.0
 11
-121.5893758745436
 21
-25.3625
 31
0.0
  0
MTEXT
  5
17D
330
AB
100
AcDbEntity
  8
0
 62
     2
100
AcDbMText
 10
-121.5893758745436
 20
-41.3625
 30
0.0
 40
3.0
 41
15.74999999999999
 71
     8
 72
     1
  1
\T1.00;32mm
  7
dcStyle0
 11
6.123233995736766E-17
 21
1.0
 31
0.0
 73
     1
 44
1.0
  0
ENDBLK
  5
AD
330
AB
100
AcDbEntity
  8
0
100
AcDbBlockEnd
  0
BLOCK
  5
AF
330
AE
100
AcDbEntity
  8
0
100
AcDbBlockBegin
  2
*D20
 70
     1
 10
0.0
 20
0.0
 30
0.0
  3
*D20
  1

  0
LINE
  5
17E
330
AE
100
AcDbEntity
  8
0
  6
Continuous
 62
     4
370
    13
100
AcDbLine
 10
-65.58937587454362
 20
-119.3625
 30
0.0
 11
-65.58937587454362
 21
-103.8625
 31
0.0
  0
INSERT
  5
17F
330
AE
100
AcDbEntity
  8
0
 62
     4
100
AcDbBlockReference
  2
_OPEN30
 10
-65.58937587454362
 20
-119.3625
 30
0.0
 41
3.000002807615286
 42
2.999989368223643
 50
270.0
  0
INSERT
  5
180
330
AE
100
AcDbEntity
  8
0
 62
     4
100
AcDbBlockReference
  2
_OPEN30
 10
-65.58937587454362
 20
-103.8625
 30
0.0
 41
3.000002807615286
 42
2.999989368223643
 50
90.0
  0
LINE
  5
181
330
AE
100
AcDbEntity
  8
0
  6
Continuous
 62
     4
370
    13
100
AcDbLine
 10
-82.58937587454362
 20
-119.3625
 30
0.0
 11
-64.58937587454362
 21
-119.3625
 31
0.0
  0
LINE
  5
182
330
AE
100
AcDbEntity
  8
0
  6
Continuous
 62
     4
370
    13
100
AcDbLine
 10
-81.58937587454362
 20
-103.8625
 30
0.0
 11
-64.58937587454362
 21
-103.8625
 31
0.0
  0
MTEXT
  5
183
330
AE
100
AcDbEntity
  8
0
 62
     2
100
AcDbMText
 10
-66.58937587454362
 20
-111.6125
 30
0.0
 40
3.0
 41
21.75000000000001
 71
     8
 72
     1
  1
\T1.00;15.5mm
  7
dcStyle0
 11
6.123233995736766E-17
 21
1.0
 31
0.0
 73
     1
 44
1.0
  0
ENDBLK
  5
B0
330
AE
100
AcDbEntity
  8
0
100
AcDbBlockEnd
  0
BLOCK
  5
B2
330
B1
100
AcDbEntity
  8
0
100
AcDbBlockBegin
  2
*D21
 70
     1
 10
0.0
 20
0.0
 30
0.0
  3
*D21
  1

  0
LINE
  5
184
330
B1
100
AcDbEntity
  8
0
  6
Continuous
 62
     4
370
    13
100
AcDbLine
 10
-65.58937587454362
 20
-103.8625
 30
0.0
 11
-65.58937587454362
 21
-102.3625
 31
0.0
  0
LINE
  5
185
330
B1
100
AcDbEntity
  8
0
  6
Continuous
 62
     4
370
    13
100
AcDbLine
 10
-81.58937587454362
 20
-103.8625
 30
0.0
 11
-64.58937587454362
 21
-103.8625
 31
0.0
  0
LINE
  5
186
330
B1
100
AcDbEntity
  8
0
  6
Continuous
 62
     4
370
    13
100
AcDbLine
 10
-79.58937587454362
 20
-102.3625
 30
0.0
 11
-64.58937587454362
 21
-102.3625
 31
0.0
  0
LINE
  5
187
330
B1
100
AcDbEntity
  8
0
  6
Continuous
 62
     4
370
    13
100
AcDbLine
 10
-65.58937587454362
 20
-85.46472
 30
0.0
 11
-65.58937587454362
 21
-102.3625
 31
0.0
  0
INSERT
  5
188
330
B1
100
AcDbEntity
  8
0
 62
     4
100
AcDbBlockReference
  2
_OPEN30
 10
-65.58937587454362
 20
-102.3625
 30
0.0
 41
3.000002807615286
 42
2.999989368223643
 50
270.0
  0
MTEXT
  5
189
330
B1
100
AcDbEntity
  8
0
 62
     2
100
AcDbMText
 10
-66.58937587454362
 20
-98.46472
 30
0.0
 40
3.0
 41
18.75
 71
     7
 72
     1
  1
\T1.00;1.5mm
  7
dcStyle0
 11
6.123233995736766E-17
 21
1.0
 31
0.0
 73
     1
 44
1.0
  0
ENDBLK
  5
B3
330
B1
100
AcDbEntity
  8
0
100
AcDbBlockEnd
  0
BLOCK
  5
B5
330
B4
100
AcDbEntity
  8
0
100
AcDbBlockBegin
  2
*D22
 70
     1
 10
0.0
 20
0.0
 30
0.0
  3
*D22
  1

  0
LINE
  5
18A
330
B4
100
AcDbEntity
  8
0
  6
Continuous
 62
     4
370
    13
100
AcDbLine
 10
-57.58937587454362
 20
-119.3625
 30
0.0
 11
-57.58937587454362
 21
-102.3625
 31
0.0
  0
INSERT
  5
18B
330
B4
100
AcDbEntity
  8
0
 62
     4
100
AcDbBlockReference
  2
_OPEN30
 10
-57.58937587454362
 20
-119.3625
 30
0.0
 41
3.000002807615286
 42
2.999989368223643
 50
270.0
  0
INSERT
  5
18C
330
B4
100
AcDbEntity
  8
0
 62
     4
100
AcDbBlockReference
  2
_OPEN30
 10
-57.58937587454362
 20
-102.3625
 30
0.0
 41
3.000002807615286
 42
2.999989368223643
 50
90.0
  0
LINE
  5
18D
330
B4
100
AcDbEntity
  8
0
  6
Continuous
 62
     4
370
    13
100
AcDbLine
 10
-82.58937587454362
 20
-119.3625
 30
0.0
 11
-56.58937587454362
 21
-119.3625
 31
0.0
  0
LINE
  5
18E
330
B4
100
AcDbEntity
  8
0
  6
Continuous
 62
     4
370
    13
100
AcDbLine
 10
-79.58937587454362
 20
-102.3625
 30
0.0
 11
-56.58937587454362
 21
-102.3625
 31
0.0
  0
MTEXT
  5
18F
330
B4
100
AcDbEntity
  8
0
 62
     2
100
AcDbMText
 10
-58.58937587454362
 20
-110.8625
 30
0.0
 40
3.0
 41
15.74999999999999
 71
     8
 72
     1
  1
\T1.00;17mm
  7
dcStyle0
 11
6.123233995736766E-17
 21
1.0
 31
0.0
 73
     1
 44
1.0
  0
ENDBLK
  5
B6
330
B4
100
AcDbEntity
  8
0
100
AcDbBlockEnd
  0
BLOCK
  5
B8
330
B7
100
AcDbEntity
  8
0
100
AcDbBlockBegin
  2
*D23
 70
     1
 10
0.0
 20
0.0
 30
0.0
  3
*D23
  1

  0
LINE
  5
190
330
B7
100
AcDbEntity
  8
0
  6
Continuous
 62
     4
370
    13
100
AcDbLine
 10
37.91062412545638
 20
-97.3625
 30
0.0
 11
97.9106241254564
 21
-97.3625
 31
0.0
  0
INSERT
  5
191
330
B7
100
AcDbEntity
  8
0
 62
     4
100
AcDbBlockReference
  2
_OPEN30
 10
37.91062412545638
 20
-97.3625
 30
0.0
 41
3.000002807615286
 42
2.999989368223643
 50
180.0
  0
INSERT
  5
192
330
B7
100
AcDbEntity
  8
0
 62
     4
100
AcDbBlockReference
  2
_OPEN30
 10
97.9106241254564
 20
-97.3625
 30
0.0
 41
3.000002807615286
 42
2.999989368223643
 50
360.0
  0
LINE
  5
193
330
B7
100
AcDbEntity
  8
0
  6
Continuous
 62
     4
370
    13
100
AcDbLine
 10
37.91062412545638
 20
-81.3625
 30
0.0
 11
37.91062412545638
 21
-98.3625
 31
0.0
  0
LINE
  5
194
330
B7
100
AcDbEntity
  8
0
  6
Continuous
 62
     4
370
    13
100
AcDbLine
 10
97.9106241254564
 20
-91.3625
 30
0.0
 11
97.9106241254564
 21
-98.3625
 31
0.0
  0
MTEXT
  5
195
330
B7
100
AcDbEntity
  8
0
 62
     2
100
AcDbMText
 10
67.9106241254564
 20
-96.3625
 30
0.0
 40
4.0
 41
53.00000000000001
 71
     8
 72
     1
  1
\T1.00;バックセット60(51)
  7
dcStyle0
 73
     1
 44
1.0
  0
ENDBLK
  5
B9
330
B7
100
AcDbEntity
  8
0
100
AcDbBlockEnd
  0
BLOCK
  5
E2
330
E1
100
AcDbEntity
  8
0
100
AcDbBlockBegin
  2
_OPEN30
 70
     0
 10
0.0
 20
0.0
 30
0.0
  3
_OPEN30
  1

  0
LINE
  5
E4
330
E1
100
AcDbEntity
  8
0
  6
ByBlock
 62
     0
370
    -2
100
AcDbLine
 10
-1.0
 20
0.267949
 30
0.0
 11
0.0
 21
0.0
 31
0.0
  0
LINE
  5
E5
330
E1
100
AcDbEntity
  8
0
  6
ByBlock
 62
     0
370
    -2
100
AcDbLine
 10
0.0
 20
0.0
 30
0.0
 11
-1.0
 21
-0.267949
 31
0.0
  0
LINE
  5
E6
330
E1
100
AcDbEntity
  8
0
  6
ByBlock
 62
     0
370
    -2
100
AcDbLine
 10
0.0
 20
0.0
 30
0.0
 11
-1.0
 21
0.0
 31
0.0
  0
ENDBLK
  5
E3
330
E1
100
AcDbEntity
  8
0
100
AcDbBlockEnd
  0
ENDSEC
  0
SECTION
  2
ENTITIES
  0
TEXT
  5
196
330
1F
100
AcDbEntity
  8
0
 62
     2
100
AcDbText
 10
93.41062412545637
 20
114.1375
 30
0.0
 40
3.0
  1
φ10mm
 41
0.5236515971373712
  7
dcStyle0
 72
     5
 11
102.4106241254564
 21
114.1375
 31
0.0
100
AcDbText
  0
TEXT
  5
197
330
1F
100
AcDbEntity
  8
0
 62
     2
100
AcDbText
 10
91.91062412545637
 20
-46.8625
 30
0.0
 40
3.0
  1
φ20mm
 41
0.698202129516495
  7
dcStyle0
 72
     5
 11
103.9106241254564
 21
-46.8625
 31
0.0
100
AcDbText
  0
TEXT
  5
198
330
1F
100
AcDbEntity
  8
0
 62
     2
100
AcDbText
 10
10.91062412545637
 20
114.1375
 30
0.0
 40
10.0
  1
彫込本締錠
 41
0.667172100075815
  7
dcStyle0
 72
     5
 11
54.91062412545637
 21
114.1375
 31
0.0
100
AcDbText
  0
TEXT
  5
199
330
1F
100
AcDbEntity
  8
0
 62
     2
100
AcDbText
 10
93.41062412545637
 20
-68.8625
 30
0.0
 40
3.0
  1
φ10mm
 41
0.5236515971373712
  7
dcStyle0
 72
     5
 11
102.4106241254564
 21
-68.8625
 31
0.0
100
AcDbText
  0
TEXT
  5
19A
330
1F
100
AcDbEntity
  8
0
 62
     2
100
AcDbText
 10
-8.089375874543624
 20
-42.8625
 30
0.0
 40
3.0
  1
φ24mm
 41
0.698202129516495
  7
dcStyle0
 72
     5
 11
3.910624125456377
 21
-42.8625
 31
0.0
100
AcDbText
  0
LINE
  5
19B
330
1F
100
AcDbEntity
  8
0
  6
Continuous
 62
     4
370
    13
100
AcDbLine
 10
93.41062412545637
 20
117.1375
 30
0.0
 11
102.4106241254564
 21
117.1375
 31
0.0
  0
LINE
  5
19C
330
1F
100
AcDbEntity
  8
0
  6
Continuous
 62
     4
370
    13
100
AcDbLine
 10
93.41062412545637
 20
114.1375
 30
0.0
 11
102.4106241254564
 21
114.1375
 31
0.0
  0
LINE
  5
19D
330
1F
100
AcDbEntity
  8
0
  6
Continuous
 62
     4
370
    13
100
AcDbLine
 10
91.91062412545637
 20
-43.8625
 30
0.0
 11
91.91062412545637
 21
-46.8625
 31
0.0
  0
LINE
  5
19E
330
1F
100
AcDbEntity
  8
0
  6
Continuous
 62
     4
370
    13
100
AcDbLine
 10
91.91062412545637
 20
-43.8625
 30
0.0
 11
103.9106241254564
 21
-43.8625
 31
0.0
  0
LINE
  5
19F
330
1F
100
AcDbEntity
  8
0
  6
Continuous
 62
     4
370
    13
100
AcDbLine
 10
91.91062412545637
 20
-46.8625
 30
0.0
 11
103.9106241254564
 21
-46.8625
 31
0.0
  0
LINE
  5
1A0
330
1F
100
AcDbEntity
  8
0
  6
Continuous
 62
     4
370
    13
100
AcDbLine
 10
103.9106241254564
 20
-43.8625
 30
0.0
 11
103.9106241254564
 21
-46.8625
 31
0.0
  0
LINE
  5
1A1
330
1F
100
AcDbEntity
  8
0
  6
Continuous
 62
     4
370
    13
100
AcDbLine
 10
102.4106241254564
 20
117.1375
 30
0.0
 11
102.4106241254564
 21
114.1375
 31
0.0
  0
LINE
  5
1A2
330
1F
100
AcDbEntity
  8
0
  6
Continuous
 62
     4
370
    13
100
AcDbLine
 10
93.41062412545637
 20
117.1375
 30
0.0
 11
93.41062412545637
 21
114.1375
 31
0.0
  0
LINE
  5
1A3
330
1F
100
AcDbEntity
  8
0
  6
Continuous
 62
     4
370
    13
100
AcDbLine
 10
93.41062412545637
 20
-65.86250000000001
 30
0.0
 11
102.4106241254564
 21
-65.86250000000001
 31
0.0
  0
LINE
  5
1A4
330
1F
100
AcDbEntity
  8
0
  6
Continuous
 62
     4
370
    13
100
AcDbLine
 10
93.41062412545637
 20
-68.8625
 30
0.0
 11
102.4106241254564
 21
-68.8625
 31
0.0
  0
LINE
  5
1A5
330
1F
100
AcDbEntity
  8
0
  6
Continuous
 62
     4
370
    13
100
AcDbLine
 10
102.4106241254564
 20
-65.86250000000001
 30
0.0
 11
102.4106241254564
 21
-68.8625
 31
0.0
  0
LINE
  5
1A6
330
1F
100
AcDbEntity
  8
0
  6
Continuous
 62
     4
370
    13
100
AcDbLine
 10
93.41062412545637
 20
-65.86250000000001
 30
0.0
 11
93.41062412545637
 21
-68.8625
 31
0.0
  0
CIRCLE
  5
1A7
330
1F
100
AcDbEntity
  8
0
  6
Continuous
 62
     4
370
    13
100
AcDbCircle
 10
-2.089375874543627
 20
-20.3625
 30
0.0
 40
1.0
  0
CIRCLE
  5
1A8
330
1F
100
AcDbEntity
  8
0
  6
Continuous
 62
     4
370
    13
100
AcDbCircle
 10
-2.089375874543627
 20
-62.3625
 30
0.0
 40
1.0
  0
LINE
  5
1A9
330
1F
100
AcDbEntity
  8
0
  6
Continuous
 62
     4
370
    13
100
AcDbLine
 10
-8.089375874543624
 20
-39.8625
 30
0.0
 11
-8.089375874543624
 21
-42.8625
 31
0.0
  0
LINE
  5
1AA
330
1F
100
AcDbEntity
  8
0
  6
Continuous
 62
     4
370
    13
100
AcDbLine
 10
-8.089375874543624
 20
-39.8625
 30
0.0
 11
3.910624125456376
 21
-39.8625
 31
0.0
  0
LINE
  5
1AB
330
1F
100
AcDbEntity
  8
0
  6
Continuous
 62
     4
370
    13
100
AcDbLine
 10
-8.089375874543624
 20
-42.8625
 30
0.0
 11
3.910624125456376
 21
-42.8625
 31
0.0
  0
LINE
  5
1AC
330
1F
100
AcDbEntity
  8
0
  6
Continuous
 62
     4
370
    13
100
AcDbLine
 10
3.910624125456376
 20
-39.8625
 30
0.0
 11
3.910624125456376
 21
-42.8625
 31
0.0
  0
LINE
  5
1AD
330
1F
100
AcDbEntity
  8
0
  6
CENTER
 62
     4
370
    13
100
AcDbLine
 10
80.91062412545637
 20
-45.3625
 30
0.0
 11
91.91062412545637
 21
-45.3625
 31
0.0
  0
LINE
  5
1AE
330
1F
100
AcDbEntity
  8
0
  6
CENTER
 62
     4
370
    13
100
AcDbLine
 10
103.9106241254564
 20
-45.3625
 30
0.0
 11
114.9106241254564
 21
-45.3625
 31
0.0
  0
LINE
  5
1AF
330
1F
100
AcDbEntity
  8
0
  6
CENTER
 62
     4
370
    13
100
AcDbLine
 10
97.91062412545637
 20
-46.8625
 30
0.0
 11
97.91062412545637
 21
-65.8625
 31
0.0
  0
LINE
  5
1B0
330
1F
100
AcDbEntity
  8
0
  6
CENTER
 62
     4
370
    13
100
AcDbLine
 10
97.91062412545637
 20
-68.8625
 30
0.0
 11
97.9106241254564
 21
-90.3625
 31
0.0
  0
LINE
  5
1B1
330
1F
100
AcDbEntity
  8
0
  6
CENTER
 62
     4
370
    13
100
AcDbLine
 10
97.91062412545637
 20
114.1375
 30
0.0
 11
97.91062412545637
 21
-43.8625
 31
0.0
  0
LINE
  5
1B2
330
1F
100
AcDbEntity
  8
0
  6
CENTER
 62
     4
370
    13
100
AcDbLine
 10
87.91062412545637
 20
115.6375
 30
0.0
 11
93.41062412545637
 21
115.6375
 31
0.0
  0
LINE
  5
1B3
330
1F
100
AcDbEntity
  8
0
  6
CENTER
 62
     4
370
    13
100
AcDbLine
 10
102.4106241254564
 20
115.6375
 30
0.0
 11
107.9106241254564
 21
115.6375
 31
0.0
  0
LINE
  5
1B4
330
1F
100
AcDbEntity
  8
0
  6
CENTER
 62
     4
370
    13
100
AcDbLine
 10
97.9106241254564
 20
135.6375
 30
0.0
 11
97.91062412545637
 21
117.1375
 31
0.0
  0
LINE
  5
1B5
330
1F
100
AcDbEntity
  8
0
  6
CENTER
 62
     4
370
    13
100
AcDbLine
 10
87.91062412545637
 20
-67.3625
 30
0.0
 11
93.41062412545637
 21
-67.3625
 31
0.0
  0
LINE
  5
1B6
330
1F
100
AcDbEntity
  8
0
  6
CENTER
 62
     4
370
    13
100
AcDbLine
 10
102.4106241254564
 20
-67.3625
 30
0.0
 11
107.9106241254564
 21
-67.3625
 31
0.0
  0
LINE
  5
1B7
330
1F
100
AcDbEntity
  8
0
  6
CENTER
 62
     4
370
    13
100
AcDbLine
 10
3.910624125456373
 20
-20.3625
 30
0.0
 11
-8.089375874543627
 21
-20.3625
 31
0.0
  0
LINE
  5
1B8
330
1F
100
AcDbEntity
  8
0
  6
CENTER
 62
     4
370
    13
100
AcDbLine
 10
-8.089375874543627
 20
-62.3625
 30
0.0
 11
3.910624125456373
 21
-62.3625
 31
0.0
  0
LINE
  5
1B9
330
1F
100
AcDbEntity
  8
0
  6
CENTER
 62
     4
370
    13
100
AcDbLine
 10
-2.089375874543627
 20
-4.362499999999997
 30
0.0
 11
-2.089375874543627
 21
-39.8625
 31
0.0
  0
LINE
  5
1BA
330
1F
100
AcDbEntity
  8
0
  6
CENTER
 62
     4
370
    13
100
AcDbLine
 10
-2.089375874543627
 20
-42.8625
 30
0.0
 11
-2.089375874543627
 21
-78.3625
 31
0.0
  0
LINE
  5
1BB
330
1F
100
AcDbEntity
  8
0
  6
CENTER
 62
     4
370
    13
100
AcDbLine
 10
-22.58937587454362
 20
-41.3625
 30
0.0
 11
-8.089375874543624
 21
-41.3625
 31
0.0
  0
LINE
  5
1BC
330
1F
100
AcDbEntity
  8
0
  6
CENTER
 62
     4
370
    13
100
AcDbLine
 10
3.910624125456376
 20
-41.3625
 30
0.0
 11
18.41062412545638
 21
-41.3625
 31
0.0
  0
LINE
  5
1BD
330
1F
100
AcDbEntity
  8
0
  6
DIVIDE
 62
     4
370
    13
100
AcDbLine
 10
77.9106241254564
 20
107.6375
 30
0.0
 11
77.9106241254564
 21
-62.36249999999999
 31
0.0
  0
ARC
  5
1BE
330
1F
100
AcDbEntity
  8
0
  6
DIVIDE
 62
     4
370
    13
100
AcDbCircle
 10
97.9106241254564
 20
-62.3625
 30
0.0
 40
20.0
100
AcDbArc
 50
180.0
 51
0.0
  0
ARC
  5
1BF
330
1F
100
AcDbEntity
  8
0
  6
DIVIDE
 62
     4
370
    13
100
AcDbCircle
 10
97.9106241254564
 20
107.6375
 30
0.0
 40
20.0
100
AcDbArc
 50
0.0
 51
180.0
  0
LINE
  5
1C0
330
1F
100
AcDbEntity
  8
0
  6
DIVIDE
 62
     4
370
    13
100
AcDbLine
 10
117.9106241254564
 20
107.6375
 30
0.0
 11
117.9106241254564
 21
-62.3625
 31
0.0
  0
LINE
  5
1C1
330
1F
100
AcDbEntity
  8
0
  6
DIVIDE
 62
     4
370
    13
100
AcDbLine
 10
37.91062412545637
 20
-2.362499999999997
 30
0.0
 11
37.91062412545638
 21
-80.3625
 31
0.0
  0
LINE
  5
1C2
330
1F
100
AcDbEntity
  8
0
  6
DASHED2
 62
     4
370
    13
100
AcDbLine
 10
37.91062412545637
 20
-12.3625
 30
0.0
 11
41.91062412545637
 21
-12.3625
 31
0.0
  0
LINE
  5
1C3
330
1F
100
AcDbEntity
  8
0
  6
DASHED2
 62
     4
370
    13
100
AcDbLine
 10
41.91062412545638
 20
-70.3625
 30
0.0
 11
37.91062412545638
 21
-70.3625
 31
0.0
  0
LINE
  5
1C4
330
1F
100
AcDbEntity
  8
0
  6
DASHED2
 62
     4
370
    13
100
AcDbLine
 10
41.91062412545637
 20
-12.3625
 30
0.0
 11
41.91062412545638
 21
-70.3625
 31
0.0
  0
LINE
  5
1C5
330
1F
100
AcDbEntity
  8
0
  6
DASHED2
 62
     4
370
    13
100
AcDbLine
 10
41.91062412545637
 20
-29.3625
 30
0.0
 11
127.9106241254564
 21
-29.3625
 31
0.0
  0
LINE
  5
1C6
330
1F
100
AcDbEntity
  8
0
  6
DASHED2
 62
     4
370
    13
100
AcDbLine
 10
127.9106241254564
 20
-53.3625
 30
0.0
 11
41.91062412545638
 21
-53.3625
 31
0.0
  0
LINE
  5
1C7
330
1F
100
AcDbEntity
  8
0
  6
DASHED2
 62
     4
370
    13
100
AcDbLine
 10
127.9106241254564
 20
-29.3625
 30
0.0
 11
127.9106241254564
 21
-53.3625
 31
0.0
  0
LINE
  5
1C8
330
1F
100
AcDbEntity
  8
0
  6
DASHED2
 62
     4
370
    13
100
AcDbLine
 10
-82.58937587454359
 20
-25.3625
 30
0.0
 11
-103.5893758745436
 21
-25.3625
 31
0.0
  0
LINE
  5
1C9
330
1F
100
AcDbEntity
  8
0
  6
DASHED2
 62
     4
370
    13
100
AcDbLine
 10
-103.5893758745436
 20
-57.3625
 30
0.0
 11
-82.58937587454359
 21
-57.3625
 31
0.0
  0
LINE
  5
1CA
330
1F
100
AcDbEntity
  8
0
  6
DASHED2
 62
     4
370
    13
100
AcDbLine
 10
-103.5893758745436
 20
-25.3625
 30
0.0
 11
-103.5893758745436
 21
-57.3625
 31
0.0
  0
LINE
  5
1CB
330
1F
100
AcDbEntity
  8
0
  6
DASHED2
 62
     4
370
    13
100
AcDbLine
 10
-82.58937587454359
 20
-57.3625
 30
0.0
 11
-82.58937587454359
 21
-25.3625
 31
0.0
  0
INSERT
  5
1CC
330
1F
100
AcDbEntity
  8
0
  6
Continuous
100
AcDbBlockReference
  2
DC_GROUP_KL500彫込本締錠_1
 10
0.0
 20
0.0
 30
0.0
  0
INSERT
  5
1CD
330
1F
100
AcDbEntity
  8
0
  6
Continuous
100
AcDbBlockReference
  2
DC_GROUP_KL500彫込本締錠_2
 10
0.0
 20
0.0
 30
0.0
  0
INSERT
  5
1CE
330
1F
100
AcDbEntity
  8
0
  6
Continuous
100
AcDbBlockReference
  2
DC_GROUP_KL500彫込本締錠_3
 10
0.0
 20
0.0
 30
0.0
  0
DIMENSION
  5
1CF
330
1F
100
AcDbEntity
  8
0
  6
Continuous
370
    13
100
AcDbDimension
  2
*D4
 10
142.9106241254564
 20
-45.3625
 30
0.0
 11
142.9106241254564
 21
-56.3625
 31
0.0
 70
   160
  1
<>mm
 71
     8
 42
-1.0
  3
dc_Rotated
100
AcDbAlignedDimension
 13
107.9106241254564
 23
-67.3625
 33
0.0
 14
114.9106241254564
 24
-45.3625
 34
0.0
 50
90.0
100
AcDbRotatedDimension
1001
ACAD
1000
DSTYLE
1002
{
1070
   274
1070
     4
1070
    41
1040
3.000001907348633
1070
    79
1070
     2
1070
   343
1005
E1
1070
   344
1005
E1
1070
   176
1070
     4
1070
   177
1070
     4
1070
   178
1070
     2
1070
   271
1070
     2
1070
    44
1040
1.0
1070
    42
1040
1.0
1070
   147
1040
1.0
1070
   173
1070
     1
1070
    77
1070
     3
1070
    73
1070
     0
1070
   172
1070
     1
1070
    74
1070
     0
1070
   283
1070
     0
1070
   140
1040
3.0
1070
   284
1070
     8
1070
   288
1070
     1
1070
    78
1070
     8
1070
    90
1070
     1
1002
}
  0
DIMENSION
  5
1D1
330
1F
100
AcDbEntity
  8
0
  6
Continuous
370
    13
100
AcDbDimension
  2
*D5
 10
142.9106241254564
 20
115.6375
 30
0.0
 11
142.9106241254564
 21
35.1375
 31
0.0
 70
   160
  1
<>mm
 71
     8
 42
-1.0
  3
dc_Rotated
100
AcDbAlignedDimension
 13
114.9106241254564
 23
-45.3625
 33
0.0
 14
107.9106241254564
 24
115.6375
 34
0.0
 50
90.0
100
AcDbRotatedDimension
1001
ACAD
1000
DSTYLE
1002
{
1070
   274
1070
     4
1070
    41
1040
3.000001907348633
1070
    79
1070
     2
1070
   343
1005
E1
1070
   344
1005
E1
1070
   176
1070
     4
1070
   177
1070
     4
1070
   178
1070
     2
1070
   271
1070
     2
1070
    44
1040
1.0
1070
    42
1040
1.0
1070
   147
1040
1.0
1070
   173
1070
     1
1070
    77
1070
     3
1070
    73
1070
     0
1070
   172
1070
     1
1070
    74
1070
     0
1070
   283
1070
     0
1070
   140
1040
3.0
1070
   284
1070
     8
1070
   288
1070
     1
1070
    78
1070
     8
1070
    90
1070
     1
1002
}
  0
INSERT
  5
1D2
330
1F
100
AcDbEntity
  8
0
  6
Continuous
100
AcDbBlockReference
  2
DC_GROUP_KL500彫込本締錠_4
 10
0.0
 20
0.0
 30
0.0
  0
INSERT
  5
1D3
330
1F
100
AcDbEntity
  8
0
  6
Continuous
100
AcDbBlockReference
  2
DC_GROUP_KL500彫込本締錠_5
 10
0.0
 20
0.0
 30
0.0
  0
DIMENSION
  5
1D4
330
1F
100
AcDbEntity
  8
0
  6
Continuous
370
    13
100
AcDbDimension
  2
*D8
 10
10.41062412545638
 20
2.637500000000003
 30
0.0
 11
-2.089375874543624
 21
2.637500000000003
 31
0.0
 70
   160
  1
<>mm
 71
     8
 42
-1.0
  3
dc_Rotated
100
AcDbAlignedDimension
 13
-14.58937587454362
 23
-12.3625
 33
0.0
 14
10.41062412545638
 24
-12.3625
 34
0.0
100
AcDbRotatedDimension
1001
ACAD
1000
DSTYLE
1002
{
1070
   274
1070
     4
1070
    41
1040
3.000001907348633
1070
    79
1070
     2
1070
   343
1005
E1
1070
   344
1005
E1
1070
   176
1070
     4
1070
   177
1070
     4
1070
   178
1070
     2
1070
   271
1070
     2
1070
    44
1040
1.0
1070
    42
1040
1.0
1070
   147
1040
1.0
1070
   173
1070
     1
1070
    77
1070
     3
1070
    73
1070
     0
1070
   172
1070
     1
1070
    74
1070
     0
1070
   283
1070
     0
1070
   140
1040
3.0
1070
   284
1070
     8
1070
   288
1070
     1
1070
    78
1070
     8
1070
    90
1070
     1
1002
}
  0
DIMENSION
  5
1D5
330
1F
100
AcDbEntity
  8
0
  6
Continuous
370
    13
100
AcDbDimension
  2
*D9
 10
-29.58937587454362
 20
-20.3625
 30
0.0
 11
-29.58937587454362
 21
-41.3625
 31
0.0
 70
   160
  1
<>mm
 71
     8
 42
-1.0
  3
dc_Rotated
100
AcDbAlignedDimension
 13
-8.089375874543627
 23
-62.3625
 33
0.0
 14
-8.089375874543627
 24
-20.3625
 34
0.0
 50
90.0
100
AcDbRotatedDimension
1001
ACAD
1000
DSTYLE
1002
{
1070
   274
1070
     4
1070
    41
1040
3.000001907348633
1070
    79
1070
     2
1070
   343
1005
E1
1070
   344
1005
E1
1070
   176
1070
     4
1070
   177
1070
     4
1070
   178
1070
     2
1070
   271
1070
     2
1070
    44
1040
1.0
1070
    42
1040
1.0
1070
   147
1040
1.0
1070
   173
1070
     1
1070
    77
1070
     3
1070
    73
1070
     0
1070
   172
1070
     1
1070
    74
1070
     0
1070
   283
1070
     0
1070
   140
1040
3.0
1070
   284
1070
     8
1070
   288
1070
     1
1070
    78
1070
     8
1070
    90
1070
     1
1002
}
  0
DIMENSION
  5
1D6
330
1F
100
AcDbEntity
  8
0
  6
Continuous
370
    13
100
AcDbDimension
  2
*D10
 10
-37.58937587454362
 20
-12.3625
 30
0.0
 11
-37.58937587454362
 21
-41.3625
 31
0.0
 70
   160
  1
<>mm
 71
     8
 42
-1.0
  3
dc_Rotated
100
AcDbAlignedDimension
 13
-14.58937587454362
 23
-70.3625
 33
0.0
 14
-14.58937587454362
 24
-12.3625
 34
0.0
 50
90.0
100
AcDbRotatedDimension
1001
ACAD
1000
DSTYLE
1002
{
1070
   274
1070
     4
1070
    41
1040
3.000001907348633
1070
    79
1070
     2
1070
   343
1005
E1
1070
   344
1005
E1
1070
   176
1070
     4
1070
   177
1070
     4
1070
   178
1070
     2
1070
   271
1070
     2
1070
    44
1040
1.0
1070
    42
1040
1.0
1070
   147
1040
1.0
1070
   173
1070
     1
1070
    77
1070
     3
1070
    73
1070
     0
1070
   172
1070
     1
1070
    74
1070
     0
1070
   283
1070
     0
1070
   140
1040
3.0
1070
   284
1070
     8
1070
   288
1070
     1
1070
    78
1070
     8
1070
    90
1070
     1
1002
}
  0
DIMENSION
  5
1D7
330
1F
100
AcDbEntity
  8
0
  6
Continuous
370
    13
100
AcDbDimension
  2
*D11
 10
41.91062412545637
 20
2.637500000000003
 30
0.0
 11
49.40840412545637
 21
2.637500000000003
 31
0.0
 70
   160
  1
<>mm
 71
     8
 42
-1.0
  3
dc_Rotated
100
AcDbAlignedDimension
 13
37.91062412545637
 23
-2.362499999999997
 33
0.0
 14
41.91062412545637
 24
-12.3625
 34
0.0
100
AcDbRotatedDimension
1001
ACAD
1000
DSTYLE
1002
{
1070
   274
1070
     4
1070
    41
1040
3.000001907348633
1070
    79
1070
     2
1070
   343
1005
E1
1070
   344
1005
E1
1070
   176
1070
     4
1070
   177
1070
     4
1070
   178
1070
     2
1070
   271
1070
     2
1070
    44
1040
1.0
1070
    42
1040
1.0
1070
   147
1040
1.0
1070
   173
1070
     1
1070
    77
1070
     3
1070
    73
1070
     0
1070
   172
1070
     1
1070
    74
1070
     0
1070
   283
1070
     0
1070
   140
1040
3.0
1070
   284
1070
     8
1070
   288
1070
     1
1070
    78
1070
     8
1070
    90
1070
     1
1002
}
  0
DIMENSION
  5
1D8
330
1F
100
AcDbEntity
  8
0
  6
Continuous
370
    13
100
AcDbDimension
  2
*D12
 10
127.9106241254564
 20
-105.3625
 30
0.0
 11
82.91062412545638
 21
-105.3625
 31
0.0
 70
   160
  1
彫込寸法<>mm
 71
     8
 42
-1.0
  3
dc_Rotated
100
AcDbAlignedDimension
 13
37.91062412545638
 23
-80.3625
 33
0.0
 14
127.9106241254564
 24
-53.3625
 34
0.0
100
AcDbRotatedDimension
1001
ACAD
1000
DSTYLE
1002
{
1070
   274
1070
     4
1070
    41
1040
3.000001907348633
1070
    79
1070
     2
1070
   343
1005
E1
1070
   344
1005
E1
1070
   176
1070
     4
1070
   177
1070
     4
1070
   178
1070
     2
1070
   271
1070
     2
1070
    44
1040
1.0
1070
    42
1040
1.0
1070
   147
1040
1.0
1070
   173
1070
     1
1070
    77
1070
     3
1070
    73
1070
     0
1070
   172
1070
     1
1070
    74
1070
     0
1070
   283
1070
     0
1070
   140
1040
4.0
1070
   284
1070
     8
1070
   288
1070
     1
1070
    78
1070
     8
1070
    90
1070
     1
1002
}
  0
DIMENSION
  5
1D9
330
1F
100
AcDbEntity
  8
0
  6
Continuous
370
    13
100
AcDbDimension
  2
*D13
 10
27.91062412545638
 20
-41.3625
 30
0.0
 11
27.91062412545638
 21
-33.86472
 31
0.0
 70
   160
  1
<>mm
 71
     8
 42
-1.0
  3
dc_Rotated
100
AcDbAlignedDimension
 13
80.91062412545637
 23
-45.3625
 33
0.0
 14
18.41062412545638
 24
-41.3625
 34
0.0
 50
90.0
100
AcDbRotatedDimension
1001
ACAD
1000
DSTYLE
1002
{
1070
   274
1070
     4
1070
    41
1040
3.000001907348633
1070
    79
1070
     2
1070
   343
1005
E1
1070
   344
1005
E1
1070
   176
1070
     4
1070
   177
1070
     4
1070
   178
1070
     2
1070
   271
1070
     2
1070
    44
1040
1.0
1070
    42
1040
1.0
1070
   147
1040
1.0
1070
   173
1070
     1
1070
    77
1070
     3
1070
    73
1070
     0
1070
   172
1070
     1
1070
    74
1070
     0
1070
   283
1070
     0
1070
   140
1040
3.0
1070
   284
1070
     8
1070
   288
1070
     1
1070
    78
1070
     8
1070
    90
1070
     1
1002
}
  0
DIMENSION
  5
1DA
330
1F
100
AcDbEntity
  8
0
  6
Continuous
370
    13
100
AcDbDimension
  2
*D14
 10
-128.5893758745436
 20
-68.3625
 30
0.0
 11
-128.5893758745436
 21
-41.36249904632569
 31
0.0
 70
   160
  1
54mm
 71
     8
 42
-1.0
  3
dc_Rotated
100
AcDbAlignedDimension
 13
-102.4893758745436
 23
-14.36249809265135
 33
0.0
 14
-102.4893758745436
 24
-68.3625
 34
0.0
 50
90.0
100
AcDbRotatedDimension
1001
ACAD
1000
DSTYLE
1002
{
1070
   274
1070
     4
1070
    41
1040
3.000001907348633
1070
    79
1070
     2
1070
   343
1005
E1
1070
   344
1005
E1
1070
   176
1070
     4
1070
   177
1070
     4
1070
   178
1070
     2
1070
   271
1070
     2
1070
    44
1040
1.0
1070
    42
1040
1.0
1070
   147
1040
1.0
1070
   173
1070
     1
1070
    77
1070
     3
1070
    73
1070
     0
1070
   172
1070
     1
1070
    74
1070
     0
1070
   283
1070
     0
1070
   140
1040
3.0
1070
   284
1070
     8
1070
   288
1070
     1
1070
    78
1070
     8
1070
    90
1070
     1
1002
}
  0
DIMENSION
  5
1DB
330
1F
100
AcDbEntity
  8
0
  6
Continuous
370
    13
100
AcDbDimension
  2
*D15
 10
-136.5893758745436
 20
-76.3625
 30
0.0
 11
-136.5893758745436
 21
-41.36249809265136
 31
0.0
 70
   160
  1
70mm
 71
     8
 42
-1.0
  3
dc_Rotated
100
AcDbAlignedDimension
 13
-105.5893758745436
 23
-6.362496185302717
 33
0.0
 14
-105.5893758745436
 24
-76.3625
 34
0.0
 50
90.0
100
AcDbRotatedDimension
1001
ACAD
1000
DSTYLE
1002
{
1070
   274
1070
     4
1070
    41
1040
3.000001907348633
1070
    79
1070
     2
1070
   343
1005
E1
1070
   344
1005
E1
1070
   176
1070
     4
1070
   177
1070
     4
1070
   178
1070
     2
1070
   271
1070
     2
1070
    44
1040
1.0
1070
    42
1040
1.0
1070
   147
1040
1.0
1070
   173
1070
     1
1070
    77
1070
     3
1070
    73
1070
     0
1070
   172
1070
     1
1070
    74
1070
     0
1070
   283
1070
     0
1070
   140
1040
3.0
1070
   284
1070
     8
1070
   288
1070
     1
1070
    78
1070
     8
1070
    90
1070
     1
1002
}
  0
DIMENSION
  5
1DC
330
1F
100
AcDbEntity
  8
0
  6
Continuous
370
    13
100
AcDbDimension
  2
*D16
 10
-82.58937587454362
 20
-134.3625
 30
0.0
 11
-93.08937587454359
 21
-134.3625
 31
0.0
 70
   160
  1
21mm
 71
     8
 42
-1.0
  3
dc_Rotated
100
AcDbAlignedDimension
 13
-103.5893758745436
 23
-118.3625
 33
0.0
 14
-82.58937587454362
 24
-118.3625
 34
0.0
100
AcDbRotatedDimension
1001
ACAD
1000
DSTYLE
1002
{
1070
   274
1070
     4
1070
    41
1040
3.000001907348633
1070
    79
1070
     2
1070
   343
1005
E1
1070
   344
1005
E1
1070
   176
1070
     4
1070
   177
1070
     4
1070
   178
1070
     2
1070
   271
1070
     2
1070
    44
1040
1.0
1070
    42
1040
1.0
1070
   147
1040
1.0
1070
   173
1070
     1
1070
    77
1070
     3
1070
    73
1070
     0
1070
   172
1070
     1
1070
    74
1070
     0
1070
   283
1070
     0
1070
   140
1040
3.0
1070
   284
1070
     8
1070
   288
1070
     1
1070
    78
1070
     8
1070
    90
1070
     1
1002
}
  0
DIMENSION
  5
1DD
330
1F
100
AcDbEntity
  8
0
  6
Continuous
370
    13
100
AcDbDimension
  2
*D17
 10
-80.58937587454362
 20
16.63750381469728
 30
0.0
 11
-93.08937587454359
 21
16.63750381469728
 31
0.0
 70
   160
  1
25mm
 71
     8
 42
-1.0
  3
dc_Rotated
100
AcDbAlignedDimension
 13
-105.5893758745436
 23
-6.362496185302717
 33
0.0
 14
-80.58937587454362
 24
-6.362496185302717
 34
0.0
100
AcDbRotatedDimension
1001
ACAD
1000
DSTYLE
1002
{
1070
   274
1070
     4
1070
    41
1040
3.000001907348633
1070
    79
1070
     2
1070
   343
1005
E1
1070
   344
1005
E1
1070
   176
1070
     4
1070
   177
1070
     4
1070
   178
1070
     2
1070
   271
1070
     2
1070
    44
1040
1.0
1070
    42
1040
1.0
1070
   147
1040
1.0
1070
   173
1070
     1
1070
    77
1070
     3
1070
    73
1070
     0
1070
   172
1070
     1
1070
    74
1070
     0
1070
   283
1070
     0
1070
   140
1040
3.0
1070
   284
1070
     8
1070
   288
1070
     1
1070
    78
1070
     8
1070
    90
1070
     1
1002
}
  0
DIMENSION
  5
1DE
330
1F
100
AcDbEntity
  8
0
  6
Continuous
370
    13
100
AcDbDimension
  2
*D18
 10
-82.58937587454359
 20
8.637503814697283
 30
0.0
 11
-93.08937587454359
 21
8.637503814697283
 31
0.0
 70
   160
  1
<>mm
 71
     8
 42
-1.0
  3
dc_Rotated
100
AcDbAlignedDimension
 13
-103.5893758745436
 23
-25.3625
 33
0.0
 14
-82.58937587454359
 24
-25.3625
 34
0.0
100
AcDbRotatedDimension
1001
ACAD
1000
DSTYLE
1002
{
1070
   274
1070
     4
1070
    41
1040
3.000001907348633
1070
    79
1070
     2
1070
   343
1005
E1
1070
   344
1005
E1
1070
   176
1070
     4
1070
   177
1070
     4
1070
   178
1070
     2
1070
   271
1070
     2
1070
    44
1040
1.0
1070
    42
1040
1.0
1070
   147
1040
1.0
1070
   173
1070
     1
1070
    77
1070
     3
1070
    73
1070
     0
1070
   172
1070
     1
1070
    74
1070
     0
1070
   283
1070
     0
1070
   140
1040
3.0
1070
   284
1070
     8
1070
   288
1070
     1
1070
    78
1070
     8
1070
    90
1070
     1
1002
}
  0
DIMENSION
  5
1DF
330
1F
100
AcDbEntity
  8
0
  6
Continuous
370
    13
100
AcDbDimension
  2
*D19
 10
-120.5893758745436
 20
-25.3625
 30
0.0
 11
-120.5893758745436
 21
-41.3625
 31
0.0
 70
   160
  1
<>mm
 71
     8
 42
-1.0
  3
dc_Rotated
100
AcDbAlignedDimension
 13
-103.5893758745436
 23
-57.3625
 33
0.0
 14
-103.5893758745436
 24
-25.3625
 34
0.0
 50
90.0
100
AcDbRotatedDimension
1001
ACAD
1000
DSTYLE
1002
{
1070
   274
1070
     4
1070
    41
1040
3.000001907348633
1070
    79
1070
     2
1070
   343
1005
E1
1070
   344
1005
E1
1070
   176
1070
     4
1070
   177
1070
     4
1070
   178
1070
     2
1070
   271
1070
     2
1070
    44
1040
1.0
1070
    42
1040
1.0
1070
   147
1040
1.0
1070
   173
1070
     1
1070
    77
1070
     3
1070
    73
1070
     0
1070
   172
1070
     1
1070
    74
1070
     0
1070
   283
1070
     0
1070
   140
1040
3.0
1070
   284
1070
     8
1070
   288
1070
     1
1070
    78
1070
     8
1070
    90
1070
     1
1002
}
  0
DIMENSION
  5
1E0
330
1F
100
AcDbEntity
  8
0
  6
Continuous
370
    13
100
AcDbDimension
  2
*D20
 10
-65.58937587454362
 20
-103.8625
 30
0.0
 11
-65.58937587454362
 21
-111.6125
 31
0.0
 70
   160
  1
<>mm
 71
     8
 42
-1.0
  3
dc_Rotated
100
AcDbAlignedDimension
 13
-83.58937587454362
 23
-119.3625
 33
0.0
 14
-82.58937587454362
 24
-103.8625
 34
0.0
 50
90.0
100
AcDbRotatedDimension
1001
ACAD
1000
DSTYLE
1002
{
1070
   274
1070
     4
1070
    41
1040
3.000001907348633
1070
    79
1070
     2
1070
   343
1005
E1
1070
   344
1005
E1
1070
   176
1070
     4
1070
   177
1070
     4
1070
   178
1070
     2
1070
   271
1070
     2
1070
    44
1040
1.0
1070
    42
1040
1.0
1070
   147
1040
1.0
1070
   173
1070
     1
1070
    77
1070
     3
1070
    73
1070
     0
1070
   172
1070
     1
1070
    74
1070
     0
1070
   283
1070
     0
1070
   140
1040
3.0
1070
   284
1070
     8
1070
   288
1070
     1
1070
    78
1070
     8
1070
    90
1070
     1
1002
}
  0
DIMENSION
  5
1E1
330
1F
100
AcDbEntity
  8
0
  6
Continuous
370
    13
100
AcDbDimension
  2
*D21
 10
-65.58937587454362
 20
-102.3625
 30
0.0
 11
-65.58937587454362
 21
-92.46472
 31
0.0
 70
   160
  1
<>mm
 71
     8
 42
-1.0
  3
dc_Rotated
100
AcDbAlignedDimension
 13
-82.58937587454362
 23
-103.8625
 33
0.0
 14
-80.58937587454362
 24
-102.3625
 34
0.0
 50
90.0
100
AcDbRotatedDimension
1001
ACAD
1000
DSTYLE
1002
{
1070
   274
1070
     4
1070
    41
1040
3.000001907348633
1070
    79
1070
     2
1070
   343
1005
E1
1070
   344
1005
E1
1070
   176
1070
     4
1070
   177
1070
     4
1070
   178
1070
     2
1070
   271
1070
     2
1070
    44
1040
1.0
1070
    42
1040
1.0
1070
   147
1040
1.0
1070
   173
1070
     1
1070
    77
1070
     3
1070
    73
1070
     0
1070
   172
1070
     1
1070
    74
1070
     0
1070
   283
1070
     0
1070
   140
1040
3.0
1070
   284
1070
     8
1070
   288
1070
     1
1070
    78
1070
     8
1070
    90
1070
     1
1002
}
  0
DIMENSION
  5
1E2
330
1F
100
AcDbEntity
  8
0
  6
Continuous
370
    13
100
AcDbDimension
  2
*D22
 10
-57.58937587454362
 20
-102.3625
 30
0.0
 11
-57.58937587454362
 21
-110.8625
 31
0.0
 70
   160
  1
<>mm
 71
     8
 42
-1.0
  3
dc_Rotated
100
AcDbAlignedDimension
 13
-83.58937587454362
 23
-119.3625
 33
0.0
 14
-80.58937587454362
 24
-102.3625
 34
0.0
 50
90.0
100
AcDbRotatedDimension
1001
ACAD
1000
DSTYLE
1002
{
1070
   274
1070
     4
1070
    41
1040
3.000001907348633
1070
    79
1070
     2
1070
   343
1005
E1
1070
   344
1005
E1
1070
   176
1070
     4
1070
   177
1070
     4
1070
   178
1070
     2
1070
   271
1070
     2
1070
    44
1040
1.0
1070
    42
1040
1.0
1070
   147
1040
1.0
1070
   173
1070
     1
1070
    77
1070
     3
1070
    73
1070
     0
1070
   172
1070
     1
1070
    74
1070
     0
1070
   283
1070
     0
1070
   140
1040
3.0
1070
   284
1070
     8
1070
   288
1070
     1
1070
    78
1070
     8
1070
    90
1070
     1
1002
}
  0
DIMENSION
  5
1E3
330
1F
100
AcDbEntity
  8
0
  6
Continuous
370
    13
100
AcDbDimension
  2
*D23
 10
97.9106241254564
 20
-97.3625
 30
0.0
 11
67.9106241254564
 21
-97.3625
 31
0.0
 70
   160
  1
バックセット<>(51)
 71
     8
 42
-1.0
  3
dc_Rotated
100
AcDbAlignedDimension
 13
37.91062412545638
 23
-80.3625
 33
0.0
 14
97.9106241254564
 24
-90.3625
 34
0.0
100
AcDbRotatedDimension
1001
ACAD
1000
DSTYLE
1002
{
1070
   274
1070
     4
1070
    41
1040
3.000001907348633
1070
    79
1070
     2
1070
   343
1005
E1
1070
   344
1005
E1
1070
   176
1070
     4
1070
   177
1070
     4
1070
   178
1070
     2
1070
   271
1070
     2
1070
    44
1040
1.0
1070
    42
1040
1.0
1070
   147
1040
1.0
1070
   173
1070
     1
1070
    77
1070
     3
1070
    73
1070
     0
1070
   172
1070
     1
1070
    74
1070
     0
1070
   283
1070
     0
1070
   140
1040
4.0
1070
   284
1070
     8
1070
   288
1070
     1
1070
    78
1070
     8
1070
    90
1070
     1
1002
}
  0
CIRCLE
  5
1E4
330
1F
100
AcDbEntity
  8
0
  6
Continuous
 62
     3
370
    50
100
AcDbCircle
 10
97.91062412545637
 20
115.6375
 30
0.0
 40
5.0
  0
CIRCLE
  5
1E5
330
1F
100
AcDbEntity
  8
0
  6
Continuous
 62
     3
370
    50
100
AcDbCircle
 10
97.91062412545637
 20
-67.3625
 30
0.0
 40
5.0
  0
CIRCLE
  5
1E6
330
1F
100
AcDbEntity
  8
0
  6
Continuous
 62
     3
370
    50
100
AcDbCircle
 10
97.91062412545637
 20
-45.3625
 30
0.0
 40
10.0
  0
CIRCLE
  5
1E7
330
1F
100
AcDbEntity
  8
0
  6
Continuous
 62
     3
370
    50
100
AcDbCircle
 10
-2.089375874543627
 20
-41.3625
 30
0.0
 40
12.0
  0
LINE
  5
1E8
330
1F
100
AcDbEntity
  8
0
  6
Continuous
 62
     3
370
    50
100
AcDbLine
 10
-14.58937587454362
 20
-12.3625
 30
0.0
 11
-14.58937587454362
 21
-70.3625
 31
0.0
  0
LINE
  5
1E9
330
1F
100
AcDbEntity
  8
0
  6
Continuous
 62
     3
370
    50
100
AcDbLine
 10
10.41062412545638
 20
-12.3625
 30
0.0
 11
10.41062412545638
 21
-70.3625
 31
0.0
  0
LINE
  5
1EA
330
1F
100
AcDbEntity
  8
0
  6
Continuous
 62
     3
370
    50
100
AcDbLine
 10
10.41062412545638
 20
-12.3625
 30
0.0
 11
-14.58937587454362
 21
-12.3625
 31
0.0
  0
LINE
  5
1EB
330
1F
100
AcDbEntity
  8
0
  6
Continuous
 62
     3
370
    50
100
AcDbLine
 10
-14.58937587454362
 20
-70.3625
 30
0.0
 11
10.41062412545638
 21
-70.3625
 31
0.0
  0
LINE
  5
1EC
330
1F
100
AcDbEntity
  8
0
  6
Continuous
 62
     3
370
    50
100
AcDbLine
 10
-105.5893758745436
 20
-6.362496185302717
 30
0.0
 11
-80.58937587454362
 21
-6.362496185302717
 31
0.0
  0
LINE
  5
1ED
330
1F
100
AcDbEntity
  8
0
  6
Continuous
 62
     3
370
    50
100
AcDbLine
 10
-80.58937587454362
 20
-6.362496185302717
 30
0.0
 11
-80.58937587454362
 21
-76.3625
 31
0.0
  0
LINE
  5
1EE
330
1F
100
AcDbEntity
  8
0
  6
Continuous
 62
     3
370
    50
100
AcDbLine
 10
-80.58937587454362
 20
-76.3625
 30
0.0
 11
-105.5893758745436
 21
-76.3625
 31
0.0
  0
LINE
  5
1EF
330
1F
100
AcDbEntity
  8
0
  6
Continuous
 62
     3
370
    50
100
AcDbLine
 10
-105.5893758745436
 20
-76.3625
 30
0.0
 11
-105.5893758745436
 21
-6.362496185302717
 31
0.0
  0
LINE
  5
1F0
330
1F
100
AcDbEntity
  8
0
  6
Continuous
 62
     3
370
    50
100
AcDbLine
 10
-98.08937587454362
 20
-27.3625
 30
0.0
 11
-88.08937587454362
 21
-27.3625
 31
0.0
  0
ARC
  5
1F1
330
1F
100
AcDbEntity
  8
0
  6
Continuous
 62
     3
370
    50
100
AcDbCircle
 10
-88.08937587454362
 20
-30.3625
 30
0.0
 40
3.0
100
AcDbArc
 50
0.0
 51
89.99999989716001
  0
ARC
  5
1F2
330
1F
100
AcDbEntity
  8
0
  6
Continuous
 62
     3
370
    50
100
AcDbCircle
 10
-98.08937587454362
 20
-30.3625
 30
0.0
 40
3.0
100
AcDbArc
 50
89.99999989716001
 51
179.99999979432
  0
LINE
  5
1F3
330
1F
100
AcDbEntity
  8
0
  6
Continuous
 62
     3
370
    50
100
AcDbLine
 10
-85.08937587454362
 20
-30.3625
 30
0.0
 11
-85.08937587454362
 21
-52.36249904632568
 31
0.0
  0
ARC
  5
1F4
330
1F
100
AcDbEntity
  8
0
  6
Continuous
 62
     3
370
    50
100
AcDbCircle
 10
-88.08937587454362
 20
-52.36249904632568
 30
0.0
 40
3.0
100
AcDbArc
 50
269.99999969148
 51
359.99999958864
  0
LINE
  5
1F5
330
1F
100
AcDbEntity
  8
0
  6
Continuous
 62
     3
370
    50
100
AcDbLine
 10
-88.08937587454362
 20
-55.36249904632568
 30
0.0
 11
-98.08937587454362
 21
-55.36249904632568
 31
0.0
  0
ARC
  5
1F6
330
1F
100
AcDbEntity
  8
0
  6
Continuous
 62
     3
370
    50
100
AcDbCircle
 10
-98.08937587454362
 20
-52.36249904632568
 30
0.0
 40
3.0
100
AcDbArc
 50
179.99999979432
 51
269.99999969148
  0
LINE
  5
1F7
330
1F
100
AcDbEntity
  8
0
  6
Continuous
 62
     3
370
    50
100
AcDbLine
 10
-101.0893758745436
 20
-52.36249904632568
 30
0.0
 11
-101.0893758745436
 21
-30.3625
 31
0.0
  0
LINE
  5
1F8
330
1F
100
AcDbEntity
  8
0
  6
Continuous
 62
     3
370
    50
100
AcDbLine
 10
-105.5893758745436
 20
-102.3625
 30
0.0
 11
-80.58937587454362
 21
-102.3625
 31
0.0
  0
LINE
  5
1F9
330
1F
100
AcDbEntity
  8
0
  6
Continuous
 62
     3
370
    50
100
AcDbLine
 10
-105.5893758745436
 20
-103.3625
 30
0.0
 11
-80.58937587454362
 21
-103.3625
 31
0.0
  0
LINE
  5
1FA
330
1F
100
AcDbEntity
  8
0
  6
Continuous
 62
     3
370
    50
100
AcDbLine
 10
-102.5893758745436
 20
-119.3625
 30
0.0
 11
-83.58937587454362
 21
-119.3625
 31
0.0
  0
ARC
  5
1FB
330
1F
100
AcDbEntity
  8
0
  6
Continuous
 62
     3
370
    50
100
AcDbCircle
 10
-83.58937587454362
 20
-118.3625
 30
0.0
 40
1.0
100
AcDbArc
 50
269.9999999999997
 51
0.0
  0
ARC
  5
1FC
330
1F
100
AcDbEntity
  8
0
  6
Continuous
 62
     3
370
    50
100
AcDbCircle
 10
-102.5893758745436
 20
-118.3625
 30
0.0
 40
1.0
100
AcDbArc
 50
179.9999999999998
 51
269.9999999999997
  0
LINE
  5
1FD
330
1F
100
AcDbEntity
  8
0
  6
Continuous
 62
     3
370
    50
100
AcDbLine
 10
-103.5893758745436
 20
-103.3625
 30
0.0
 11
-103.5893758745436
 21
-118.3625
 31
0.0
  0
LINE
  5
1FE
330
1F
100
AcDbEntity
  8
0
  6
Continuous
 62
     3
370
    50
100
AcDbLine
 10
-82.58937587454362
 20
-103.3625
 30
0.0
 11
-82.58937587454362
 21
-118.3625
 31
0.0
  0
LINE
  5
1FF
330
1F
100
AcDbEntity
  8
0
  6
Continuous
 62
     3
370
    50
100
AcDbLine
 10
-105.5893758745436
 20
-102.3625
 30
0.0
 11
-105.5893758745436
 21
-103.3625
 31
0.0
  0
LINE
  5
200
330
1F
100
AcDbEntity
  8
0
  6
Continuous
 62
     3
370
    50
100
AcDbLine
 10
-80.58937587454362
 20
-102.3625
 30
0.0
 11
-80.58937587454362
 21
-103.3625
 31
0.0
  0
CIRCLE
  5
201
330
1F
100
AcDbEntity
  8
0
  6
Continuous
 62
     3
370
    50
100
AcDbCircle
 10
-93.08937587454353
 20
-14.36249809265135
 30
0.0
 40
4.4
  0
CIRCLE
  5
202
330
1F
100
AcDbEntity
  8
0
  6
Continuous
 62
     3
370
    50
100
AcDbCircle
 10
-93.08937587454353
 20
-68.36249999999994
 30
0.0
 40
4.4
  0
CIRCLE
  5
203
330
1F
100
AcDbEntity
  8
0
  6
Continuous
 62
     3
370
    50
100
AcDbCircle
 10
-93.08937587454353
 20
-14.36249809265135
 30
0.0
 40
3.0
  0
CIRCLE
  5
204
330
1F
100
AcDbEntity
  8
0
  6
Continuous
 62
     3
370
    50
100
AcDbCircle
 10
-93.08937587454353
 20
-68.36249999999994
 30
0.0
 40
3.0
  0
LINE
  5
205
330
1F
100
AcDbEntity
  8
0
  6
CENTER
 62
     4
370
    25
100
AcDbLine
 10
-113.5893758745436
 20
-41.3625
 30
0.0
 11
-72.58937587454362
 21
-41.3625
 31
0.0
  0
LINE
  5
206
330
1F
100
AcDbEntity
  8
0
  6
CENTER
 62
     4
370
    25
100
AcDbLine
 10
-93.08937587454359
 20
-127.3624999999999
 30
0.0
 11
-93.08937587454359
 21
-94.36249999999997
 31
0.0
  0
LINE
  5
207
330
1F
100
AcDbEntity
  8
0
  6
CENTER
 62
     4
370
    25
100
AcDbLine
 10
-93.08937587454359
 20
-84.36249999999997
 30
0.0
 11
-93.08937587454359
 21
1.637503814697283
 31
0.0
  0
LINE
  5
208
330
1F
100
AcDbEntity
  8
0
  6
CENTER
 62
     4
370
    25
100
AcDbLine
 10
-102.4893758745436
 20
-14.36249809265135
 30
0.0
 11
-83.68937587454353
 21
-14.36249809265135
 31
0.0
  0
LINE
  5
209
330
1F
100
AcDbEntity
  8
0
  6
CENTER
 62
     4
370
    25
100
AcDbLine
 10
-102.4893758745436
 20
-68.3625
 30
0.0
 11
-83.68937587454353
 21
-68.3625
 31
0.0
  0
LINE
  5
20A
330
1F
100
AcDbEntity
  8
0
  6
Continuous
 62
     4
370
    25
100
AcDbLine
 10
-103.5893758745436
 20
-103.8625
 30
0.0
 11
-82.58937587454362
 21
-103.8625
 31
0.0
  0
VIEWPORT
  5
74
330
1B
100
AcDbEntity
 67
     1
  8
0
100
AcDbViewport
 10
-24.04468793727182
 20
2.318750000000023
 30
0.0
 40
1007.731872376369
 41
799.9125000000001
 68
     1
 69
     1
 12
-24.04468793727182
 22
2.318750000000023
 13
0.0
 23
0.0
 14
0.5
 24
0.5
 15
0.0
 25
0.0
 16
0.0
 26
0.0
 36
1.0
 17
0.0
 27
0.0
 37
0.0
 42
50.0
 43
0.0
 44
0.0
 45
799.9125000000001
 50
0.0
 51
0.0
 72
   100
 90
   557152
  1

281
     0
 71
     1
 74
     0
110
0.0
120
0.0
130
0.0
111
1.0
121
0.0
131
0.0
112
0.0
122
1.0
132
0.0
 79
     0
146
0.0
  0
ENDSEC
  0
SECTION
  2
OBJECTS
  0
DICTIONARY
  5
C
330
0
100
AcDbDictionary
281
     1
  3
ACAD_GROUP
350
D
  3
ACAD_LAYOUT
350
1A
  3
ACAD_MATERIAL
350
3B
  3
ACAD_MLEADERSTYLE
350
22F
  3
ACAD_MLINESTYLE
350
17
  3
ACAD_PLOTSETTINGS
350
19
  3
ACAD_PLOTSTYLENAME
350
E
  3
ACAD_SCALELIST
350
20B
  3
ACAD_VISUALSTYLE
350
2A
  3
AcDbVariableDictionary
350
22D
  0
DICTIONARY
  5
D
102
{ACAD_REACTORS
330
C
102
}
330
C
100
AcDbDictionary
281
     1
  0
DICTIONARY
  5
1A
102
{ACAD_REACTORS
330
C
102
}
330
C
100
AcDbDictionary
281
     1
  3
Layout1
350
1E
  3
Layout2
350
26
  3
Model
350
22
  0
DICTIONARY
  5
3B
102
{ACAD_REACTORS
330
C
102
}
330
C
100
AcDbDictionary
281
     1
  3
ByBlock
350
3D
  3
ByLayer
350
3C
  3
Global
350
3E
  0
DICTIONARY
  5
22F
102
{ACAD_REACTORS
330
C
102
}
330
C
100
AcDbDictionary
281
     1
  0
DICTIONARY
  5
17
102
{ACAD_REACTORS
330
C
102
}
330
C
100
AcDbDictionary
281
     1
  3
Standard
350
18
  0
DICTIONARY
  5
19
102
{ACAD_REACTORS
330
C
102
}
330
C
100
AcDbDictionary
281
     1
  0
ACDBDICTIONARYWDFLT
  5
E
102
{ACAD_REACTORS
330
C
102
}
330
C
100
AcDbDictionary
281
     1
  3
Normal
350
F
100
AcDbDictionaryWithDefault
340
F
  0
DICTIONARY
  5
20B
102
{ACAD_REACTORS
330
C
102
}
330
C
100
AcDbDictionary
281
     1
  3
A0
350
20C
  3
A1
350
20D
  3
A2
350
20E
  3
A3
350
20F
  3
A4
350
210
  3
A5
350
211
  3
A6
350
212
  3
A7
350
213
  3
A8
350
214
  3
A9
350
215
  3
B0
350
216
  3
B1
350
217
  3
B2
350
218
  3
B3
350
219
  3
B4
350
21A
  3
B5
350
21B
  3
B6
350
21C
  3
B7
350
21D
  3
B8
350
21E
  3
B9
350
21F
  3
C0
350
220
  3
C1
350
221
  3
C2
350
222
  3
C3
350
223
  3
C4
350
224
  3
C5
350
225
  3
C6
350
226
  3
C7
350
227
  3
C8
350
228
  3
C9
350
229
  3
D0
350
22A
  3
D1
350
22B
  3
D2
350
22C
  0
DICTIONARY
  5
2A
102
{ACAD_REACTORS
330
C
102
}
330
C
100
AcDbDictionary
281
     1
  3
2dWireframe
350
2F
  3
3D Hidden
350
31
  3
3dWireframe
350
30
  3
Basic
350
32
  3
Brighten
350
36
  3
ColorChange
350
3A
  3
Conceptual
350
34
  3
Dim
350
35
  3
Facepattern
350
39
  3
Flat
350
2B
  3
FlatWithEdges
350
2C
  3
Gouraud
350
2D
  3
GouraudWithEdges
350
2E
  3
Linepattern
350
38
  3
Realistic
350
33
  3
Thicken
350
37
  0
DICTIONARY
  5
22D
102
{ACAD_REACTORS
330
C
102
}
330
C
100
AcDbDictionary
281
     1
  3
CANNOSCALE
350
230
  3
DIMASSOC
350
231
  3
HIDETEXT
350
232
  0
LAYOUT
  5
1E
102
{ACAD_REACTORS
330
1A
102
}
330
1A
100
AcDbPlotSettings
  1

  2
none_device
  4

  6

 40
0.0
 41
0.0
 42
0.0
 43
0.0
 44
0.0
 45
0.0
 46
0.0
 47
0.0
 48
0.0
 49
0.0
140
0.0
141
0.0
142
1.0
143
1.0
 70
   688
 72
     0
 73
     0
 74
     5
  7

 75
    16
147
1.0
148
0.0
149
0.0
100
AcDbLayout
  1
Layout1
 70
     0
 71
     1
 10
0.0
 20
0.0
 11
12.0
 21
9.0
 12
0.0
 22
0.0
 32
0.0
 14
1.000000000000000E+20
 24
1.000000000000000E+20
 34
1.000000000000000E+20
 15
-1.000000000000000E+20
 25
-1.000000000000000E+20
 35
-1.000000000000000E+20
146
0.0
 13
0.0
 23
0.0
 33
0.0
 16
1.0
 26
0.0
 36
0.0
 17
0.0
 27
1.0
 37
0.0
 76
     0
330
1B
331
74
  0
LAYOUT
  5
26
102
{ACAD_REACTORS
330
1A
102
}
330
1A
100
AcDbPlotSettings
  1

  2
none_device
  4

  6

 40
0.0
 41
0.0
 42
0.0
 43
0.0
 44
0.0
 45
0.0
 46
0.0
 47
0.0
 48
0.0
 49
0.0
140
0.0
141
0.0
142
1.0
143
1.0
 70
   688
 72
     0
 73
     0
 74
     5
  7

 75
    16
147
1.0
148
0.0
149
0.0
100
AcDbLayout
  1
Layout2
 70
     1
 71
     2
 10
0.0
 20
0.0
 11
0.0
 21
0.0
 12
0.0
 22
0.0
 32
0.0
 14
0.0
 24
0.0
 34
0.0
 15
0.0
 25
0.0
 35
0.0
146
0.0
 13
0.0
 23
0.0
 33
0.0
 16
1.0
 26
0.0
 36
0.0
 17
0.0
 27
1.0
 37
0.0
 76
     0
330
23
  0
LAYOUT
  5
22
102
{ACAD_REACTORS
330
1A
102
}
330
1A
100
AcDbPlotSettings
  1

  2
none_device
  4

  6

 40
0.0
 41
0.0
 42
0.0
 43
0.0
 44
0.0
 45
0.0
 46
0.0
 47
0.0
 48
0.0
 49
0.0
140
0.0
141
0.0
142
1.0
143
1.0
 70
  1712
 72
     0
 73
     0
 74
     0
  7

 75
     0
147
1.0
148
0.0
149
0.0
100
AcDbLayout
  1
Model
 70
     1
 71
     0
 10
-210.0
 20
-148.5
 11
210.0
 21
148.5
 12
0.0
 22
0.0
 32
0.0
 14
-527.9106241254564
 24
-397.6375
 34
0.0
 15
479.8212482509127
 25
402.2750000000001
 35
0.0
146
0.0
 13
0.0
 23
0.0
 33
0.0
 16
1.0
 26
0.0
 36
0.0
 17
0.0
 27
1.0
 37
0.0
 76
     0
330
1F
331
29
  0
MATERIAL
  5
3D
102
{ACAD_REACTORS
330
3B
102
}
102
{ACAD_XDICTIONARY
360
256
102
}
330
3B
100
AcDbMaterial
  1
ByBlock
  0
MATERIAL
  5
3C
102
{ACAD_REACTORS
330
3B
102
}
102
{ACAD_XDICTIONARY
360
254
102
}
330
3B
100
AcDbMaterial
  1
ByLayer
  0
MATERIAL
  5
3E
102
{ACAD_REACTORS
330
3B
102
}
102
{ACAD_XDICTIONARY
360
258
102
}
330
3B
100
AcDbMaterial
  1
Global
  0
MLINESTYLE
  5
18
102
{ACAD_REACTORS
330
17
102
}
330
17
100
AcDbMlineStyle
  2
Standard
 70
     0
  3

 62
   256
 51
90.0
 52
90.0
 71
     2
 49
0.5
 62
   256
  6
BYLAYER
 49
-0.5
 62
   256
  6
BYLAYER
  0
ACDBPLACEHOLDER
  5
F
102
{ACAD_REACTORS
330
E
102
}
330
E
  0
SCALE
  5
20C
102
{ACAD_REACTORS
330
20B
102
}
330
20B
100
AcDbScale
 70
     0
300
1:1
140
1.0
141
1.0
290
     1
  0
SCALE
  5
20D
102
{ACAD_REACTORS
330
20B
102
}
330
20B
100
AcDbScale
 70
     0
300
1:2
140
1.0
141
2.0
290
     0
  0
SCALE
  5
20E
102
{ACAD_REACTORS
330
20B
102
}
330
20B
100
AcDbScale
 70
     0
300
1:4
140
1.0
141
4.0
290
     0
  0
SCALE
  5
20F
102
{ACAD_REACTORS
330
20B
102
}
330
20B
100
AcDbScale
 70
     0
300
1:5
140
1.0
141
5.0
290
     0
  0
SCALE
  5
210
102
{ACAD_REACTORS
330
20B
102
}
330
20B
100
AcDbScale
 70
     0
300
1:8
140
1.0
141
8.0
290
     0
  0
SCALE
  5
211
102
{ACAD_REACTORS
330
20B
102
}
330
20B
100
AcDbScale
 70
     0
300
1:10
140
1.0
141
10.0
290
     0
  0
SCALE
  5
212
102
{ACAD_REACTORS
330
20B
102
}
330
20B
100
AcDbScale
 70
     0
300
1:16
140
1.0
141
16.0
290
     0
  0
SCALE
  5
213
102
{ACAD_REACTORS
330
20B
102
}
330
20B
100
AcDbScale
 70
     0
300
1:20
140
1.0
141
20.0
290
     0
  0
SCALE
  5
214
102
{ACAD_REACTORS
330
20B
102
}
330
20B
100
AcDbScale
 70
     0
300
1:30
140
1.0
141
30.0
290
     0
  0
SCALE
  5
215
102
{ACAD_REACTORS
330
20B
102
}
330
20B
100
AcDbScale
 70
     0
300
1:40
140
1.0
141
40.0
290
     0
  0
SCALE
  5
216
102
{ACAD_REACTORS
330
20B
102
}
330
20B
100
AcDbScale
 70
     0
300
1:50
140
1.0
141
50.0
290
     0
  0
SCALE
  5
217
102
{ACAD_REACTORS
330
20B
102
}
330
20B
100
AcDbScale
 70
     0
300
1:100
140
1.0
141
100.0
290
     0
  0
SCALE
  5
218
102
{ACAD_REACTORS
330
20B
102
}
330
20B
100
AcDbScale
 70
     0
300
2:1
140
2.0
141
1.0
290
     0
  0
SCALE
  5
219
102
{ACAD_REACTORS
330
20B
102
}
330
20B
100
AcDbScale
 70
     0
300
4:1
140
4.0
141
1.0
290
     0
  0
SCALE
  5
21A
102
{ACAD_REACTORS
330
20B
102
}
330
20B
100
AcDbScale
 70
     0
300
8:1
140
8.0
141
1.0
290
     0
  0
SCALE
  5
21B
102
{ACAD_REACTORS
330
20B
102
}
330
20B
100
AcDbScale
 70
     0
300
10:1
140
10.0
141
1.0
290
     0
  0
SCALE
  5
21C
102
{ACAD_REACTORS
330
20B
102
}
330
20B
100
AcDbScale
 70
     0
300
100:1
140
100.0
141
1.0
290
     0
  0
SCALE
  5
21D
102
{ACAD_REACTORS
330
20B
102
}
330
20B
100
AcDbScale
 70
     0
300
1/128" = 1'-0"
140
0.0078125
141
12.0
290
     0
  0
SCALE
  5
21E
102
{ACAD_REACTORS
330
20B
102
}
330
20B
100
AcDbScale
 70
     0
300
1/64" = 1'-0"
140
0.015625
141
12.0
290
     0
  0
SCALE
  5
21F
102
{ACAD_REACTORS
330
20B
102
}
330
20B
100
AcDbScale
 70
     0
300
1/32" = 1'-0"
140
0.03125
141
12.0
290
     0
  0
SCALE
  5
220
102
{ACAD_REACTORS
330
20B
102
}
330
20B
100
AcDbScale
 70
     0
300
1/16" = 1'-0"
140
0.0625
141
12.0
290
     0
  0
SCALE
  5
221
102
{ACAD_REACTORS
330
20B
102
}
330
20B
100
AcDbScale
 70
     0
300
3/32" = 1'-0"
140
0.09375
141
12.0
290
     0
  0
SCALE
  5
222
102
{ACAD_REACTORS
330
20B
102
}
330
20B
100
AcDbScale
 70
     0
300
1/8" = 1'-0"
140
0.125
141
12.0
290
     0
  0
SCALE
  5
223
102
{ACAD_REACTORS
330
20B
102
}
330
20B
100
AcDbScale
 70
     0
300
3/16" = 1'-0"
140
0.1875
141
12.0
290
     0
  0
SCALE
  5
224
102
{ACAD_REACTORS
330
20B
102
}
330
20B
100
AcDbScale
 70
     0
300
1/4" = 1'-0"
140
0.25
141
12.0
290
     0
  0
SCALE
  5
225
102
{ACAD_REACTORS
330
20B
102
}
330
20B
100
AcDbScale
 70
     0
300
3/8" = 1'-0"
140
0.375
141
12.0
290
     0
  0
SCALE
  5
226
102
{ACAD_REACTORS
330
20B
102
}
330
20B
100
AcDbScale
 70
     0
300
1/2" = 1'-0"
140
0.5
141
12.0
290
     0
  0
SCALE
  5
227
102
{ACAD_REACTORS
330
20B
102
}
330
20B
100
AcDbScale
 70
     0
300
3/4" = 1'-0"
140
0.75
141
12.0
290
     0
  0
SCALE
  5
228
102
{ACAD_REACTORS
330
20B
102
}
330
20B
100
AcDbScale
 70
     0
300
1" = 1'-0"
140
1.0
141
12.0
290
     0
  0
SCALE
  5
229
102
{ACAD_REACTORS
330
20B
102
}
330
20B
100
AcDbScale
 70
     0
300
1-1/2" = 1'-0"
140
1.5
141
12.0
290
     0
  0
SCALE
  5
22A
102
{ACAD_REACTORS
330
20B
102
}
330
20B
100
AcDbScale
 70
     0
300
3" = 1'-0"
140
3.0
141
12.0
290
     0
  0
SCALE
  5
22B
102
{ACAD_REACTORS
330
20B
102
}
330
20B
100
AcDbScale
 70
     0
300
6" = 1'-0"
140
6.0
141
12.0
290
     0
  0
SCALE
  5
22C
102
{ACAD_REACTORS
330
20B
102
}
330
20B
100
AcDbScale
 70
     0
300
1'-0" = 1'-0"
140
12.0
141
12.0
290
     0
  0
VISUALSTYLE
  5
2F
102
{ACAD_REACTORS
330
2A
102
}
102
{ACAD_XDICTIONARY
360
23C
102
}
330
2A
100
AcDbVisualStyle
  2
2dWireframe
 70
     4
 71
     0
 72
     2
 73
     0
 90
        0
 40
-0.6
 41
-30.0
 62
     5
 63
     7
 74
     1
 91
        4
 64
     7
 65
   257
 75
     1
175
     1
 42
1.0
 92
        0
 66
   257
 43
1.0
 76
     1
 77
     6
 78
     2
 67
     7
 79
     5
170
     0
171
     0
290
     0
174
     0
 93
        1
 44
0.0
173
     0
291
     0
 45
0.0
1001
ACAD
1000
AcDbSavedByObjectVersion
1070
     0
  0
VISUALSTYLE
  5
31
102
{ACAD_REACTORS
330
2A
102
}
102
{ACAD_XDICTIONARY
360
240
102
}
330
2A
100
AcDbVisualStyle
  2
3D Hidden
 70
     6
 71
     1
 72
     2
 73
     2
 90
        0
 40
-0.6
 41
-30.0
 62
     5
 63
     7
 74
     2
 91
        2
 64
     7
 65
   257
 75
     2
175
     1
 42
40.0
 92
        0
 66
   257
 43
1.0
 76
     1
 77
     6
 78
     2
 67
     7
 79
     3
170
     0
171
     0
290
     0
174
     0
 93
        1
 44
0.0
173
     0
291
     0
 45
0.0
1001
ACAD
1000
AcDbSavedByObjectVersion
1070
     0
  0
VISUALSTYLE
  5
30
102
{ACAD_REACTORS
330
2A
102
}
102
{ACAD_XDICTIONARY
360
23E
102
}
330
2A
100
AcDbVisualStyle
  2
3dWireframe
 70
     5
 71
     0
 72
     2
 73
     0
 90
        0
 40
-0.6
 41
-30.0
 62
     5
 63
     7
 74
     1
 91
        4
 64
     7
 65
   257
 75
     1
175
     1
 42
1.0
 92
        0
 66
   257
 43
1.0
 76
     1
 77
     6
 78
     2
 67
     7
 79
     5
170
     0
171
     0
290
     0
174
     0
 93
        1
 44
0.0
173
     0
291
     0
 45
0.0
1001
ACAD
1000
AcDbSavedByObjectVersion
1070
     0
  0
VISUALSTYLE
  5
32
102
{ACAD_REACTORS
330
2A
102
}
102
{ACAD_XDICTIONARY
360
242
102
}
330
2A
100
AcDbVisualStyle
  2
Basic
 70
     7
 71
     1
 72
     0
 73
     1
 90
        0
 40
-0.6
 41
-30.0
 62
     5
 63
     7
 74
     0
 91
        4
 64
     7
 65
   257
 75
     1
175
     1
 42
1.0
 92
        8
 66
     7
 43
1.0
 76
     1
 77
     6
 78
     2
 67
     7
 79
     5
170
     0
171
     0
290
     0
174
     0
 93
        1
 44
0.0
173
     0
291
     1
 45
0.0
1001
ACAD
1000
AcDbSavedByObjectVersion
1070
     0
  0
VISUALSTYLE
  5
36
102
{ACAD_REACTORS
330
2A
102
}
102
{ACAD_XDICTIONARY
360
24A
102
}
330
2A
100
AcDbVisualStyle
  2
Brighten
 70
    12
 71
     2
 72
     2
 73
     0
 90
        0
 40
-0.6
 41
-30.0
 62
     5
 63
     7
 74
     1
 91
        4
 64
     7
 65
   257
 75
     1
175
     1
 42
1.0
 92
        8
 66
     7
 43
1.0
 76
     1
 77
     6
 78
     2
 67
     7
 79
     5
170
     0
171
     0
290
     0
174
     0
 93
        1
 44
50.0
173
     0
291
     1
 45
0.0
1001
ACAD
1000
AcDbSavedByObjectVersion
1070
     0
  0
VISUALSTYLE
  5
3A
102
{ACAD_REACTORS
330
2A
102
}
102
{ACAD_XDICTIONARY
360
252
102
}
330
2A
100
AcDbVisualStyle
  2
ColorChange
 70
    16
 71
     2
 72
     2
 73
     3
 90
        0
 40
-0.6
 41
-30.0
 62
     5
 63
     8
 74
     1
 91
        4
 64
     7
 65
   257
 75
     1
175
     1
 42
1.0
 92
        8
 66
     8
 43
1.0
 76
     1
 77
     6
 78
     2
 67
     7
 79
     5
170
     0
171
     0
290
     0
174
     0
 93
        1
 44
0.0
173
     0
291
     1
 45
0.0
1001
ACAD
1000
AcDbSavedByObjectVersion
1070
     0
  0
VISUALSTYLE
  5
34
102
{ACAD_REACTORS
330
2A
102
}
102
{ACAD_XDICTIONARY
360
246
102
}
330
2A
100
AcDbVisualStyle
  2
Conceptual
 70
     9
 71
     3
 72
     2
 73
     0
 90
        0
 40
-0.6
 41
-30.0
 62
     5
 63
     7
 74
     2
 91
        2
 64
     7
 65
   257
 75
     1
175
     1
 42
40.0
 92
        8
 66
     7
 43
1.0
 76
     1
 77
     6
 78
     2
 67
     7
 79
     3
170
     0
171
     0
290
     0
174
     0
 93
        1
 44
0.0
173
     0
291
     0
 45
0.0
1001
ACAD
1000
AcDbSavedByObjectVersion
1070
     0
  0
VISUALSTYLE
  5
35
102
{ACAD_REACTORS
330
2A
102
}
102
{ACAD_XDICTIONARY
360
248
102
}
330
2A
100
AcDbVisualStyle
  2
Dim
 70
    11
 71
     2
 72
     2
 73
     0
 90
        0
 40
-0.6
 41
-30.0
 62
     5
 63
     7
 74
     1
 91
        4
 64
     7
 65
   257
 75
     1
175
     1
 42
1.0
 92
        8
 66
     7
 43
1.0
 76
     1
 77
     6
 78
     2
 67
     7
 79
     5
170
     0
171
     0
290
     0
174
     0
 93
        1
 44
-50.0
173
     0
291
     1
 45
0.0
1001
ACAD
1000
AcDbSavedByObjectVersion
1070
     0
  0
VISUALSTYLE
  5
39
102
{ACAD_REACTORS
330
2A
102
}
102
{ACAD_XDICTIONARY
360
250
102
}
330
2A
100
AcDbVisualStyle
  2
Facepattern
 70
    15
 71
     2
 72
     2
 73
     0
 90
        0
 40
-0.6
 41
-30.0
 62
     5
 63
     7
 74
     1
 91
        4
 64
     7
 65
   257
 75
     1
175
     1
 42
1.0
 92
        8
 66
     7
 43
1.0
 76
     1
 77
     6
 78
     2
 67
     7
 79
     5
170
     0
171
     0
290
     0
174
     0
 93
        1
 44
0.0
173
     0
291
     1
 45
0.0
1001
ACAD
1000
AcDbSavedByObjectVersion
1070
     0
  0
VISUALSTYLE
  5
2B
102
{ACAD_REACTORS
330
2A
102
}
102
{ACAD_XDICTIONARY
360
234
102
}
330
2A
100
AcDbVisualStyle
  2
Flat
 70
     0
 71
     2
 72
     1
 73
     1
 90
        2
 40
-0.6
 41
30.0
 62
     5
 63
     7
 74
     0
 91
        4
 64
     7
 65
   257
 75
     1
175
     1
 42
1.0
 92
        8
 66
     7
 43
1.0
 76
     1
 77
     6
 78
     2
 67
     7
 79
     5
170
     0
171
     0
290
     0
174
     0
 93
       13
 44
0.0
173
     0
291
     1
 45
0.0
1001
ACAD
1000
AcDbSavedByObjectVersion
1070
     0
  0
VISUALSTYLE
  5
2C
102
{ACAD_REACTORS
330
2A
102
}
102
{ACAD_XDICTIONARY
360
236
102
}
330
2A
100
AcDbVisualStyle
  2
FlatWithEdges
 70
     1
 71
     2
 72
     1
 73
     1
 90
        2
 40
-0.6
 41
30.0
 62
     5
 63
     7
 74
     1
 91
        4
 64
     7
 65
   257
 75
     1
175
     1
 42
1.0
 92
        0
 66
   257
 43
1.0
 76
     1
 77
     6
 78
     2
 67
     7
 79
     5
170
     0
171
     0
290
     0
174
     0
 93
       13
 44
0.0
173
     0
291
     1
 45
0.0
1001
ACAD
1000
AcDbSavedByObjectVersion
1070
     0
  0
VISUALSTYLE
  5
2D
102
{ACAD_REACTORS
330
2A
102
}
102
{ACAD_XDICTIONARY
360
238
102
}
330
2A
100
AcDbVisualStyle
  2
Gouraud
 70
     2
 71
     2
 72
     2
 73
     1
 90
        2
 40
-0.6
 41
30.0
 62
     5
 63
     7
 74
     0
 91
        4
 64
     7
 65
   257
 75
     1
175
     1
 42
1.0
 92
        0
 66
     7
 43
1.0
 76
     1
 77
     6
 78
     2
 67
     7
 79
     5
170
     0
171
     0
290
     0
174
     0
 93
       13
 44
0.0
173
     0
291
     1
 45
0.0
1001
ACAD
1000
AcDbSavedByObjectVersion
1070
     0
  0
VISUALSTYLE
  5
2E
102
{ACAD_REACTORS
330
2A
102
}
102
{ACAD_XDICTIONARY
360
23A
102
}
330
2A
100
AcDbVisualStyle
  2
GouraudWithEdges
 70
     3
 71
     2
 72
     2
 73
     1
 90
        2
 40
-0.6
 41
30.0
 62
     5
 63
     7
 74
     1
 91
        4
 64
     7
 65
   257
 75
     1
175
     1
 42
1.0
 92
        0
 66
   257
 43
1.0
 76
     1
 77
     6
 78
     2
 67
     7
 79
     5
170
     0
171
     0
290
     0
174
     0
 93
       13
 44
0.0
173
     0
291
     1
 45
0.0
1001
ACAD
1000
AcDbSavedByObjectVersion
1070
     0
  0
VISUALSTYLE
  5
38
102
{ACAD_REACTORS
330
2A
102
}
102
{ACAD_XDICTIONARY
360
24E
102
}
330
2A
100
AcDbVisualStyle
  2
Linepattern
 70
    14
 71
     2
 72
     2
 73
     0
 90
        0
 40
-0.6
 41
-30.0
 62
     5
 63
     7
 74
     1
 91
        4
 64
     7
 65
   257
 75
     7
175
     7
 42
1.0
 92
        8
 66
     7
 43
1.0
 76
     1
 77
     6
 78
     2
 67
     7
 79
     5
170
     0
171
     0
290
     0
174
     0
 93
        1
 44
0.0
173
     0
291
     1
 45
0.0
1001
ACAD
1000
AcDbSavedByObjectVersion
1070
     0
  0
VISUALSTYLE
  5
33
102
{ACAD_REACTORS
330
2A
102
}
102
{ACAD_XDICTIONARY
360
244
102
}
330
2A
100
AcDbVisualStyle
  2
Realistic
 70
     8
 71
     2
 72
     2
 73
     0
 90
        0
 40
-0.6
 41
-30.0
 62
     5
 63
     7
 74
     1
 91
        0
 64
     7
 65
   257
 75
     1
175
     1
 42
1.0
 92
        8
 66
     8
 43
1.0
 76
     1
 77
     6
 78
     2
 67
     7
 79
     5
170
     0
171
     0
290
     0
174
     0
 93
       13
 44
0.0
173
     0
291
     0
 45
0.0
1001
ACAD
1000
AcDbSavedByObjectVersion
1070
     0
  0
VISUALSTYLE
  5
37
102
{ACAD_REACTORS
330
2A
102
}
102
{ACAD_XDICTIONARY
360
24C
102
}
330
2A
100
AcDbVisualStyle
  2
Thicken
 70
    13
 71
     2
 72
     2
 73
     0
 90
        0
 40
-0.6
 41
-30.0
 62
     5
 63
     7
 74
     1
 91
        4
 64
     7
 65
   257
 75
     1
175
     1
 42
1.0
 92
       12
 66
     7
 43
1.0
 76
     1
 77
     6
 78
     2
 67
     7
 79
     5
170
     0
171
     0
290
     0
174
     0
 93
        1
 44
0.0
173
     0
291
     1
 45
0.0
1001
ACAD
1000
AcDbSavedByObjectVersion
1070
     0
  0
DICTIONARYVAR
  5
230
102
{ACAD_REACTORS
330
22D
102
}
330
22D
100
DictionaryVariables
280
     0
  1
1:1
  0
DICTIONARYVAR
  5
231
102
{ACAD_REACTORS
330
22D
102
}
330
22D
100
DictionaryVariables
280
     0
  1
2
  0
DICTIONARYVAR
  5
232
102
{ACAD_REACTORS
330
22D
102
}
330
22D
100
DictionaryVariables
280
     0
  1
1
  0
DICTIONARY
  5
256
330
3D
100
AcDbDictionary
280
     1
281
     1
  3
ACAD_XREC_ROUNDTRIP
360
257
  0
DICTIONARY
  5
254
330
3C
100
AcDbDictionary
280
     1
281
     1
  3
ACAD_XREC_ROUNDTRIP
360
255
  0
DICTIONARY
  5
258
330
3E
100
AcDbDictionary
280
     1
281
     1
  3
ACAD_XREC_ROUNDTRIP
360
259
  0
DICTIONARY
  5
23C
330
2F
100
AcDbDictionary
280
     1
281
     1
  3
ACAD_XREC_ROUNDTRIP
360
23D
  0
DICTIONARY
  5
240
330
31
100
AcDbDictionary
280
     1
281
     1
  3
ACAD_XREC_ROUNDTRIP
360
241
  0
DICTIONARY
  5
23E
330
30
100
AcDbDictionary
280
     1
281
     1
  3
ACAD_XREC_ROUNDTRIP
360
23F
  0
DICTIONARY
  5
242
330
32
100
AcDbDictionary
280
     1
281
     1
  3
ACAD_XREC_ROUNDTRIP
360
243
  0
DICTIONARY
  5
24A
330
36
100
AcDbDictionary
280
     1
281
     1
  3
ACAD_XREC_ROUNDTRIP
360
24B
  0
DICTIONARY
  5
252
330
3A
100
AcDbDictionary
280
     1
281
     1
  3
ACAD_XREC_ROUNDTRIP
360
253
  0
DICTIONARY
  5
246
330
34
100
AcDbDictionary
280
     1
281
     1
  3
ACAD_XREC_ROUNDTRIP
360
247
  0
DICTIONARY
  5
248
330
35
100
AcDbDictionary
280
     1
281
     1
  3
ACAD_XREC_ROUNDTRIP
360
249
  0
DICTIONARY
  5
250
330
39
100
AcDbDictionary
280
     1
281
     1
  3
ACAD_XREC_ROUNDTRIP
360
251
  0
DICTIONARY
  5
234
330
2B
100
AcDbDictionary
280
     1
281
     1
  3
ACAD_XREC_ROUNDTRIP
360
235
  0
DICTIONARY
  5
236
330
2C
100
AcDbDictionary
280
     1
281
     1
  3
ACAD_XREC_ROUNDTRIP
360
237
  0
DICTIONARY
  5
238
330
2D
100
AcDbDictionary
280
     1
281
     1
  3
ACAD_XREC_ROUNDTRIP
360
239
  0
DICTIONARY
  5
23A
330
2E
100
AcDbDictionary
280
     1
281
     1
  3
ACAD_XREC_ROUNDTRIP
360
23B
  0
DICTIONARY
  5
24E
330
38
100
AcDbDictionary
280
     1
281
     1
  3
ACAD_XREC_ROUNDTRIP
360
24F
  0
DICTIONARY
  5
244
330
33
100
AcDbDictionary
280
     1
281
     1
  3
ACAD_XREC_ROUNDTRIP
360
245
  0
DICTIONARY
  5
24C
330
37
100
AcDbDictionary
280
     1
281
     1
  3
ACAD_XREC_ROUNDTRIP
360
24D
  0
XRECORD
  5
257
102
{ACAD_REACTORS
330
256
102
}
330
256
100
AcDbXrecord
280
     1
102
MATERIAL
148
0.0
149
0.0
149
0.0
 93
        0
 94
      127
282
     0
 72
     1
 77
     1
171
     1
175
     1
179
     1
273
     0
  0
XRECORD
  5
255
102
{ACAD_REACTORS
330
254
102
}
330
254
100
AcDbXrecord
280
     1
102
MATERIAL
148
0.0
149
0.0
149
0.0
 93
        0
 94
      127
282
     0
 72
     1
 77
     1
171
     1
175
     1
179
     1
273
     0
  0
XRECORD
  5
259
102
{ACAD_REACTORS
330
258
102
}
330
258
100
AcDbXrecord
280
     1
102
MATERIAL
148
0.0
149
0.0
149
0.0
 93
        0
 94
      127
282
     0
 72
     1
 77
     1
171
     1
175
     1
179
     1
273
     0
  0
XRECORD
  5
23D
102
{ACAD_REACTORS
330
23C
102
}
330
23C
100
AcDbXrecord
280
     1
102
RTVSPropertyOp0
 70
     1
102
RTVSPropertyOp1
 70
     1
102
RTVSPropertyOp2
 70
     1
102
RTVSPropertyOp3
 70
     1
102
RTVSPropertyOp4
 70
     1
102
RTVSPropertyOp5
 70
     1
102
RTVSPropertyOp6
 70
     1
102
RTVSPropertyOp7
 70
     1
102
RTVSPropertyOp8
 70
     1
102
RTVSPropertyOp9
 70
     1
102
RTVSPropertyOp10
 70
     1
102
RTVSPropertyOp11
 70
     1
102
RTVSPropertyOp12
 70
     1
102
RTVSPropertyOp13
 70
     1
102
RTVSPropertyOp14
 70
     1
102
RTVSPropertyOp15
 70
     1
102
RTVSPropertyOp16
 70
     1
102
RTVSPropertyOp17
 70
     1
102
RTVSPropertyOp18
 70
     1
102
RTVSPropertyOp19
 70
     1
102
RTVSPropertyOp20
 70
     1
102
RTVSPropertyOp21
 70
     1
102
RTVSPropertyOp22
 70
     1
102
RTVSPropertyOp23
 70
     1
102
RTVSPropertyOp24
 70
     1
102
RTVSPropertyOp25
 70
     1
102
RTVSPropertyOp26
 70
     1
102
RTVSPropertyOp27
 70
     1
  0
XRECORD
  5
241
102
{ACAD_REACTORS
330
240
102
}
330
240
100
AcDbXrecord
280
     1
102
RTVSPropertyOp0
 70
     1
102
RTVSPropertyOp1
 70
     1
102
RTVSPropertyOp2
 70
     1
102
RTVSPropertyOp3
 70
     1
102
RTVSPropertyOp4
 70
     1
102
RTVSPropertyOp5
 70
     1
102
RTVSPropertyOp6
 70
     1
102
RTVSPropertyOp7
 70
     1
102
RTVSPropertyOp8
 70
     1
102
RTVSPropertyOp9
 70
     1
102
RTVSPropertyOp10
 70
     1
102
RTVSPropertyOp11
 70
     1
102
RTVSPropertyOp12
 70
     1
102
RTVSPropertyOp13
 70
     1
102
RTVSPropertyOp14
 70
     1
102
RTVSPropertyOp15
 70
     1
102
RTVSPropertyOp16
 70
     1
102
RTVSPropertyOp17
 70
     1
102
RTVSPropertyOp18
 70
     1
102
RTVSPropertyOp19
 70
     1
102
RTVSPropertyOp20
 70
     1
102
RTVSPropertyOp21
 70
     1
102
RTVSPropertyOp22
 70
     1
102
RTVSPropertyOp23
 70
     1
102
RTVSPropertyOp24
 70
     1
102
RTVSPropertyOp25
 70
     1
102
RTVSPropertyOp26
 70
     1
102
RTVSPropertyOp27
 70
     1
  0
XRECORD
  5
23F
102
{ACAD_REACTORS
330
23E
102
}
330
23E
100
AcDbXrecord
280
     1
102
RTVSPropertyOp0
 70
     1
102
RTVSPropertyOp1
 70
     1
102
RTVSPropertyOp2
 70
     1
102
RTVSPropertyOp3
 70
     1
102
RTVSPropertyOp4
 70
     1
102
RTVSPropertyOp5
 70
     1
102
RTVSPropertyOp6
 70
     1
102
RTVSPropertyOp7
 70
     1
102
RTVSPropertyOp8
 70
     1
102
RTVSPropertyOp9
 70
     1
102
RTVSPropertyOp10
 70
     1
102
RTVSPropertyOp11
 70
     1
102
RTVSPropertyOp12
 70
     1
102
RTVSPropertyOp13
 70
     1
102
RTVSPropertyOp14
 70
     1
102
RTVSPropertyOp15
 70
     1
102
RTVSPropertyOp16
 70
     1
102
RTVSPropertyOp17
 70
     1
102
RTVSPropertyOp18
 70
     1
102
RTVSPropertyOp19
 70
     1
102
RTVSPropertyOp20
 70
     1
102
RTVSPropertyOp21
 70
     1
102
RTVSPropertyOp22
 70
     1
102
RTVSPropertyOp23
 70
     1
102
RTVSPropertyOp24
 70
     1
102
RTVSPropertyOp25
 70
     1
102
RTVSPropertyOp26
 70
     1
102
RTVSPropertyOp27
 70
     1
  0
XRECORD
  5
243
102
{ACAD_REACTORS
330
242
102
}
330
242
100
AcDbXrecord
280
     1
102
RTVSPropertyOp0
 70
     1
102
RTVSPropertyOp1
 70
     1
102
RTVSPropertyOp2
 70
     1
102
RTVSPropertyOp3
 70
     1
102
RTVSPropertyOp4
 70
     1
102
RTVSPropertyOp5
 70
     1
102
RTVSPropertyOp6
 70
     1
102
RTVSPropertyOp7
 70
     1
102
RTVSPropertyOp8
 70
     1
102
RTVSPropertyOp9
 70
     1
102
RTVSPropertyOp10
 70
     1
102
RTVSPropertyOp11
 70
     1
102
RTVSPropertyOp12
 70
     1
102
RTVSPropertyOp13
 70
     1
102
RTVSPropertyOp14
 70
     1
102
RTVSPropertyOp15
 70
     1
102
RTVSPropertyOp16
 70
     1
102
RTVSPropertyOp17
 70
     1
102
RTVSPropertyOp18
 70
     1
102
RTVSPropertyOp19
 70
     1
102
RTVSPropertyOp20
 70
     1
102
RTVSPropertyOp21
 70
     1
102
RTVSPropertyOp22
 70
     1
102
RTVSPropertyOp23
 70
     1
102
RTVSPropertyOp24
 70
     1
102
RTVSPropertyOp25
 70
     1
102
RTVSPropertyOp26
 70
     1
102
RTVSPropertyOp27
 70
     1
  0
XRECORD
  5
24B
102
{ACAD_REACTORS
330
24A
102
}
330
24A
100
AcDbXrecord
280
     1
102
RTVSPropertyOp0
 70
     1
102
RTVSPropertyOp1
 70
     1
102
RTVSPropertyOp2
 70
     1
102
RTVSPropertyOp3
 70
     1
102
RTVSPropertyOp4
 70
     1
102
RTVSPropertyOp5
 70
     1
102
RTVSPropertyOp6
 70
     1
102
RTVSPropertyOp7
 70
     1
102
RTVSPropertyOp8
 70
     1
102
RTVSPropertyOp9
 70
     1
102
RTVSPropertyOp10
 70
     1
102
RTVSPropertyOp11
 70
     1
102
RTVSPropertyOp12
 70
     1
102
RTVSPropertyOp13
 70
     1
102
RTVSPropertyOp14
 70
     1
102
RTVSPropertyOp15
 70
     1
102
RTVSPropertyOp16
 70
     1
102
RTVSPropertyOp17
 70
     1
102
RTVSPropertyOp18
 70
     1
102
RTVSPropertyOp19
 70
     1
102
RTVSPropertyOp20
 70
     1
102
RTVSPropertyOp21
 70
     1
102
RTVSPropertyOp22
 70
     1
102
RTVSPropertyOp23
 70
     1
102
RTVSPropertyOp24
 70
     1
102
RTVSPropertyOp25
 70
     1
102
RTVSPropertyOp26
 70
     1
102
RTVSPropertyOp27
 70
     1
  0
XRECORD
  5
253
102
{ACAD_REACTORS
330
252
102
}
330
252
100
AcDbXrecord
280
     1
102
RTVSPropertyOp0
 70
     1
102
RTVSPropertyOp1
 70
     1
102
RTVSPropertyOp2
 70
     1
102
RTVSPropertyOp3
 70
     1
102
RTVSPropertyOp4
 70
     1
102
RTVSPropertyOp5
 70
     1
102
RTVSPropertyOp6
 70
     1
102
RTVSPropertyOp7
 70
     1
102
RTVSPropertyOp8
 70
     1
102
RTVSPropertyOp9
 70
     1
102
RTVSPropertyOp10
 70
     1
102
RTVSPropertyOp11
 70
     1
102
RTVSPropertyOp12
 70
     1
102
RTVSPropertyOp13
 70
     1
102
RTVSPropertyOp14
 70
     1
102
RTVSPropertyOp15
 70
     1
102
RTVSPropertyOp16
 70
     1
102
RTVSPropertyOp17
 70
     1
102
RTVSPropertyOp18
 70
     1
102
RTVSPropertyOp19
 70
     1
102
RTVSPropertyOp20
 70
     1
102
RTVSPropertyOp21
 70
     1
102
RTVSPropertyOp22
 70
     1
102
RTVSPropertyOp23
 70
     1
102
RTVSPropertyOp24
 70
     1
102
RTVSPropertyOp25
 70
     1
102
RTVSPropertyOp26
 70
     1
102
RTVSPropertyOp27
 70
     1
  0
XRECORD
  5
247
102
{ACAD_REACTORS
330
246
102
}
330
246
100
AcDbXrecord
280
     1
102
RTVSPropertyOp0
 70
     1
102
RTVSPropertyOp1
 70
     1
102
RTVSPropertyOp2
 70
     1
102
RTVSPropertyOp3
 70
     1
102
RTVSPropertyOp4
 70
     1
102
RTVSPropertyOp5
 70
     1
102
RTVSPropertyOp6
 70
     1
102
RTVSPropertyOp7
 70
     1
102
RTVSPropertyOp8
 70
     1
102
RTVSPropertyOp9
 70
     1
102
RTVSPropertyOp10
 70
     1
102
RTVSPropertyOp11
 70
     1
102
RTVSPropertyOp12
 70
     1
102
RTVSPropertyOp13
 70
     1
102
RTVSPropertyOp14
 70
     1
102
RTVSPropertyOp15
 70
     1
102
RTVSPropertyOp16
 70
     1
102
RTVSPropertyOp17
 70
     1
102
RTVSPropertyOp18
 70
     1
102
RTVSPropertyOp19
 70
     1
102
RTVSPropertyOp20
 70
     1
102
RTVSPropertyOp21
 70
     1
102
RTVSPropertyOp22
 70
     1
102
RTVSPropertyOp23
 70
     1
102
RTVSPropertyOp24
 70
     1
102
RTVSPropertyOp25
 70
     1
102
RTVSPropertyOp26
 70
     1
102
RTVSPropertyOp27
 70
     1
  0
XRECORD
  5
249
102
{ACAD_REACTORS
330
248
102
}
330
248
100
AcDbXrecord
280
     1
102
RTVSPropertyOp0
 70
     1
102
RTVSPropertyOp1
 70
     1
102
RTVSPropertyOp2
 70
     1
102
RTVSPropertyOp3
 70
     1
102
RTVSPropertyOp4
 70
     1
102
RTVSPropertyOp5
 70
     1
102
RTVSPropertyOp6
 70
     1
102
RTVSPropertyOp7
 70
     1
102
RTVSPropertyOp8
 70
     1
102
RTVSPropertyOp9
 70
     1
102
RTVSPropertyOp10
 70
     1
102
RTVSPropertyOp11
 70
     1
102
RTVSPropertyOp12
 70
     1
102
RTVSPropertyOp13
 70
     1
102
RTVSPropertyOp14
 70
     1
102
RTVSPropertyOp15
 70
     1
102
RTVSPropertyOp16
 70
     1
102
RTVSPropertyOp17
 70
     1
102
RTVSPropertyOp18
 70
     1
102
RTVSPropertyOp19
 70
     1
102
RTVSPropertyOp20
 70
     1
102
RTVSPropertyOp21
 70
     1
102
RTVSPropertyOp22
 70
     1
102
RTVSPropertyOp23
 70
     1
102
RTVSPropertyOp24
 70
     1
102
RTVSPropertyOp25
 70
     1
102
RTVSPropertyOp26
 70
     1
102
RTVSPropertyOp27
 70
     1
  0
XRECORD
  5
251
102
{ACAD_REACTORS
330
250
102
}
330
250
100
AcDbXrecord
280
     1
102
RTVSPropertyOp0
 70
     1
102
RTVSPropertyOp1
 70
     1
102
RTVSPropertyOp2
 70
     1
102
RTVSPropertyOp3
 70
     1
102
RTVSPropertyOp4
 70
     1
102
RTVSPropertyOp5
 70
     1
102
RTVSPropertyOp6
 70
     1
102
RTVSPropertyOp7
 70
     1
102
RTVSPropertyOp8
 70
     1
102
RTVSPropertyOp9
 70
     1
102
RTVSPropertyOp10
 70
     1
102
RTVSPropertyOp11
 70
     1
102
RTVSPropertyOp12
 70
     1
102
RTVSPropertyOp13
 70
     1
102
RTVSPropertyOp14
 70
     1
102
RTVSPropertyOp15
 70
     1
102
RTVSPropertyOp16
 70
     1
102
RTVSPropertyOp17
 70
     1
102
RTVSPropertyOp18
 70
     1
102
RTVSPropertyOp19
 70
     1
102
RTVSPropertyOp20
 70
     1
102
RTVSPropertyOp21
 70
     1
102
RTVSPropertyOp22
 70
     1
102
RTVSPropertyOp23
 70
     1
102
RTVSPropertyOp24
 70
     1
102
RTVSPropertyOp25
 70
     1
102
RTVSPropertyOp26
 70
     1
102
RTVSPropertyOp27
 70
     1
  0
XRECORD
  5
235
102
{ACAD_REACTORS
330
234
102
}
330
234
100
AcDbXrecord
280
     1
102
RTVSPropertyOp0
 70
     1
102
RTVSPropertyOp1
 70
     1
102
RTVSPropertyOp2
 70
     1
102
RTVSPropertyOp3
 70
     1
102
RTVSPropertyOp4
 70
     1
102
RTVSPropertyOp5
 70
     1
102
RTVSPropertyOp6
 70
     1
102
RTVSPropertyOp7
 70
     1
102
RTVSPropertyOp8
 70
     1
102
RTVSPropertyOp9
 70
     1
102
RTVSPropertyOp10
 70
     1
102
RTVSPropertyOp11
 70
     1
102
RTVSPropertyOp12
 70
     1
102
RTVSPropertyOp13
 70
     1
102
RTVSPropertyOp14
 70
     1
102
RTVSPropertyOp15
 70
     1
102
RTVSPropertyOp16
 70
     1
102
RTVSPropertyOp17
 70
     1
102
RTVSPropertyOp18
 70
     1
102
RTVSPropertyOp19
 70
     1
102
RTVSPropertyOp20
 70
     1
102
RTVSPropertyOp21
 70
     1
102
RTVSPropertyOp22
 70
     1
102
RTVSPropertyOp23
 70
     1
102
RTVSPropertyOp24
 70
     1
102
RTVSPropertyOp25
 70
     1
102
RTVSPropertyOp26
 70
     1
102
RTVSPropertyOp27
 70
     1
  0
XRECORD
  5
237
102
{ACAD_REACTORS
330
236
102
}
330
236
100
AcDbXrecord
280
     1
102
RTVSPropertyOp0
 70
     1
102
RTVSPropertyOp1
 70
     1
102
RTVSPropertyOp2
 70
     1
102
RTVSPropertyOp3
 70
     1
102
RTVSPropertyOp4
 70
     1
102
RTVSPropertyOp5
 70
     1
102
RTVSPropertyOp6
 70
     1
102
RTVSPropertyOp7
 70
     1
102
RTVSPropertyOp8
 70
     1
102
RTVSPropertyOp9
 70
     1
102
RTVSPropertyOp10
 70
     1
102
RTVSPropertyOp11
 70
     1
102
RTVSPropertyOp12
 70
     1
102
RTVSPropertyOp13
 70
     1
102
RTVSPropertyOp14
 70
     1
102
RTVSPropertyOp15
 70
     1
102
RTVSPropertyOp16
 70
     1
102
RTVSPropertyOp17
 70
     1
102
RTVSPropertyOp18
 70
     1
102
RTVSPropertyOp19
 70
     1
102
RTVSPropertyOp20
 70
     1
102
RTVSPropertyOp21
 70
     1
102
RTVSPropertyOp22
 70
     1
102
RTVSPropertyOp23
 70
     1
102
RTVSPropertyOp24
 70
     1
102
RTVSPropertyOp25
 70
     1
102
RTVSPropertyOp26
 70
     1
102
RTVSPropertyOp27
 70
     1
  0
XRECORD
  5
239
102
{ACAD_REACTORS
330
238
102
}
330
238
100
AcDbXrecord
280
     1
102
RTVSPropertyOp0
 70
     1
102
RTVSPropertyOp1
 70
     1
102
RTVSPropertyOp2
 70
     1
102
RTVSPropertyOp3
 70
     1
102
RTVSPropertyOp4
 70
     1
102
RTVSPropertyOp5
 70
     1
102
RTVSPropertyOp6
 70
     1
102
RTVSPropertyOp7
 70
     1
102
RTVSPropertyOp8
 70
     1
102
RTVSPropertyOp9
 70
     1
102
RTVSPropertyOp10
 70
     1
102
RTVSPropertyOp11
 70
     1
102
RTVSPropertyOp12
 70
     1
102
RTVSPropertyOp13
 70
     1
102
RTVSPropertyOp14
 70
     1
102
RTVSPropertyOp15
 70
     1
102
RTVSPropertyOp16
 70
     1
102
RTVSPropertyOp17
 70
     1
102
RTVSPropertyOp18
 70
     1
102
RTVSPropertyOp19
 70
     1
102
RTVSPropertyOp20
 70
     1
102
RTVSPropertyOp21
 70
     1
102
RTVSPropertyOp22
 70
     1
102
RTVSPropertyOp23
 70
     1
102
RTVSPropertyOp24
 70
     1
102
RTVSPropertyOp25
 70
     1
102
RTVSPropertyOp26
 70
     1
102
RTVSPropertyOp27
 70
     1
  0
XRECORD
  5
23B
102
{ACAD_REACTORS
330
23A
102
}
330
23A
100
AcDbXrecord
280
     1
102
RTVSPropertyOp0
 70
     1
102
RTVSPropertyOp1
 70
     1
102
RTVSPropertyOp2
 70
     1
102
RTVSPropertyOp3
 70
     1
102
RTVSPropertyOp4
 70
     1
102
RTVSPropertyOp5
 70
     1
102
RTVSPropertyOp6
 70
     1
102
RTVSPropertyOp7
 70
     1
102
RTVSPropertyOp8
 70
     1
102
RTVSPropertyOp9
 70
     1
102
RTVSPropertyOp10
 70
     1
102
RTVSPropertyOp11
 70
     1
102
RTVSPropertyOp12
 70
     1
102
RTVSPropertyOp13
 70
     1
102
RTVSPropertyOp14
 70
     1
102
RTVSPropertyOp15
 70
     1
102
RTVSPropertyOp16
 70
     1
102
RTVSPropertyOp17
 70
     1
102
RTVSPropertyOp18
 70
     1
102
RTVSPropertyOp19
 70
     1
102
RTVSPropertyOp20
 70
     1
102
RTVSPropertyOp21
 70
     1
102
RTVSPropertyOp22
 70
     1
102
RTVSPropertyOp23
 70
     1
102
RTVSPropertyOp24
 70
     1
102
RTVSPropertyOp25
 70
     1
102
RTVSPropertyOp26
 70
     1
102
RTVSPropertyOp27
 70
     1
  0
XRECORD
  5
24F
102
{ACAD_REACTORS
330
24E
102
}
330
24E
100
AcDbXrecord
280
     1
102
RTVSPropertyOp0
 70
     1
102
RTVSPropertyOp1
 70
     1
102
RTVSPropertyOp2
 70
     1
102
RTVSPropertyOp3
 70
     1
102
RTVSPropertyOp4
 70
     1
102
RTVSPropertyOp5
 70
     1
102
RTVSPropertyOp6
 70
     1
102
RTVSPropertyOp7
 70
     1
102
RTVSPropertyOp8
 70
     1
102
RTVSPropertyOp9
 70
     1
102
RTVSPropertyOp10
 70
     1
102
RTVSPropertyOp11
 70
     1
102
RTVSPropertyOp12
 70
     1
102
RTVSPropertyOp13
 70
     1
102
RTVSPropertyOp14
 70
     1
102
RTVSPropertyOp15
 70
     1
102
RTVSPropertyOp16
 70
     1
102
RTVSPropertyOp17
 70
     1
102
RTVSPropertyOp18
 70
     1
102
RTVSPropertyOp19
 70
     1
102
RTVSPropertyOp20
 70
     1
102
RTVSPropertyOp21
 70
     1
102
RTVSPropertyOp22
 70
     1
102
RTVSPropertyOp23
 70
     1
102
RTVSPropertyOp24
 70
     1
102
RTVSPropertyOp25
 70
     1
102
RTVSPropertyOp26
 70
     1
102
RTVSPropertyOp27
 70
     1
  0
XRECORD
  5
245
102
{ACAD_REACTORS
330
244
102
}
330
244
100
AcDbXrecord
280
     1
102
RTVSPropertyOp0
 70
     1
102
RTVSPropertyOp1
 70
     1
102
RTVSPropertyOp2
 70
     1
102
RTVSPropertyOp3
 70
     1
102
RTVSPropertyOp4
 70
     1
102
RTVSPropertyOp5
 70
     1
102
RTVSPropertyOp6
 70
     1
102
RTVSPropertyOp7
 70
     1
102
RTVSPropertyOp8
 70
     1
102
RTVSPropertyOp9
 70
     1
102
RTVSPropertyOp10
 70
     1
102
RTVSPropertyOp11
 70
     1
102
RTVSPropertyOp12
 70
     1
102
RTVSPropertyOp13
 70
     1
102
RTVSPropertyOp14
 70
     1
102
RTVSPropertyOp15
 70
     1
102
RTVSPropertyOp16
 70
     1
102
RTVSPropertyOp17
 70
     1
102
RTVSPropertyOp18
 70
     1
102
RTVSPropertyOp19
 70
     1
102
RTVSPropertyOp20
 70
     1
102
RTVSPropertyOp21
 70
     1
102
RTVSPropertyOp22
 70
     1
102
RTVSPropertyOp23
 70
     1
102
RTVSPropertyOp24
 70
     1
102
RTVSPropertyOp25
 70
     1
102
RTVSPropertyOp26
 70
     1
102
RTVSPropertyOp27
 70
     1
  0
XRECORD
  5
24D
102
{ACAD_REACTORS
330
24C
102
}
330
24C
100
AcDbXrecord
280
     1
102
RTVSPropertyOp0
 70
     1
102
RTVSPropertyOp1
 70
     1
102
RTVSPropertyOp2
 70
     1
102
RTVSPropertyOp3
 70
     1
102
RTVSPropertyOp4
 70
     1
102
RTVSPropertyOp5
 70
     1
102
RTVSPropertyOp6
 70
     1
102
RTVSPropertyOp7
 70
     1
102
RTVSPropertyOp8
 70
     1
102
RTVSPropertyOp9
 70
     1
102
RTVSPropertyOp10
 70
     1
102
RTVSPropertyOp11
 70
     1
102
RTVSPropertyOp12
 70
     1
102
RTVSPropertyOp13
 70
     1
102
RTVSPropertyOp14
 70
     1
102
RTVSPropertyOp15
 70
     1
102
RTVSPropertyOp16
 70
     1
102
RTVSPropertyOp17
 70
     1
102
RTVSPropertyOp18
 70
     1
102
RTVSPropertyOp19
 70
     1
102
RTVSPropertyOp20
 70
     1
102
RTVSPropertyOp21
 70
     1
102
RTVSPropertyOp22
 70
     1
102
RTVSPropertyOp23
 70
     1
102
RTVSPropertyOp24
 70
     1
102
RTVSPropertyOp25
 70
     1
102
RTVSPropertyOp26
 70
     1
102
RTVSPropertyOp27
 70
     1
  0
ENDSEC
  0
EOF
