  0
SECTION
  2
HEADER
  9
$ACADVER
  1
AC1015
  9
$ACADMAINTVER
 70
     6
  9
$DWGCODEPAGE
  3
ANSI_932
  9
$INSBASE
 10
0.0
 20
0.0
 30
0.0
  9
$EXTMIN
 10
-539.5356241254564
 20
-405.8374999999999
 30
0.0
  9
$EXTMAX
 10
503.0712482509127
 20
413.8374999999999
 30
0.0
  9
$LIMMIN
 10
-210.0
 20
-148.5
  9
$LIMMAX
 10
210.0
 20
148.5
  9
$ORTHOMODE
 70
     0
  9
$REGENMODE
 70
     1
  9
$FILLMODE
 70
     1
  9
$QTEXTMODE
 70
     0
  9
$MIRRTEXT
 70
     1
  9
$LTSCALE
 40
0.25
  9
$ATTMODE
 70
     1
  9
$TEXTSIZE
 40
0.2
  9
$TRACEWID
 40
0.05
  9
$TEXTSTYLE
  7
Standard
  9
$CLAYER
  8
0
  9
$CELTYPE
  6
ByLayer
  9
$CECOLOR
 62
   256
  9
$CELTSCALE
 40
1.0
  9
$DISPSILH
 70
     0
  9
$DIMSCALE
 40
1.0
  9
$DIMASZ
 40
3.000001882570243
  9
$DIMEXO
 40
1.0
  9
$DIMDLI
 40
10.0
  9
$DIMRND
 40
0.0
  9
$DIMDLE
 40
0.0
  9
$DIMEXE
 40
1.0
  9
$DIMTP
 40
0.0
  9
$DIMTM
 40
0.0
  9
$DIMTXT
 40
3.0
  9
$DIMCEN
 40
0.0
  9
$DIMTSZ
 40
0.0
  9
$DIMTOL
 70
     0
  9
$DIMLIM
 70
     0
  9
$DIMTIH
 70
     0
  9
$DIMTOH
 70
     0
  9
$DIMSE1
 70
     0
  9
$DIMSE2
 70
     0
  9
$DIMTAD
 70
     1
  9
$DIMZIN
 70
     8
  9
$DIMBLK
  1

  9
$DIMASO
 70
     1
  9
$DIMSHO
 70
     1
  9
$DIMPOST
  1

  9
$DIMAPOST
  1

  9
$DIMALT
 70
     0
  9
$DIMALTD
 70
     2
  9
$DIMALTF
 40
25.4
  9
$DIMLFAC
 40
1.0
  9
$DIMTOFL
 70
     0
  9
$DIMTVP
 40
0.0
  9
$DIMTIX
 70
     0
  9
$DIMSOXD
 70
     0
  9
$DIMSAH
 70
     0
  9
$DIMBLK1
  1

  9
$DIMBLK2
  1

  9
$DIMSTYLE
  2
Standard
  9
$DIMCLRD
 70
     0
  9
$DIMCLRE
 70
     0
  9
$DIMCLRT
 70
     0
  9
$DIMTFAC
 40
0.65
  9
$DIMGAP
 40
0.09
  9
$DIMJUST
 70
     0
  9
$DIMSD1
 70
     0
  9
$DIMSD2
 70
     0
  9
$DIMTOLJ
 70
     0
  9
$DIMTZIN
 70
     0
  9
$DIMALTZ
 70
     0
  9
$DIMALTTZ
 70
     0
  9
$DIMUPT
 70
     0
  9
$DIMDEC
 70
     2
  9
$DIMTDEC
 70
     2
  9
$DIMALTU
 70
     2
  9
$DIMALTTD
 70
     2
  9
$DIMTXSTY
  7
Standard
  9
$DIMAUNIT
 70
     0
  9
$DIMADEC
 70
     2
  9
$DIMALTRND
 40
0.0
  9
$DIMAZIN
 70
     2
  9
$DIMDSEP
 70
    46
  9
$DIMATFIT
 70
     3
  9
$DIMFRAC
 70
     0
  9
$DIMLDRBLK
  1

  9
$DIMLUNIT
 70
     2
  9
$DIMLWD
 70
    -2
  9
$DIMLWE
 70
    -2
  9
$DIMTMOVE
 70
     0
  9
$LUNITS
 70
     2
  9
$LUPREC
 70
     4
  9
$SKETCHINC
 40
0.1
  9
$FILLETRAD
 40
0.5
  9
$AUNITS
 70
     0
  9
$AUPREC
 70
     0
  9
$MENU
  1
.
  9
$ELEVATION
 40
0.0
  9
$PELEVATION
 40
0.0
  9
$THICKNESS
 40
0.0
  9
$LIMCHECK
 70
     0
  9
$CHAMFERA
 40
0.5
  9
$CHAMFERB
 40
0.5
  9
$CHAMFERC
 40
1.0
  9
$CHAMFERD
 40
0.0
  9
$SKPOLY
 70
     0
  9
$TDCREATE
 40
2455551.612183333
  9
$TDUCREATE
 40
2455551.237183333
  9
$TDUPDATE
 40
2455551.612183345
  9
$TDUUPDATE
 40
2455551.237183345
  9
$TDINDWG
 40
0.0000000116
  9
$TDUSRTIMER
 40
0.0000000116
  9
$USRTIMER
 70
     1
  9
$ANGBASE
 50
0.0
  9
$ANGDIR
 70
     0
  9
$PDMODE
 70
     0
  9
$PDSIZE
 40
1.0
  9
$PLINEWID
 40
0.0
  9
$SPLFRAME
 70
     0
  9
$SPLINETYPE
 70
     6
  9
$SPLINESEGS
 70
     8
  9
$HANDSEED
  5
259
  9
$SURFTAB1
 70
     6
  9
$SURFTAB2
 70
     6
  9
$SURFTYPE
 70
     6
  9
$SURFU
 70
     6
  9
$SURFV
 70
     6
  9
$UCSBASE
  2

  9
$UCSNAME
  2

  9
$UCSORG
 10
0.0
 20
0.0
 30
0.0
  9
$UCSXDIR
 10
1.0
 20
0.0
 30
0.0
  9
$UCSYDIR
 10
0.0
 20
1.0
 30
0.0
  9
$UCSORTHOREF
  2

  9
$UCSORTHOVIEW
 70
     0
  9
$UCSORGTOP
 10
0.0
 20
0.0
 30
0.0
  9
$UCSORGBOTTOM
 10
0.0
 20
0.0
 30
0.0
  9
$UCSORGLEFT
 10
0.0
 20
0.0
 30
0.0
  9
$UCSORGRIGHT
 10
0.0
 20
0.0
 30
0.0
  9
$UCSORGFRONT
 10
0.0
 20
0.0
 30
0.0
  9
$UCSORGBACK
 10
0.0
 20
0.0
 30
0.0
  9
$PUCSBASE
  2

  9
$PUCSNAME
  2

  9
$PUCSORG
 10
0.0
 20
0.0
 30
0.0
  9
$PUCSXDIR
 10
1.0
 20
0.0
 30
0.0
  9
$PUCSYDIR
 10
0.0
 20
1.0
 30
0.0
  9
$PUCSORTHOREF
  2

  9
$PUCSORTHOVIEW
 70
     0
  9
$PUCSORGTOP
 10
0.0
 20
0.0
 30
0.0
  9
$PUCSORGBOTTOM
 10
0.0
 20
0.0
 30
0.0
  9
$PUCSORGLEFT
 10
0.0
 20
0.0
 30
0.0
  9
$PUCSORGRIGHT
 10
0.0
 20
0.0
 30
0.0
  9
$PUCSORGFRONT
 10
0.0
 20
0.0
 30
0.0
  9
$PUCSORGBACK
 10
0.0
 20
0.0
 30
0.0
  9
$USERI1
 70
     0
  9
$USERI2
 70
     0
  9
$USERI3
 70
     0
  9
$USERI4
 70
     0
  9
$USERI5
 70
     0
  9
$USERR1
 40
0.0
  9
$USERR2
 40
0.0
  9
$USERR3
 40
0.0
  9
$USERR4
 40
0.0
  9
$USERR5
 40
0.0
  9
$WORLDVIEW
 70
     1
  9
$SHADEDGE
 70
     3
  9
$SHADEDIF
 70
    70
  9
$TILEMODE
 70
     1
  9
$MAXACTVP
 70
    64
  9
$PINSBASE
 10
0.0
 20
0.0
 30
0.0
  9
$PLIMCHECK
 70
     0
  9
$PEXTMIN
 10
1.000000000000000E+20
 20
1.000000000000000E+20
 30
1.000000000000000E+20
  9
$PEXTMAX
 10
-1.000000000000000E+20
 20
-1.000000000000000E+20
 30
-1.000000000000000E+20
  9
$PLIMMIN
 10
0.0
 20
0.0
  9
$PLIMMAX
 10
12.0
 20
9.0
  9
$UNITMODE
 70
     0
  9
$VISRETAIN
 70
     0
  9
$PLINEGEN
 70
     1
  9
$PSLTSCALE
 70
     0
  9
$TREEDEPTH
 70
  3020
  9
$CMLSTYLE
  2
Standard
  9
$CMLJUST
 70
     0
  9
$CMLSCALE
 40
1.0
  9
$PROXYGRAPHICS
 70
     0
  9
$MEASUREMENT
 70
     1
  9
$CELWEIGHT
370
    -1
  9
$ENDCAPS
280
     0
  9
$JOINSTYLE
280
     0
  9
$LWDISPLAY
290
     1
  9
$INSUNITS
 70
     4
  9
$HYPERLINKBASE
  1

  9
$STYLESHEET
  1

  9
$XEDIT
290
     1
  9
$CEPSNTYPE
380
     0
  9
$PSTYLEMODE
290
     1
  9
$FINGERPRINTGUID
  2
{4FCC15EA-E90B-4840-8968-AA815BA86A1C}
  9
$VERSIONGUID
  2
{FAEB1C32-E019-11D5-929B-00C0DF256EC4}
  9
$EXTNAMES
290
     1
  9
$PSVPSCALE
 40
0.0
  9
$OLESTARTUP
290
     0
  0
ENDSEC
  0
SECTION
  2
CLASSES
  0
CLASS
  1
ACDBDICTIONARYWDFLT
  2
AcDbDictionaryWithDefault
  3
ObjectDBX Classes
 90
        0
280
     0
281
     0
  0
CLASS
  1
VISUALSTYLE
  2
AcDbVisualStyle
  3
ObjectDBX Classes
 90
     4095
280
     0
281
     0
  0
CLASS
  1
MATERIAL
  2
AcDbMaterial
  3
ObjectDBX Classes
 90
     1153
280
     0
281
     0
  0
CLASS
  1
SCALE
  2
AcDbScale
  3
ObjectDBX Classes
 90
     1153
280
     0
281
     0
  0
CLASS
  1
DICTIONARYVAR
  2
AcDbDictionaryVar
  3
ObjectDBX Classes
 90
        0
280
     0
281
     0
  0
CLASS
  1
ACDBPLACEHOLDER
  2
AcDbPlaceHolder
  3
ObjectDBX Classes
 90
        0
280
     0
281
     0
  0
CLASS
  1
LAYOUT
  2
AcDbLayout
  3
ObjectDBX Classes
 90
        0
280
     0
281
     0
  0
ENDSEC
  0
SECTION
  2
TABLES
  0
TABLE
  2
VPORT
  5
8
330
0
100
AcDbSymbolTable
 70
     1
  0
VPORT
  5
29
330
8
100
AcDbSymbolTableRecord
100
AcDbViewportTableRecord
  2
*Active
 70
     0
 10
0.0
 20
0.0
 11
1.0
 21
1.0
 12
-18.23218793727182
 22
-0.2374999999999545
 13
0.0
 23
0.0
 14
0.5
 24
0.5
 15
0.5
 25
0.5
 16
0.0
 26
0.0
 36
1.0
 17
0.0
 27
0.0
 37
0.0
 40
286.365
 41
1.237882899823531
 42
50.0
 43
0.0
 44
0.0
 50
0.0
 51
0.0
 71
     0
 72
  1000
 73
     1
 74
     1
 75
     0
 76
     0
 77
     0
 78
     0
281
     0
 65
     1
110
0.0
120
0.0
130
0.0
111
1.0
121
0.0
131
0.0
112
0.0
122
1.0
132
0.0
 79
     0
146
0.0
  0
ENDTAB
  0
TABLE
  2
LTYPE
  5
5
330
0
100
AcDbSymbolTable
 70
    53
  0
LTYPE
  5
14
330
5
100
AcDbSymbolTableRecord
100
AcDbLinetypeTableRecord
  2
ByBlock
 70
     0
  3

 72
    65
 73
     0
 40
0.0
  0
LTYPE
  5
15
330
5
100
AcDbSymbolTableRecord
100
AcDbLinetypeTableRecord
  2
ByLayer
 70
     0
  3

 72
    65
 73
     0
 40
0.0
  0
LTYPE
  5
16
330
5
100
AcDbSymbolTableRecord
100
AcDbLinetypeTableRecord
  2
Continuous
 70
     0
  3
Solid line
 72
    65
 73
     0
 40
0.0
  0
LTYPE
  5
40
330
5
100
AcDbSymbolTableRecord
100
AcDbLinetypeTableRecord
  2
HIDDENX2
 70
     0
  3
Hidden (2x) ____ ____ ____ ____ ____ ____ ____ 
 72
    65
 73
     2
 40
19.05
 49
12.7
 74
     0
 49
-6.35
 74
     0
  0
LTYPE
  5
41
330
5
100
AcDbSymbolTableRecord
100
AcDbLinetypeTableRecord
  2
HIDDEN
 70
     0
  3
Hidden __ __ __ __ __ __ __ __ __ __ __ __ __ __
 72
    65
 73
     2
 40
9.524999999999999
 49
6.35
 74
     0
 49
-3.175
 74
     0
  0
LTYPE
  5
42
330
5
100
AcDbSymbolTableRecord
100
AcDbLinetypeTableRecord
  2
HIDDEN2
 70
     0
  3
Hidden (.5x) _ _ _ _ _ _ _ _ _ _ _ _ _ _ _ _ _ 
 72
    65
 73
     2
 40
4.762499999999999
 49
3.175
 74
     0
 49
-1.5875
 74
     0
  0
LTYPE
  5
43
330
5
100
AcDbSymbolTableRecord
100
AcDbLinetypeTableRecord
  2
DASHED
 70
     0
  3
Dashed __ __ __ __ __ __ __ __ __ __ __ __ __ _
 72
    65
 73
     2
 40
19.05
 49
12.7
 74
     0
 49
-6.35
 74
     0
  0
LTYPE
  5
44
330
5
100
AcDbSymbolTableRecord
100
AcDbLinetypeTableRecord
  2
DASHED2
 70
     0
  3
Dashed (.5x) _ _ _ _ _ _ _ _ _ _ _ _ _ _ _ _ _ 
 72
    65
 73
     2
 40
9.524999999999999
 49
6.35
 74
     0
 49
-3.175
 74
     0
  0
LTYPE
  5
45
330
5
100
AcDbSymbolTableRecord
100
AcDbLinetypeTableRecord
  2
DASHEDX2
 70
     0
  3
Dashed (2x) ____  ____  ____  ____  ____  ___
 72
    65
 73
     2
 40
38.09999999999999
 49
25.4
 74
     0
 49
-12.7
 74
     0
  0
LTYPE
  5
46
330
5
100
AcDbSymbolTableRecord
100
AcDbLinetypeTableRecord
  2
DOTX2
 70
     0
  3
Dot (2x) .  .  .  .  .  .  .  .  .  .  .  .  .  .
 72
    65
 73
     2
 40
12.7
 49
0.0
 74
     0
 49
-12.7
 74
     0
  0
LTYPE
  5
47
330
5
100
AcDbSymbolTableRecord
100
AcDbLinetypeTableRecord
  2
DOT
 70
     0
  3
Dot . . . . . . . . . . . . . . . . . . . . . . . .
 72
    65
 73
     2
 40
6.35
 49
0.0
 74
     0
 49
-6.35
 74
     0
  0
LTYPE
  5
48
330
5
100
AcDbSymbolTableRecord
100
AcDbLinetypeTableRecord
  2
DOT2
 70
     0
  3
Dot (.5x) ........................................
 72
    65
 73
     2
 40
3.175
 49
0.0
 74
     0
 49
-3.175
 74
     0
  0
LTYPE
  5
49
330
5
100
AcDbSymbolTableRecord
100
AcDbLinetypeTableRecord
  2
CENTERX2
 70
     0
  3
Center (2x) ________  __  ________  __  _____
 72
    65
 73
     4
 40
101.6
 49
63.5
 74
     0
 49
-12.7
 74
     0
 49
12.7
 74
     0
 49
-12.7
 74
     0
  0
LTYPE
  5
4A
330
5
100
AcDbSymbolTableRecord
100
AcDbLinetypeTableRecord
  2
CENTER
 70
     0
  3
Center ____ _ ____ _ ____ _ ____ _ ____ _ ____
 72
    65
 73
     4
 40
50.8
 49
31.75
 74
     0
 49
-6.35
 74
     0
 49
6.35
 74
     0
 49
-6.35
 74
     0
  0
LTYPE
  5
4B
330
5
100
AcDbSymbolTableRecord
100
AcDbLinetypeTableRecord
  2
CENTER2
 70
     0
  3
Center (.5x) ___ _ ___ _ ___ _ ___ _ ___ _ ___
 72
    65
 73
     4
 40
28.575
 49
19.05
 74
     0
 49
-3.175
 74
     0
 49
3.175
 74
     0
 49
-3.175
 74
     0
  0
LTYPE
  5
4C
330
5
100
AcDbSymbolTableRecord
100
AcDbLinetypeTableRecord
  2
DASHDOTX2
 70
     0
  3
Dash dot (2x) ____  .  ____  .  ____  .  ___
 72
    65
 73
     4
 40
50.8
 49
25.4
 74
     0
 49
-12.7
 74
     0
 49
0.0
 74
     0
 49
-12.7
 74
     0
  0
LTYPE
  5
4D
330
5
100
AcDbSymbolTableRecord
100
AcDbLinetypeTableRecord
  2
DASHDOT
 70
     0
  3
Dash dot __ . __ . __ . __ . __ . __ . __ . __
 72
    65
 73
     4
 40
25.4
 49
12.7
 74
     0
 49
-6.35
 74
     0
 49
0.0
 74
     0
 49
-6.35
 74
     0
  0
LTYPE
  5
4E
330
5
100
AcDbSymbolTableRecord
100
AcDbLinetypeTableRecord
  2
DASHDOT2
 70
     0
  3
Dash dot (.5x) _._._._._._._._._._._._._._._.
 72
    65
 73
     4
 40
12.7
 49
6.35
 74
     0
 49
-3.175
 74
     0
 49
0.0
 74
     0
 49
-3.175
 74
     0
  0
LTYPE
  5
4F
330
5
100
AcDbSymbolTableRecord
100
AcDbLinetypeTableRecord
  2
DIVIDEX2
 70
     0
  3
Divide (2x) ________  .  .  ________  .  .  _
 72
    65
 73
     6
 40
63.5
 49
25.4
 74
     0
 49
-12.7
 74
     0
 49
0.0
 74
     0
 49
-12.7
 74
     0
 49
0.0
 74
     0
 49
-12.7
 74
     0
  0
LTYPE
  5
50
330
5
100
AcDbSymbolTableRecord
100
AcDbLinetypeTableRecord
  2
DIVIDE
 70
     0
  3
Divide ____ . . ____ . . ____ . . ____ . . ____
 72
    65
 73
     6
 40
31.75
 49
12.7
 74
     0
 49
-6.35
 74
     0
 49
0.0
 74
     0
 49
-6.35
 74
     0
 49
0.0
 74
     0
 49
-6.35
 74
     0
  0
LTYPE
  5
51
330
5
100
AcDbSymbolTableRecord
100
AcDbLinetypeTableRecord
  2
DIVIDE2
 70
     0
  3
Divide (.5x) __..__..__..__..__..__..__..__.._
 72
    65
 73
     6
 40
15.875
 49
6.35
 74
     0
 49
-3.175
 74
     0
 49
0.0
 74
     0
 49
-3.175
 74
     0
 49
0.0
 74
     0
 49
-3.175
 74
     0
  0
LTYPE
  5
52
330
5
100
AcDbSymbolTableRecord
100
AcDbLinetypeTableRecord
  2
BORDERX2
 70
     0
  3
Border (2x) ____  ____  .  ____  ____  .  ___
 72
    65
 73
     6
 40
88.89999999999999
 49
25.4
 74
     0
 49
-12.7
 74
     0
 49
25.4
 74
     0
 49
-12.7
 74
     0
 49
0.0
 74
     0
 49
-12.7
 74
     0
  0
LTYPE
  5
53
330
5
100
AcDbSymbolTableRecord
100
AcDbLinetypeTableRecord
  2
BORDER
 70
     0
  3
Border __ __ . __ __ . __ __ . __ __ . __ __ .
 72
    65
 73
     6
 40
44.45
 49
12.7
 74
     0
 49
-6.35
 74
     0
 49
12.7
 74
     0
 49
-6.35
 74
     0
 49
0.0
 74
     0
 49
-6.35
 74
     0
  0
LTYPE
  5
54
330
5
100
AcDbSymbolTableRecord
100
AcDbLinetypeTableRecord
  2
BORDER2
 70
     0
  3
Border (.5x) __.__.__.__.__.__.__.__.__.__.__.
 72
    65
 73
     6
 40
22.225
 49
6.35
 74
     0
 49
-3.175
 74
     0
 49
6.35
 74
     0
 49
-3.175
 74
     0
 49
0.0
 74
     0
 49
-3.175
 74
     0
  0
LTYPE
  5
55
330
5
100
AcDbSymbolTableRecord
100
AcDbLinetypeTableRecord
  2
PHANTOMX2
 70
     0
  3
Phantom (2x) ____________    ____    ____   _
 72
    65
 73
     6
 40
127.0
 49
63.5
 74
     0
 49
-12.7
 74
     0
 49
12.7
 74
     0
 49
-12.7
 74
     0
 49
12.7
 74
     0
 49
-12.7
 74
     0
  0
LTYPE
  5
56
330
5
100
AcDbSymbolTableRecord
100
AcDbLinetypeTableRecord
  2
PHANTOM
 70
     0
  3
Phantom ______  __  __  ______  __  __  ______ 
 72
    65
 73
     6
 40
63.5
 49
31.75
 74
     0
 49
-6.35
 74
     0
 49
6.35
 74
     0
 49
-6.35
 74
     0
 49
6.35
 74
     0
 49
-6.35
 74
     0
  0
LTYPE
  5
57
330
5
100
AcDbSymbolTableRecord
100
AcDbLinetypeTableRecord
  2
PHANTOM2
 70
     0
  3
Phantom (.5x) ___ _ _ ___ _ _ ___ _ _ ___ _ _
 72
    65
 73
     6
 40
31.75
 49
15.875
 74
     0
 49
-3.175
 74
     0
 49
3.175
 74
     0
 49
-3.175
 74
     0
 49
3.175
 74
     0
 49
-3.175
 74
     0
  0
LTYPE
  5
58
330
5
100
AcDbSymbolTableRecord
100
AcDbLinetypeTableRecord
  2
ACAD_ISO06W100
 70
     0
  3
ISO long-dash triple-dot ____ ... ____ ... ____
 72
    65
 73
     8
 40
36.0
 49
24.0
 74
     0
 49
-3.0
 74
     0
 49
0.0
 74
     0
 49
-3.0
 74
     0
 49
0.0
 74
     0
 49
-3.0
 74
     0
 49
0.0
 74
     0
 49
-3.0
 74
     0
  0
LTYPE
  5
59
330
5
100
AcDbSymbolTableRecord
100
AcDbLinetypeTableRecord
  2
ACAD_ISO13W100
 70
     0
  3
ISO double-dash double-dot __ __ . . __ __ . . _
 72
    65
 73
     8
 40
36.0
 49
12.0
 74
     0
 49
-3.0
 74
     0
 49
12.0
 74
     0
 49
-3.0
 74
     0
 49
0.0
 74
     0
 49
-3.0
 74
     0
 49
0.0
 74
     0
 49
-3.0
 74
     0
  0
LTYPE
  5
5A
330
5
100
AcDbSymbolTableRecord
100
AcDbLinetypeTableRecord
  2
ACAD_ISO14W100
 70
     0
  3
ISO dash triple-dot __ . . . __ . . . __ . . . _
 72
    65
 73
     8
 40
24.0
 49
12.0
 74
     0
 49
-3.0
 74
     0
 49
0.0
 74
     0
 49
-3.0
 74
     0
 49
0.0
 74
     0
 49
-3.0
 74
     0
 49
0.0
 74
     0
 49
-3.0
 74
     0
  0
LTYPE
  5
5B
330
5
100
AcDbSymbolTableRecord
100
AcDbLinetypeTableRecord
  2
ACAD_ISO02W100
 70
     0
  3
ISO dash __ __ __ __ __ __ __ __ __ __ __ __ __
 72
    65
 73
     2
 40
15.0
 49
12.0
 74
     0
 49
-3.0
 74
     0
  0
LTYPE
  5
5C
330
5
100
AcDbSymbolTableRecord
100
AcDbLinetypeTableRecord
  2
ACAD_ISO03W100
 70
     0
  3
ISO dash space __    __    __    __    __    __
 72
    65
 73
     2
 40
30.0
 49
12.0
 74
     0
 49
-18.0
 74
     0
  0
LTYPE
  5
5D
330
5
100
AcDbSymbolTableRecord
100
AcDbLinetypeTableRecord
  2
ACAD_ISO04W100
 70
     0
  3
ISO long-dash dot ____ . ____ . ____ . ____ . _
 72
    65
 73
     4
 40
30.0
 49
24.0
 74
     0
 49
-3.0
 74
     0
 49
0.0
 74
     0
 49
-3.0
 74
     0
  0
LTYPE
  5
5E
330
5
100
AcDbSymbolTableRecord
100
AcDbLinetypeTableRecord
  2
ACAD_ISO05W100
 70
     0
  3
ISO long-dash double-dot ____ .. ____ .. ____ . 
 72
    65
 73
     6
 40
33.0
 49
24.0
 74
     0
 49
-3.0
 74
     0
 49
0.0
 74
     0
 49
-3.0
 74
     0
 49
0.0
 74
     0
 49
-3.0
 74
     0
  0
LTYPE
  5
5F
330
5
100
AcDbSymbolTableRecord
100
AcDbLinetypeTableRecord
  2
ACAD_ISO07W100
 70
     0
  3
ISO dot . . . . . . . . . . . . . . . . . . . . 
 72
    65
 73
     2
 40
3.0
 49
0.0
 74
     0
 49
-3.0
 74
     0
  0
LTYPE
  5
60
330
5
100
AcDbSymbolTableRecord
100
AcDbLinetypeTableRecord
  2
ACAD_ISO08W100
 70
     0
  3
ISO long-dash short-dash ____ __ ____ __ ____ _
 72
    65
 73
     4
 40
36.0
 49
24.0
 74
     0
 49
-3.0
 74
     0
 49
6.0
 74
     0
 49
-3.0
 74
     0
  0
LTYPE
  5
61
330
5
100
AcDbSymbolTableRecord
100
AcDbLinetypeTableRecord
  2
ACAD_ISO09W100
 70
     0
  3
ISO long-dash double-short-dash ____ __ __ ____
 72
    65
 73
     6
 40
45.0
 49
24.0
 74
     0
 49
-3.0
 74
     0
 49
6.0
 74
     0
 49
-3.0
 74
     0
 49
6.0
 74
     0
 49
-3.0
 74
     0
  0
LTYPE
  5
62
330
5
100
AcDbSymbolTableRecord
100
AcDbLinetypeTableRecord
  2
ACAD_ISO10W100
 70
     0
  3
ISO dash dot __ . __ . __ . __ . __ . __ . __ . 
 72
    65
 73
     4
 40
18.0
 49
12.0
 74
     0
 49
-3.0
 74
     0
 49
0.0
 74
     0
 49
-3.0
 74
     0
  0
LTYPE
  5
63
330
5
100
AcDbSymbolTableRecord
100
AcDbLinetypeTableRecord
  2
ACAD_ISO11W100
 70
     0
  3
ISO double-dash dot __ __ . __ __ . __ __ . __ _
 72
    65
 73
     6
 40
33.0
 49
12.0
 74
     0
 49
-3.0
 74
     0
 49
12.0
 74
     0
 49
-3.0
 74
     0
 49
0.0
 74
     0
 49
-3.0
 74
     0
  0
LTYPE
  5
64
330
5
100
AcDbSymbolTableRecord
100
AcDbLinetypeTableRecord
  2
ACAD_ISO12W100
 70
     0
  3
ISO dash double-dot __ . . __ . . __ . . __ . . 
 72
    65
 73
     6
 40
21.0
 49
12.0
 74
     0
 49
-3.0
 74
     0
 49
0.0
 74
     0
 49
-3.0
 74
     0
 49
0.0
 74
     0
 49
-3.0
 74
     0
  0
LTYPE
  5
65
330
5
100
AcDbSymbolTableRecord
100
AcDbLinetypeTableRecord
  2
ACAD_ISO15W100
 70
     0
  3
ISO double-dash triple-dot __ __ . . . __ __ . .
 72
    65
 73
    10
 40
39.0
 49
12.0
 74
     0
 49
-3.0
 74
     0
 49
12.0
 74
     0
 49
-3.0
 74
     0
 49
0.0
 74
     0
 49
-3.0
 74
     0
 49
0.0
 74
     0
 49
-3.0
 74
     0
 49
0.0
 74
     0
 49
-3.0
 74
     0
  0
LTYPE
  5
66
330
5
100
AcDbSymbolTableRecord
100
AcDbLinetypeTableRecord
  2
JIS_02_0.7
 70
     0
  3
HIDDEN0.75 _ _ _ _ _ _ _ _ _ _ _ _ _ _ _ _ _ 
 72
    65
 73
     2
 40
1.35
 49
0.75
 74
     0
 49
-0.6
 74
     0
  0
LTYPE
  5
67
330
5
100
AcDbSymbolTableRecord
100
AcDbLinetypeTableRecord
  2
JIS_02_1.0
 70
     0
  3
HIDDEN01 _ _ _ _ _ _ _ _ _ _ _ _ _ _ _ _ _ 
 72
    65
 73
     2
 40
2.0
 49
1.0
 74
     0
 49
-1.0
 74
     0
  0
LTYPE
  5
68
330
5
100
AcDbSymbolTableRecord
100
AcDbLinetypeTableRecord
  2
JIS_02_1.2
 70
     0
  3
HIDDEN01.25  _ _ _ _ _ _ _ _ _ _ _ _ _ _ _ _ _ 
 72
    65
 73
     2
 40
2.5
 49
1.25
 74
     0
 49
-1.25
 74
     0
  0
LTYPE
  5
69
330
5
100
AcDbSymbolTableRecord
100
AcDbLinetypeTableRecord
  2
JIS_02_2.0
 70
     0
  3
HIDDEN02 __ __ __ __ __ __ __ __ __ __ __ 
 72
    65
 73
     2
 40
3.0
 49
2.0
 74
     0
 49
-1.0
 74
     0
  0
LTYPE
  5
6A
330
5
100
AcDbSymbolTableRecord
100
AcDbLinetypeTableRecord
  2
JIS_02_4.0
 70
     0
  3
HIDDEN04 ____ ____ ____ ____ ____ ____ ____ 
 72
    65
 73
     2
 40
5.5
 49
4.0
 74
     0
 49
-1.5
 74
     0
  0
LTYPE
  5
6B
330
5
100
AcDbSymbolTableRecord
100
AcDbLinetypeTableRecord
  2
JIS_08_11
 70
     0
  3
1SASEN11 ___ _ ___ _ ___ _ ___ _ ___ _ ___
 72
    65
 73
     4
 40
12.8
 49
11.0
 74
     0
 49
-0.6
 74
     0
 49
0.6
 74
     0
 49
-0.6
 74
     0
  0
LTYPE
  5
6C
330
5
100
AcDbSymbolTableRecord
100
AcDbLinetypeTableRecord
  2
JIS_08_15
 70
     0
  3
1SASEN15 ____ _ ____ _ ____ _ ____ _ ____ 
 72
    65
 73
     4
 40
17.25
 49
15.0
 74
     0
 49
-0.75
 74
     0
 49
0.75
 74
     0
 49
-0.75
 74
     0
  0
LTYPE
  5
6D
330
5
100
AcDbSymbolTableRecord
100
AcDbLinetypeTableRecord
  2
JIS_08_25
 70
     0
  3
1SASEN25 ________  __  ________  __  _____
 72
    65
 73
     4
 40
28.0
 49
25.0
 74
     0
 49
-1.125
 74
     0
 49
0.75
 74
     0
 49
-1.125
 74
     0
  0
LTYPE
  5
6E
330
5
100
AcDbSymbolTableRecord
100
AcDbLinetypeTableRecord
  2
JIS_08_37
 70
     0
  3
1SASEN37 ________  __  ________  __  _____
 72
    65
 73
     4
 40
40.5
 49
37.5
 74
     0
 49
-1.125
 74
     0
 49
0.75
 74
     0
 49
-1.125
 74
     0
  0
LTYPE
  5
6F
330
5
100
AcDbSymbolTableRecord
100
AcDbLinetypeTableRecord
  2
JIS_08_50
 70
     0
  3
1SASEN50 _______________  __  ____________
 72
    65
 73
     4
 40
53.0
 49
50.0
 74
     0
 49
-1.125
 74
     0
 49
0.75
 74
     0
 49
-1.125
 74
     0
  0
LTYPE
  5
70
330
5
100
AcDbSymbolTableRecord
100
AcDbLinetypeTableRecord
  2
JIS_09_08
 70
     0
  3
2SASEN8 __ _ _ __ _ _ __ _ _ __ _ _ __ _ _ 
 72
    65
 73
     6
 40
10.75
 49
8.0
 74
     0
 49
-0.55
 74
     0
 49
0.55
 74
     0
 49
-0.55
 74
     0
 49
0.55
 74
     0
 49
-0.55
 74
     0
  0
LTYPE
  5
71
330
5
100
AcDbSymbolTableRecord
100
AcDbLinetypeTableRecord
  2
JIS_09_15
 70
     0
  3
2SASEN15 ___ _ _ ___ _ _ ___ _ _ ___ _ _ ___ 
 72
    65
 73
     6
 40
18.9
 49
15.0
 74
     0
 49
-0.9
 74
     0
 49
0.6
 74
     0
 49
-0.9
 74
     0
 49
0.6
 74
     0
 49
-0.9
 74
     0
  0
LTYPE
  5
72
330
5
100
AcDbSymbolTableRecord
100
AcDbLinetypeTableRecord
  2
JIS_09_29
 70
     0
  3
2SASEN29 ______　__  __  ______　__  __  ___
 72
    65
 73
     6
 40
34.0
 49
29.0
 74
     0
 49
-1.2
 74
     0
 49
0.7
 74
     0
 49
-1.2
 74
     0
 49
0.7
 74
     0
 49
-1.2
 74
     0
  0
LTYPE
  5
73
330
5
100
AcDbSymbolTableRecord
100
AcDbLinetypeTableRecord
  2
JIS_09_50
 70
     0
  3
2SASEN50 ____________　__  __  _____________
 72
    65
 73
     6
 40
55.0
 49
50.0
 74
     0
 49
-1.2
 74
     0
 49
0.7
 74
     0
 49
-1.2
 74
     0
 49
0.7
 74
     0
 49
-1.2
 74
     0
  0
ENDTAB
  0
TABLE
  2
LAYER
  5
2
330
0
100
AcDbSymbolTable
 70
     1
  0
LAYER
  5
10
330
2
100
AcDbSymbolTableRecord
100
AcDbLayerTableRecord
  2
0
 70
     0
 62
     7
  6
Continuous
370
    -3
390
F
  0
ENDTAB
  0
TABLE
  2
STYLE
  5
3
330
0
100
AcDbSymbolTable
 70
     2
  0
STYLE
  5
11
330
3
100
AcDbSymbolTableRecord
100
AcDbTextStyleTableRecord
  2
Standard
 70
     0
 40
0.0
 41
1.0
 50
0.0
 71
     0
 42
0.2
  3
txt.shx
  4
bigfont.shx
  0
STYLE
  5
C0
330
3
100
AcDbSymbolTableRecord
100
AcDbTextStyleTableRecord
  2
dcStyle0
 70
     0
 40
0.0
 41
1.0
 50
0.0
 71
     0
 42
0.2
  3
HGRSMP.TTF
  4

1001
ACAD
1000
HG丸ｺﾞｼｯｸM-PRO
1071
    32802
  0
ENDTAB
  0
TABLE
  2
VIEW
  5
6
330
0
100
AcDbSymbolTable
 70
     0
  0
ENDTAB
  0
TABLE
  2
UCS
  5
7
330
0
100
AcDbSymbolTable
 70
     0
  0
ENDTAB
  0
TABLE
  2
APPID
  5
9
330
0
100
AcDbSymbolTable
 70
     3
  0
APPID
  5
12
330
9
100
AcDbSymbolTableRecord
100
AcDbRegAppTableRecord
  2
ACAD
 70
     0
  0
APPID
  5
3F
330
9
100
AcDbSymbolTableRecord
100
AcDbRegAppTableRecord
  2
DaFusionOut
 70
     0
  0
APPID
  5
232
330
9
100
AcDbSymbolTableRecord
100
AcDbRegAppTableRecord
  2
ACAD_DSTYLE_DIMARC_LENGTH_SYMBOL
 70
     0
  0
ENDTAB
  0
TABLE
  2
DIMSTYLE
  5
A
330
0
100
AcDbSymbolTable
 70
     2
100
AcDbDimStyleTable
  0
DIMSTYLE
105
27
330
A
100
AcDbSymbolTableRecord
100
AcDbDimStyleTableRecord
  2
Standard
 70
     0
340
11
  0
DIMSTYLE
105
1EB
102
{ACAD_REACTORS
330
1EA
330
1EC
330
1ED
330
1EE
330
1EF
330
1F0
330
1F1
330
1F2
330
1F3
330
1F4
330
1F5
330
1F6
330
1F7
330
1F8
330
1F9
330
1FA
330
1FD
330
1FE
330
1FF
330
201
102
}
330
A
100
AcDbSymbolTableRecord
100
AcDbDimStyleTableRecord
  2
dc_Rotated
 70
     0
 41
3.000001882570243
 42
1.0
 44
1.0
 73
     0
 74
     0
 77
     3
 78
     8
 79
     2
140
3.0
147
1.0
172
     1
173
     1
176
     4
177
     4
178
     2
271
     2
274
     4
283
     0
284
     8
288
     1
340
C0
343
E5
344
E5
1001
ACAD_DSTYLE_DIMARC_LENGTH_SYMBOL
1070
   379
1070
     1
  0
ENDTAB
  0
TABLE
  2
BLOCK_RECORD
  5
1
330
0
100
AcDbSymbolTable
 70
    27
  0
BLOCK_RECORD
  5
1F
330
1
100
AcDbSymbolTableRecord
100
AcDbBlockTableRecord
  2
*Model_Space
340
22
  0
BLOCK_RECORD
  5
1B
330
1
100
AcDbSymbolTableRecord
100
AcDbBlockTableRecord
  2
*Paper_Space
340
1E
  0
BLOCK_RECORD
  5
23
330
1
100
AcDbSymbolTableRecord
100
AcDbBlockTableRecord
  2
*Paper_Space0
340
26
  0
BLOCK_RECORD
  5
75
330
1
100
AcDbSymbolTableRecord
100
AcDbBlockTableRecord
  2
DC_GROUP_KL500面付本締錠_1
340
0
102
{BLKREFS
331
1E9
102
}
  0
BLOCK_RECORD
  5
78
330
1
100
AcDbSymbolTableRecord
100
AcDbBlockTableRecord
  2
*D2
340
0
  0
BLOCK_RECORD
  5
7B
330
1
100
AcDbSymbolTableRecord
100
AcDbBlockTableRecord
  2
*D3
340
0
  0
BLOCK_RECORD
  5
7E
330
1
100
AcDbSymbolTableRecord
100
AcDbBlockTableRecord
  2
*D4
340
0
  0
BLOCK_RECORD
  5
81
330
1
100
AcDbSymbolTableRecord
100
AcDbBlockTableRecord
  2
*D5
340
0
  0
BLOCK_RECORD
  5
84
330
1
100
AcDbSymbolTableRecord
100
AcDbBlockTableRecord
  2
*D6
340
0
  0
BLOCK_RECORD
  5
87
330
1
100
AcDbSymbolTableRecord
100
AcDbBlockTableRecord
  2
*D7
340
0
  0
BLOCK_RECORD
  5
8A
330
1
100
AcDbSymbolTableRecord
100
AcDbBlockTableRecord
  2
*D8
340
0
  0
BLOCK_RECORD
  5
8D
330
1
100
AcDbSymbolTableRecord
100
AcDbBlockTableRecord
  2
*D9
340
0
  0
BLOCK_RECORD
  5
90
330
1
100
AcDbSymbolTableRecord
100
AcDbBlockTableRecord
  2
*D10
340
0
  0
BLOCK_RECORD
  5
93
330
1
100
AcDbSymbolTableRecord
100
AcDbBlockTableRecord
  2
*D11
340
0
  0
BLOCK_RECORD
  5
96
330
1
100
AcDbSymbolTableRecord
100
AcDbBlockTableRecord
  2
*D12
340
0
  0
BLOCK_RECORD
  5
99
330
1
100
AcDbSymbolTableRecord
100
AcDbBlockTableRecord
  2
*D13
340
0
  0
BLOCK_RECORD
  5
9C
330
1
100
AcDbSymbolTableRecord
100
AcDbBlockTableRecord
  2
*D14
340
0
  0
BLOCK_RECORD
  5
9F
330
1
100
AcDbSymbolTableRecord
100
AcDbBlockTableRecord
  2
*D15
340
0
  0
BLOCK_RECORD
  5
A2
330
1
100
AcDbSymbolTableRecord
100
AcDbBlockTableRecord
  2
*D16
340
0
  0
BLOCK_RECORD
  5
A5
330
1
100
AcDbSymbolTableRecord
100
AcDbBlockTableRecord
  2
*D17
340
0
  0
BLOCK_RECORD
  5
A8
330
1
100
AcDbSymbolTableRecord
100
AcDbBlockTableRecord
  2
DC_GROUP_KL500面付本締錠_2
340
0
102
{BLKREFS
331
1FB
102
}
  0
BLOCK_RECORD
  5
AB
330
1
100
AcDbSymbolTableRecord
100
AcDbBlockTableRecord
  2
DC_GROUP_KL500面付本締錠_3
340
0
102
{BLKREFS
331
1FC
102
}
  0
BLOCK_RECORD
  5
AE
330
1
100
AcDbSymbolTableRecord
100
AcDbBlockTableRecord
  2
*D20
340
0
  0
BLOCK_RECORD
  5
B1
330
1
100
AcDbSymbolTableRecord
100
AcDbBlockTableRecord
  2
*D21
340
0
  0
BLOCK_RECORD
  5
B4
330
1
100
AcDbSymbolTableRecord
100
AcDbBlockTableRecord
  2
*D22
340
0
  0
BLOCK_RECORD
  5
B7
330
1
100
AcDbSymbolTableRecord
100
AcDbBlockTableRecord
  2
DA_IMAGEDIMGROUP_1
340
0
102
{BLKREFS
331
200
102
}
  0
BLOCK_RECORD
  5
BA
330
1
100
AcDbSymbolTableRecord
100
AcDbBlockTableRecord
  2
*D24
340
0
  0
BLOCK_RECORD
  5
BD
330
1
100
AcDbSymbolTableRecord
100
AcDbBlockTableRecord
  2
DC_GROUP_KL500面付本締錠_4
340
0
102
{BLKREFS
331
22B
102
}
  0
BLOCK_RECORD
  5
E5
330
1
100
AcDbSymbolTableRecord
100
AcDbBlockTableRecord
  2
_OPEN30
340
0
102
{BLKREFS
331
EB
331
EC
331
F1
331
F2
331
F7
331
F8
331
FD
331
FE
331
103
331
104
331
109
331
10A
331
10E
331
10F
331
113
331
114
331
119
331
11A
331
11F
331
120
331
125
331
126
331
12B
331
12C
331
131
331
132
331
137
331
138
331
140
331
143
331
144
331
16D
331
16E
331
173
331
174
331
179
331
17A
331
181
331
183
331
186
331
187
102
}
  0
ENDTAB
  0
ENDSEC
  0
SECTION
  2
BLOCKS
  0
BLOCK
  5
20
330
1F
100
AcDbEntity
  8
0
100
AcDbBlockBegin
  2
*Model_Space
 70
     0
 10
0.0
 20
0.0
 30
0.0
  3
*Model_Space
  1

  0
ENDBLK
  5
21
330
1F
100
AcDbEntity
  8
0
100
AcDbBlockEnd
  0
BLOCK
  5
1C
330
1B
100
AcDbEntity
 67
     1
  8
0
100
AcDbBlockBegin
  2
*Paper_Space
 70
     0
 10
0.0
 20
0.0
 30
0.0
  3
*Paper_Space
  1

  0
ENDBLK
  5
1D
330
1B
100
AcDbEntity
 67
     1
  8
0
100
AcDbBlockEnd
  0
BLOCK
  5
24
330
23
100
AcDbEntity
  8
0
100
AcDbBlockBegin
  2
*Paper_Space0
 70
     0
 10
0.0
 20
0.0
 30
0.0
  3
*Paper_Space0
  1

  0
ENDBLK
  5
25
330
23
100
AcDbEntity
  8
0
100
AcDbBlockEnd
  0
BLOCK
  5
76
330
75
100
AcDbEntity
  8
0
100
AcDbBlockBegin
  2
DC_GROUP_KL500面付本締錠_1
 70
     0
 10
0.0
 20
0.0
 30
0.0
  3
DC_GROUP_KL500面付本締錠_1
  1

  0
TEXT
  5
C1
330
75
100
AcDbEntity
  8
0
 62
     2
100
AcDbText
 10
-192.0
 20
126.0
 30
0.0
 40
5.0
  1
適用品番　KL22204/22204-9
 41
0.7759080548954951
  7
dcStyle0
 72
     5
 11
-112.0
 21
126.0
 31
0.0
100
AcDbText
  0
ENDBLK
  5
77
330
75
100
AcDbEntity
  8
0
100
AcDbBlockEnd
  0
BLOCK
  5
79
330
78
100
AcDbEntity
  8
0
100
AcDbBlockBegin
  2
*D2
 70
     1
 10
0.0
 20
0.0
 30
0.0
  3
*D2
  1

  0
LINE
  5
E4
330
78
100
AcDbEntity
  8
0
  6
Continuous
 62
     4
370
    13
100
AcDbLine
 10
-18.46437587454363
 20
-71.61249999999993
 30
0.0
 11
1.535624125456367
 21
-71.61249999999993
 31
0.0
  0
INSERT
  5
EB
330
78
100
AcDbEntity
  8
0
 62
     4
100
AcDbBlockReference
  2
_OPEN30
 10
-18.46437587454363
 20
-71.61249999999993
 30
0.0
 41
3.000002787824364
 42
2.999989273978464
 50
180.0
  0
INSERT
  5
EC
330
78
100
AcDbEntity
  8
0
 62
     4
100
AcDbBlockReference
  2
_OPEN30
 10
1.535624125456367
 20
-71.61249999999993
 30
0.0
 41
3.000002787824364
 42
2.999989273978464
 50
360.0
  0
LINE
  5
ED
330
78
100
AcDbEntity
  8
0
  6
Continuous
 62
     4
370
    13
100
AcDbLine
 10
-18.46437587454363
 20
-47.61249999999993
 30
0.0
 11
-18.46437587454363
 21
-72.61249999999993
 31
0.0
  0
LINE
  5
EE
330
78
100
AcDbEntity
  8
0
  6
Continuous
 62
     4
370
    13
100
AcDbLine
 10
1.535624125456367
 20
-47.61249999999993
 30
0.0
 11
1.535624125456367
 21
-72.61249999999993
 31
0.0
  0
MTEXT
  5
EF
330
78
100
AcDbEntity
  8
0
 62
     2
100
AcDbMText
 10
-8.464375874543633
 20
-70.61249999999993
 30
0.0
 40
3.0
 41
15.75
 71
     8
 72
     1
  1
\T1.00;20mm
  7
dcStyle0
 73
     1
 44
1.0
  0
ENDBLK
  5
7A
330
78
100
AcDbEntity
  8
0
100
AcDbBlockEnd
  0
BLOCK
  5
7C
330
7B
100
AcDbEntity
  8
0
100
AcDbBlockBegin
  2
*D3
 70
     1
 10
0.0
 20
0.0
 30
0.0
  3
*D3
  1

  0
LINE
  5
F0
330
7B
100
AcDbEntity
  8
0
  6
Continuous
 62
     4
370
    13
100
AcDbLine
 10
-33.46437587454363
 20
-34.61249999999993
 30
0.0
 11
-33.46437587454363
 21
-8.61249999999993
 31
0.0
  0
INSERT
  5
F1
330
7B
100
AcDbEntity
  8
0
 62
     4
100
AcDbBlockReference
  2
_OPEN30
 10
-33.46437587454363
 20
-34.61249999999993
 30
0.0
 41
3.000002787824364
 42
2.999989273978464
 50
270.0
  0
INSERT
  5
F2
330
7B
100
AcDbEntity
  8
0
 62
     4
100
AcDbBlockReference
  2
_OPEN30
 10
-33.46437587454363
 20
-8.61249999999993
 30
0.0
 41
3.000002787824364
 42
2.999989273978464
 50
90.0
  0
LINE
  5
F3
330
7B
100
AcDbEntity
  8
0
  6
Continuous
 62
     4
370
    13
100
AcDbLine
 10
-19.46437587454363
 20
-34.61249999999993
 30
0.0
 11
-34.46437587454363
 21
-34.61249999999993
 31
0.0
  0
LINE
  5
F4
330
7B
100
AcDbEntity
  8
0
  6
Continuous
 62
     4
370
    13
100
AcDbLine
 10
-19.46437587454363
 20
-8.61249999999993
 30
0.0
 11
-34.46437587454363
 21
-8.61249999999993
 31
0.0
  0
MTEXT
  5
F5
330
7B
100
AcDbEntity
  8
0
 62
     2
100
AcDbMText
 10
-34.46437587454363
 20
-21.61249999999993
 30
0.0
 40
3.0
 41
15.75
 71
     8
 72
     1
  1
\T1.00;26mm
  7
dcStyle0
 11
6.123031769111886E-17
 21
1.0
 31
0.0
 73
     1
 44
1.0
  0
ENDBLK
  5
7D
330
7B
100
AcDbEntity
  8
0
100
AcDbBlockEnd
  0
BLOCK
  5
7F
330
7E
100
AcDbEntity
  8
0
100
AcDbBlockBegin
  2
*D4
 70
     1
 10
0.0
 20
0.0
 30
0.0
  3
*D4
  1

  0
LINE
  5
F6
330
7E
100
AcDbEntity
  8
0
  6
Continuous
 62
     4
370
    13
100
AcDbLine
 10
-41.46437587454363
 20
-48.61249999999994
 30
0.0
 11
-41.46437587454363
 21
5.38750000000007
 31
0.0
  0
INSERT
  5
F7
330
7E
100
AcDbEntity
  8
0
 62
     4
100
AcDbBlockReference
  2
_OPEN30
 10
-41.46437587454363
 20
-48.61249999999994
 30
0.0
 41
3.000002787824364
 42
2.999989273978464
 50
270.0
  0
INSERT
  5
F8
330
7E
100
AcDbEntity
  8
0
 62
     4
100
AcDbBlockReference
  2
_OPEN30
 10
-41.46437587454363
 20
5.38750000000007
 30
0.0
 41
3.000002787824364
 42
2.999989273978464
 50
90.0
  0
LINE
  5
F9
330
7E
100
AcDbEntity
  8
0
  6
Continuous
 62
     4
370
    13
100
AcDbLine
 10
-18.56437587454363
 20
-48.61249999999994
 30
0.0
 11
-42.46437587454363
 21
-48.61249999999994
 31
0.0
  0
LINE
  5
FA
330
7E
100
AcDbEntity
  8
0
  6
Continuous
 62
     4
370
    13
100
AcDbLine
 10
-18.56437587454363
 20
5.38750000000007
 30
0.0
 11
-42.46437587454363
 21
5.38750000000007
 31
0.0
  0
MTEXT
  5
FB
330
7E
100
AcDbEntity
  8
0
 62
     2
100
AcDbMText
 10
-42.46437587454363
 20
-21.61249999999993
 30
0.0
 40
3.0
 41
15.74999999999999
 71
     8
 72
     1
  1
\T1.00;54mm
  7
dcStyle0
 11
6.123031769111886E-17
 21
1.0
 31
0.0
 73
     1
 44
1.0
  0
ENDBLK
  5
80
330
7E
100
AcDbEntity
  8
0
100
AcDbBlockEnd
  0
BLOCK
  5
82
330
81
100
AcDbEntity
  8
0
100
AcDbBlockBegin
  2
*D5
 70
     1
 10
0.0
 20
0.0
 30
0.0
  3
*D5
  1

  0
LINE
  5
FC
330
81
100
AcDbEntity
  8
0
  6
Continuous
 62
     4
370
    13
100
AcDbLine
 10
-49.46437587454363
 20
-56.61249999999993
 30
0.0
 11
-49.46437587454363
 21
13.38750000000007
 31
0.0
  0
INSERT
  5
FD
330
81
100
AcDbEntity
  8
0
 62
     4
100
AcDbBlockReference
  2
_OPEN30
 10
-49.46437587454363
 20
-56.61249999999993
 30
0.0
 41
3.000002787824364
 42
2.999989273978464
 50
270.0
  0
INSERT
  5
FE
330
81
100
AcDbEntity
  8
0
 62
     4
100
AcDbBlockReference
  2
_OPEN30
 10
-49.46437587454363
 20
13.38750000000007
 30
0.0
 41
3.000002787824364
 42
2.999989273978464
 50
90.0
  0
LINE
  5
FF
330
81
100
AcDbEntity
  8
0
  6
Continuous
 62
     4
370
    13
100
AcDbLine
 10
-9.464375874543629
 20
-56.61249999999993
 30
0.0
 11
-50.46437587454363
 21
-56.61249999999993
 31
0.0
  0
LINE
  5
100
330
81
100
AcDbEntity
  8
0
  6
Continuous
 62
     4
370
    13
100
AcDbLine
 10
-9.46437587454363
 20
13.38750000000007
 30
0.0
 11
-50.46437587454363
 21
13.38750000000007
 31
0.0
  0
MTEXT
  5
101
330
81
100
AcDbEntity
  8
0
 62
     2
100
AcDbMText
 10
-50.46437587454363
 20
-21.61249999999993
 30
0.0
 40
3.0
 41
15.74999999999999
 71
     8
 72
     1
  1
\T1.00;70mm
  7
dcStyle0
 11
6.123031769111886E-17
 21
1.0
 31
0.0
 73
     1
 44
1.0
  0
ENDBLK
  5
83
330
81
100
AcDbEntity
  8
0
100
AcDbBlockEnd
  0
BLOCK
  5
85
330
84
100
AcDbEntity
  8
0
100
AcDbBlockBegin
  2
*D6
 70
     1
 10
0.0
 20
0.0
 30
0.0
  3
*D6
  1

  0
LINE
  5
102
330
84
100
AcDbEntity
  8
0
  6
Continuous
 62
     4
370
    13
100
AcDbLine
 10
-18.46437587454363
 20
28.38750000000007
 30
0.0
 11
-6.964375874543632
 21
28.38750000000007
 31
0.0
  0
INSERT
  5
103
330
84
100
AcDbEntity
  8
0
 62
     4
100
AcDbBlockReference
  2
_OPEN30
 10
-18.46437587454363
 20
28.38750000000007
 30
0.0
 41
3.000002787824364
 42
2.999989273978464
 50
180.0
  0
INSERT
  5
104
330
84
100
AcDbEntity
  8
0
 62
     4
100
AcDbBlockReference
  2
_OPEN30
 10
-6.964375874543632
 20
28.38750000000007
 30
0.0
 41
3.000002787824364
 42
2.999989273978464
 50
360.0
  0
LINE
  5
105
330
84
100
AcDbEntity
  8
0
  6
Continuous
 62
     4
370
    13
100
AcDbLine
 10
-18.46437587454363
 20
4.38750000000007
 30
0.0
 11
-18.46437587454363
 21
29.38750000000007
 31
0.0
  0
LINE
  5
106
330
84
100
AcDbEntity
  8
0
  6
Continuous
 62
     4
370
    13
100
AcDbLine
 10
-6.964375874543632
 20
-11.61249999999993
 30
0.0
 11
-6.964375874543632
 21
29.38750000000007
 31
0.0
  0
MTEXT
  5
107
330
84
100
AcDbEntity
  8
0
 62
     2
100
AcDbMText
 10
-12.71437587454363
 20
29.38750000000007
 30
0.0
 40
3.0
 41
17.25
 71
     8
 72
     1
  1
\T1.00;11.5mm
  7
dcStyle0
 73
     1
 44
1.0
  0
ENDBLK
  5
86
330
84
100
AcDbEntity
  8
0
100
AcDbBlockEnd
  0
BLOCK
  5
88
330
87
100
AcDbEntity
  8
0
100
AcDbBlockBegin
  2
*D7
 70
     1
 10
0.0
 20
0.0
 30
0.0
  3
*D7
  1

  0
LINE
  5
108
330
87
100
AcDbEntity
  8
0
  6
Continuous
 62
     4
370
    13
100
AcDbLine
 10
51.53562412545632
 20
3.387500000000045
 30
0.0
 11
71.53562412545631
 21
3.387500000000045
 31
0.0
  0
INSERT
  5
109
330
87
100
AcDbEntity
  8
0
 62
     4
100
AcDbBlockReference
  2
_OPEN30
 10
51.53562412545632
 20
3.387500000000045
 30
0.0
 41
3.000002787824364
 42
2.999989273978464
 50
180.0
  0
INSERT
  5
10A
330
87
100
AcDbEntity
  8
0
 62
     4
100
AcDbBlockReference
  2
_OPEN30
 10
71.53562412545631
 20
3.387500000000045
 30
0.0
 41
3.000002787824364
 42
2.999989273978464
 50
360.0
  0
LINE
  5
10B
330
87
100
AcDbEntity
  8
0
  6
Continuous
 62
     4
370
    13
100
AcDbLine
 10
51.53562412545632
 20
-10.61249999999995
 30
0.0
 11
51.53562412545632
 21
4.387500000000045
 31
0.0
  0
MTEXT
  5
10C
330
87
100
AcDbEntity
  8
0
 62
     2
100
AcDbMText
 10
61.53562412545631
 20
4.387500000000045
 30
0.0
 40
3.0
 41
14.25000000000001
 71
     8
 72
     1
  1
\T1.00;20mm
  7
dcStyle0
 73
     1
 44
1.0
  0
ENDBLK
  5
89
330
87
100
AcDbEntity
  8
0
100
AcDbBlockEnd
  0
BLOCK
  5
8B
330
8A
100
AcDbEntity
  8
0
100
AcDbBlockBegin
  2
*D8
 70
     1
 10
0.0
 20
0.0
 30
0.0
  3
*D8
  1

  0
LINE
  5
10D
330
8A
100
AcDbEntity
  8
0
  6
Continuous
 62
     4
370
    13
100
AcDbLine
 10
21.53562412545637
 20
14.38750000000005
 30
0.0
 11
71.53562412545628
 21
14.38750000000005
 31
0.0
  0
INSERT
  5
10E
330
8A
100
AcDbEntity
  8
0
 62
     4
100
AcDbBlockReference
  2
_OPEN30
 10
21.53562412545637
 20
14.38750000000005
 30
0.0
 41
3.000002787824364
 42
2.999989273978464
 50
180.0
  0
INSERT
  5
10F
330
8A
100
AcDbEntity
  8
0
 62
     4
100
AcDbBlockReference
  2
_OPEN30
 10
71.53562412545628
 20
14.38750000000005
 30
0.0
 41
3.000002787824364
 42
2.999989273978464
 50
360.0
  0
LINE
  5
110
330
8A
100
AcDbEntity
  8
0
  6
Continuous
 62
     4
370
    13
100
AcDbLine
 10
21.53562412545637
 20
-10.61249999999995
 30
0.0
 11
21.53562412545637
 21
15.38750000000005
 31
0.0
  0
MTEXT
  5
111
330
8A
100
AcDbEntity
  8
0
 62
     2
100
AcDbMText
 10
46.53562412545632
 20
15.38750000000005
 30
0.0
 40
3.0
 41
15.74999999999999
 71
     8
 72
     1
  1
\T1.00;50mm
  7
dcStyle0
 73
     1
 44
1.0
  0
ENDBLK
  5
8C
330
8A
100
AcDbEntity
  8
0
100
AcDbBlockEnd
  0
BLOCK
  5
8E
330
8D
100
AcDbEntity
  8
0
100
AcDbBlockBegin
  2
*D9
 70
     1
 10
0.0
 20
0.0
 30
0.0
  3
*D9
  1

  0
LINE
  5
112
330
8D
100
AcDbEntity
  8
0
  6
Continuous
 62
     4
370
    13
100
AcDbLine
 10
-112.4643758745436
 20
-89.61249999999995
 30
0.0
 11
-84.46437587454363
 21
-89.61249999999995
 31
0.0
  0
INSERT
  5
113
330
8D
100
AcDbEntity
  8
0
 62
     4
100
AcDbBlockReference
  2
_OPEN30
 10
-112.4643758745436
 20
-89.61249999999995
 30
0.0
 41
3.000002787824364
 42
2.999989273978464
 50
180.0
  0
INSERT
  5
114
330
8D
100
AcDbEntity
  8
0
 62
     4
100
AcDbBlockReference
  2
_OPEN30
 10
-84.46437587454363
 20
-89.61249999999995
 30
0.0
 41
3.000002787824364
 42
2.999989273978464
 50
360.0
  0
LINE
  5
115
330
8D
100
AcDbEntity
  8
0
  6
Continuous
 62
     4
370
    13
100
AcDbLine
 10
-112.4643758745436
 20
-67.61249999999995
 30
0.0
 11
-112.4643758745436
 21
-90.61249999999995
 31
0.0
  0
LINE
  5
116
330
8D
100
AcDbEntity
  8
0
  6
Continuous
 62
     4
370
    13
100
AcDbLine
 10
-84.46437587454363
 20
-67.61249999999995
 30
0.0
 11
-84.46437587454363
 21
-90.61249999999995
 31
0.0
  0
MTEXT
  5
117
330
8D
100
AcDbEntity
  8
0
 62
     2
100
AcDbMText
 10
-98.46437587454363
 20
-88.61249999999995
 30
0.0
 40
3.0
 41
15.74999999999999
 71
     8
 72
     1
  1
\T1.00;28mm
  7
dcStyle0
 73
     1
 44
1.0
  0
ENDBLK
  5
8F
330
8D
100
AcDbEntity
  8
0
100
AcDbBlockEnd
  0
BLOCK
  5
91
330
90
100
AcDbEntity
  8
0
100
AcDbBlockBegin
  2
*D10
 70
     1
 10
0.0
 20
0.0
 30
0.0
  3
*D10
  1

  0
LINE
  5
118
330
90
100
AcDbEntity
  8
0
  6
Continuous
 62
     4
370
    13
100
AcDbLine
 10
-143.4643758745436
 20
-66.61249999999995
 30
0.0
 11
-143.4643758745436
 21
23.38750000000006
 31
0.0
  0
INSERT
  5
119
330
90
100
AcDbEntity
  8
0
 62
     4
100
AcDbBlockReference
  2
_OPEN30
 10
-143.4643758745436
 20
-66.61249999999995
 30
0.0
 41
3.000002787824364
 42
2.999989273978464
 50
270.0
  0
INSERT
  5
11A
330
90
100
AcDbEntity
  8
0
 62
     4
100
AcDbBlockReference
  2
_OPEN30
 10
-143.4643758745436
 20
23.38750000000006
 30
0.0
 41
3.000002787824364
 42
2.999989273978464
 50
90.0
  0
LINE
  5
11B
330
90
100
AcDbEntity
  8
0
  6
Continuous
 62
     4
370
    13
100
AcDbLine
 10
-113.4643758745436
 20
-66.61249999999995
 30
0.0
 11
-144.4643758745436
 21
-66.61249999999995
 31
0.0
  0
LINE
  5
11C
330
90
100
AcDbEntity
  8
0
  6
Continuous
 62
     4
370
    13
100
AcDbLine
 10
-113.4643758745436
 20
23.38750000000006
 30
0.0
 11
-144.4643758745436
 21
23.38750000000006
 31
0.0
  0
MTEXT
  5
11D
330
90
100
AcDbEntity
  8
0
 62
     2
100
AcDbMText
 10
-144.4643758745436
 20
-21.61249999999995
 30
0.0
 40
3.0
 41
15.75000000000003
 71
     8
 72
     1
  1
\T1.00;90mm
  7
dcStyle0
 11
6.123031769111886E-17
 21
1.0
 31
0.0
 73
     1
 44
1.0
  0
ENDBLK
  5
92
330
90
100
AcDbEntity
  8
0
100
AcDbBlockEnd
  0
BLOCK
  5
94
330
93
100
AcDbEntity
  8
0
100
AcDbBlockBegin
  2
*D11
 70
     1
 10
0.0
 20
0.0
 30
0.0
  3
*D11
  1

  0
LINE
  5
11E
330
93
100
AcDbEntity
  8
0
  6
Continuous
 62
     4
370
    13
100
AcDbLine
 10
-135.4643758745436
 20
-54.11249999999995
 30
0.0
 11
-135.4643758745436
 21
10.88750000000005
 31
0.0
  0
INSERT
  5
11F
330
93
100
AcDbEntity
  8
0
 62
     4
100
AcDbBlockReference
  2
_OPEN30
 10
-135.4643758745436
 20
-54.11249999999995
 30
0.0
 41
3.000002787824364
 42
2.999989273978464
 50
270.0
  0
INSERT
  5
120
330
93
100
AcDbEntity
  8
0
 62
     4
100
AcDbBlockReference
  2
_OPEN30
 10
-135.4643758745436
 20
10.88750000000005
 30
0.0
 41
3.000002787824364
 42
2.999989273978464
 50
90.0
  0
LINE
  5
121
330
93
100
AcDbEntity
  8
0
  6
Continuous
 62
     4
370
    13
100
AcDbLine
 10
-108.7143758745436
 20
-54.11249999999995
 30
0.0
 11
-136.4643758745436
 21
-54.11249999999995
 31
0.0
  0
LINE
  5
122
330
93
100
AcDbEntity
  8
0
  6
Continuous
 62
     4
370
    13
100
AcDbLine
 10
-108.7143758745436
 20
10.88750000000005
 30
0.0
 11
-136.4643758745436
 21
10.88750000000005
 31
0.0
  0
MTEXT
  5
123
330
93
100
AcDbEntity
  8
0
 62
     2
100
AcDbMText
 10
-136.4643758745436
 20
-21.61249999999995
 30
0.0
 40
3.0
 41
15.75000000000003
 71
     8
 72
     1
  1
\T1.00;65mm
  7
dcStyle0
 11
6.123031769111886E-17
 21
1.0
 31
0.0
 73
     1
 44
1.0
  0
ENDBLK
  5
95
330
93
100
AcDbEntity
  8
0
100
AcDbBlockEnd
  0
BLOCK
  5
97
330
96
100
AcDbEntity
  8
0
100
AcDbBlockBegin
  2
*D12
 70
     1
 10
0.0
 20
0.0
 30
0.0
  3
*D12
  1

  0
LINE
  5
124
330
96
100
AcDbEntity
  8
0
  6
Continuous
 62
     4
370
    13
100
AcDbLine
 10
-127.4643758745436
 20
-41.61249999999995
 30
0.0
 11
-127.4643758745436
 21
-1.612499999999946
 31
0.0
  0
INSERT
  5
125
330
96
100
AcDbEntity
  8
0
 62
     4
100
AcDbBlockReference
  2
_OPEN30
 10
-127.4643758745436
 20
-41.61249999999995
 30
0.0
 41
3.000002787824364
 42
2.999989273978464
 50
270.0
  0
INSERT
  5
126
330
96
100
AcDbEntity
  8
0
 62
     4
100
AcDbBlockReference
  2
_OPEN30
 10
-127.4643758745436
 20
-1.612499999999946
 30
0.0
 41
3.000002787824364
 42
2.999989273978464
 50
90.0
  0
LINE
  5
127
330
96
100
AcDbEntity
  8
0
  6
Continuous
 62
     4
370
    13
100
AcDbLine
 10
-109.9643758745436
 20
-41.61249999999995
 30
0.0
 11
-128.4643758745436
 21
-41.61249999999995
 31
0.0
  0
LINE
  5
128
330
96
100
AcDbEntity
  8
0
  6
Continuous
 62
     4
370
    13
100
AcDbLine
 10
-109.9643758745436
 20
-1.612499999999946
 30
0.0
 11
-128.4643758745436
 21
-1.612499999999946
 31
0.0
  0
MTEXT
  5
129
330
96
100
AcDbEntity
  8
0
 62
     2
100
AcDbMText
 10
-128.4643758745436
 20
-21.61249999999995
 30
0.0
 40
3.0
 41
15.75000000000001
 71
     8
 72
     1
  1
\T1.00;40mm
  7
dcStyle0
 11
6.123031769111886E-17
 21
1.0
 31
0.0
 73
     1
 44
1.0
  0
ENDBLK
  5
98
330
96
100
AcDbEntity
  8
0
100
AcDbBlockEnd
  0
BLOCK
  5
9A
330
99
100
AcDbEntity
  8
0
100
AcDbBlockBegin
  2
*D13
 70
     1
 10
0.0
 20
0.0
 30
0.0
  3
*D13
  1

  0
LINE
  5
12A
330
99
100
AcDbEntity
  8
0
  6
Continuous
 62
     4
370
    13
100
AcDbLine
 10
-108.9643758745436
 20
-81.61249999999995
 30
0.0
 11
-87.96437587454363
 21
-81.61249999999995
 31
0.0
  0
INSERT
  5
12B
330
99
100
AcDbEntity
  8
0
 62
     4
100
AcDbBlockReference
  2
_OPEN30
 10
-108.9643758745436
 20
-81.61249999999995
 30
0.0
 41
3.000002787824364
 42
2.999989273978464
 50
180.0
  0
INSERT
  5
12C
330
99
100
AcDbEntity
  8
0
 62
     4
100
AcDbBlockReference
  2
_OPEN30
 10
-87.96437587454363
 20
-81.61249999999995
 30
0.0
 41
3.000002787824364
 42
2.999989273978464
 50
360.0
  0
LINE
  5
12D
330
99
100
AcDbEntity
  8
0
  6
Continuous
 62
     4
370
    13
100
AcDbLine
 10
-108.9643758745436
 20
-42.61249999999995
 30
0.0
 11
-108.9643758745436
 21
-82.61249999999995
 31
0.0
  0
LINE
  5
12E
330
99
100
AcDbEntity
  8
0
  6
Continuous
 62
     4
370
    13
100
AcDbLine
 10
-87.96437587454363
 20
-42.61249999999995
 30
0.0
 11
-87.96437587454363
 21
-82.61249999999995
 31
0.0
  0
MTEXT
  5
12F
330
99
100
AcDbEntity
  8
0
 62
     2
100
AcDbMText
 10
-98.46437587454363
 20
-80.61249999999995
 30
0.0
 40
3.0
 41
15.74999999999999
 71
     8
 72
     1
  1
\T1.00;21mm
  7
dcStyle0
 73
     1
 44
1.0
  0
ENDBLK
  5
9B
330
99
100
AcDbEntity
  8
0
100
AcDbBlockEnd
  0
BLOCK
  5
9D
330
9C
100
AcDbEntity
  8
0
100
AcDbBlockBegin
  2
*D14
 70
     1
 10
0.0
 20
0.0
 30
0.0
  3
*D14
  1

  0
LINE
  5
130
330
9C
100
AcDbEntity
  8
0
  6
Continuous
 62
     4
370
    13
100
AcDbLine
 10
-108.9643758745436
 20
-139.6125
 30
0.0
 11
-87.96437587454362
 21
-139.6125
 31
0.0
  0
INSERT
  5
131
330
9C
100
AcDbEntity
  8
0
 62
     4
100
AcDbBlockReference
  2
_OPEN30
 10
-108.9643758745436
 20
-139.6125
 30
0.0
 41
3.000002787824364
 42
2.999989273978464
 50
180.0
  0
INSERT
  5
132
330
9C
100
AcDbEntity
  8
0
 62
     4
100
AcDbBlockReference
  2
_OPEN30
 10
-87.96437587454362
 20
-139.6125
 30
0.0
 41
3.000002787824364
 42
2.999989273978464
 50
360.0
  0
LINE
  5
133
330
9C
100
AcDbEntity
  8
0
  6
Continuous
 62
     4
370
    13
100
AcDbLine
 10
-108.9643758745436
 20
-125.6125
 30
0.0
 11
-108.9643758745436
 21
-140.6125
 31
0.0
  0
LINE
  5
134
330
9C
100
AcDbEntity
  8
0
  6
Continuous
 62
     4
370
    13
100
AcDbLine
 10
-87.96437587454362
 20
-125.6125
 30
0.0
 11
-87.96437587454362
 21
-140.6125
 31
0.0
  0
MTEXT
  5
135
330
9C
100
AcDbEntity
  8
0
 62
     2
100
AcDbMText
 10
-98.46437587454363
 20
-138.6125
 30
0.0
 40
3.0
 41
15.74999999999999
 71
     8
 72
     1
  1
\T1.00;21mm
  7
dcStyle0
 73
     1
 44
1.0
  0
ENDBLK
  5
9E
330
9C
100
AcDbEntity
  8
0
100
AcDbBlockEnd
  0
BLOCK
  5
A0
330
9F
100
AcDbEntity
  8
0
100
AcDbBlockBegin
  2
*D15
 70
     1
 10
0.0
 20
0.0
 30
0.0
  3
*D15
  1

  0
LINE
  5
136
330
9F
100
AcDbEntity
  8
0
  6
Continuous
 62
     4
370
    13
100
AcDbLine
 10
-69.46437587454362
 20
-124.6125
 30
0.0
 11
-69.46437587454362
 21
-104.1125
 31
0.0
  0
INSERT
  5
137
330
9F
100
AcDbEntity
  8
0
 62
     4
100
AcDbBlockReference
  2
_OPEN30
 10
-69.46437587454362
 20
-124.6125
 30
0.0
 41
3.000002787824364
 42
2.999989273978464
 50
270.0
  0
INSERT
  5
138
330
9F
100
AcDbEntity
  8
0
 62
     4
100
AcDbBlockReference
  2
_OPEN30
 10
-69.46437587454362
 20
-104.1125
 30
0.0
 41
3.000002787824364
 42
2.999989273978464
 50
90.0
  0
LINE
  5
139
330
9F
100
AcDbEntity
  8
0
  6
Continuous
 62
     4
370
    13
100
AcDbLine
 10
-86.96437587454362
 20
-124.6125
 30
0.0
 11
-68.46437587454362
 21
-124.6125
 31
0.0
  0
LINE
  5
13A
330
9F
100
AcDbEntity
  8
0
  6
Continuous
 62
     4
370
    13
100
AcDbLine
 10
-83.46437587454362
 20
-104.1125
 30
0.0
 11
-68.46437587454362
 21
-104.1125
 31
0.0
  0
MTEXT
  5
13B
330
9F
100
AcDbEntity
  8
0
 62
     2
100
AcDbMText
 10
-70.46437587454362
 20
-114.3625
 30
0.0
 40
3.0
 41
21.75000000000001
 71
     8
 72
     1
  1
\T1.00;20.5mm
  7
dcStyle0
 11
6.123031769111886E-17
 21
1.0
 31
0.0
 73
     1
 44
1.0
  0
ENDBLK
  5
A1
330
9F
100
AcDbEntity
  8
0
100
AcDbBlockEnd
  0
BLOCK
  5
A3
330
A2
100
AcDbEntity
  8
0
100
AcDbBlockBegin
  2
*D16
 70
     1
 10
0.0
 20
0.0
 30
0.0
  3
*D16
  1

  0
LINE
  5
13C
330
A2
100
AcDbEntity
  8
0
  6
Continuous
 62
     4
370
    13
100
AcDbLine
 10
-69.46437587454362
 20
-104.1125
 30
0.0
 11
-69.46437587454362
 21
-102.6125
 31
0.0
  0
LINE
  5
13D
330
A2
100
AcDbEntity
  8
0
  6
Continuous
 62
     4
370
    13
100
AcDbLine
 10
-83.46437587454362
 20
-104.1125
 30
0.0
 11
-68.46437587454362
 21
-104.1125
 31
0.0
  0
LINE
  5
13E
330
A2
100
AcDbEntity
  8
0
  6
Continuous
 62
     4
370
    13
100
AcDbLine
 10
-83.46437587454362
 20
-102.6125
 30
0.0
 11
-68.46437587454362
 21
-102.6125
 31
0.0
  0
LINE
  5
13F
330
A2
100
AcDbEntity
  8
0
  6
Continuous
 62
     4
370
    13
100
AcDbLine
 10
-69.46437587454362
 20
-85.71471999999996
 30
0.0
 11
-69.46437587454362
 21
-102.6125
 31
0.0
  0
INSERT
  5
140
330
A2
100
AcDbEntity
  8
0
 62
     4
100
AcDbBlockReference
  2
_OPEN30
 10
-69.46437587454362
 20
-102.6125
 30
0.0
 41
3.000002787824364
 42
2.999989273978464
 50
270.0
  0
MTEXT
  5
141
330
A2
100
AcDbEntity
  8
0
 62
     2
100
AcDbMText
 10
-70.46437587454362
 20
-98.71471999999996
 30
0.0
 40
3.0
 41
18.75
 71
     7
 72
     1
  1
\T1.00;1.5mm
  7
dcStyle0
 11
6.123031769111886E-17
 21
1.0
 31
0.0
 73
     1
 44
1.0
  0
ENDBLK
  5
A4
330
A2
100
AcDbEntity
  8
0
100
AcDbBlockEnd
  0
BLOCK
  5
A6
330
A5
100
AcDbEntity
  8
0
100
AcDbBlockBegin
  2
*D17
 70
     1
 10
0.0
 20
0.0
 30
0.0
  3
*D17
  1

  0
LINE
  5
142
330
A5
100
AcDbEntity
  8
0
  6
Continuous
 62
     4
370
    13
100
AcDbLine
 10
-61.46437587454362
 20
-124.6125
 30
0.0
 11
-61.46437587454362
 21
-102.6125
 31
0.0
  0
INSERT
  5
143
330
A5
100
AcDbEntity
  8
0
 62
     4
100
AcDbBlockReference
  2
_OPEN30
 10
-61.46437587454362
 20
-124.6125
 30
0.0
 41
3.000002787824364
 42
2.999989273978464
 50
270.0
  0
INSERT
  5
144
330
A5
100
AcDbEntity
  8
0
 62
     4
100
AcDbBlockReference
  2
_OPEN30
 10
-61.46437587454362
 20
-102.6125
 30
0.0
 41
3.000002787824364
 42
2.999989273978464
 50
90.0
  0
LINE
  5
145
330
A5
100
AcDbEntity
  8
0
  6
Continuous
 62
     4
370
    13
100
AcDbLine
 10
-86.96437587454362
 20
-124.6125
 30
0.0
 11
-60.46437587454362
 21
-124.6125
 31
0.0
  0
LINE
  5
146
330
A5
100
AcDbEntity
  8
0
  6
Continuous
 62
     4
370
    13
100
AcDbLine
 10
-83.46437587454362
 20
-102.6125
 30
0.0
 11
-60.46437587454362
 21
-102.6125
 31
0.0
  0
MTEXT
  5
147
330
A5
100
AcDbEntity
  8
0
 62
     2
100
AcDbMText
 10
-62.46437587454362
 20
-113.6125
 30
0.0
 40
3.0
 41
15.74999999999999
 71
     8
 72
     1
  1
\T1.00;22mm
  7
dcStyle0
 11
6.123031769111886E-17
 21
1.0
 31
0.0
 73
     1
 44
1.0
  0
ENDBLK
  5
A7
330
A5
100
AcDbEntity
  8
0
100
AcDbBlockEnd
  0
BLOCK
  5
A9
330
A8
100
AcDbEntity
  8
0
100
AcDbBlockBegin
  2
DC_GROUP_KL500面付本締錠_2
 70
     0
 10
0.0
 20
0.0
 30
0.0
  3
DC_GROUP_KL500面付本締錠_2
  1

  0
LINE
  5
148
330
A8
100
AcDbEntity
  8
0
  6
Continuous
 62
     9
370
    13
100
AcDbLine
 10
88.00009021952363
 20
116.6019660940673
 30
0.0
 11
90.03562412545638
 21
118.6375
 31
0.0
  0
LINE
  5
149
330
A8
100
AcDbEntity
  8
0
  6
Continuous
 62
     9
370
    13
100
AcDbLine
 10
93.03562412545637
 20
121.6375
 30
0.0
 11
95.0711580313891
 21
123.6730339059328
 31
0.0
  0
LINE
  5
14A
330
A8
100
AcDbEntity
  8
0
  6
Continuous
 62
     9
370
    13
100
AcDbLine
 10
87.36441572913206
 20
117.3805051660488
 30
0.0
 11
88.62141056308327
 21
118.6375
 31
0.0
  0
LINE
  5
14B
330
A8
100
AcDbEntity
  8
0
  6
Continuous
 62
     9
370
    13
100
AcDbLine
 10
91.62141056308326
 20
121.6375
 30
0.0
 11
94.29261895940756
 21
124.3087083963243
 31
0.0
  0
LINE
  5
14C
330
A8
100
AcDbEntity
  8
0
  6
Continuous
 62
     9
370
    13
100
AcDbLine
 10
86.88104021387933
 20
118.3113432131692
 30
0.0
 11
87.20719700071017
 21
118.6375
 31
0.0
  0
LINE
  5
14D
330
A8
100
AcDbEntity
  8
0
  6
Continuous
 62
     9
370
    13
100
AcDbLine
 10
90.20719700071015
 20
121.6375
 30
0.0
 11
93.36178091228719
 21
124.792083911577
 31
0.0
  0
LINE
  5
14E
330
A8
100
AcDbEntity
  8
0
  6
Continuous
 62
     9
370
    13
100
AcDbLine
 10
86.58587665715052
 20
119.4303932188135
 30
0.0
 11
87.03562412545637
 21
119.8801406871193
 31
0.0
  0
LINE
  5
14F
330
A8
100
AcDbEntity
  8
0
  6
Continuous
 62
     9
370
    13
100
AcDbLine
 10
88.79298343833705
 20
121.6375
 30
0.0
 11
92.24273090664289
 21
125.0872474683058
 31
0.0
  0
LINE
  5
150
330
A8
100
AcDbEntity
  8
0
  6
Continuous
 62
     9
370
    13
100
AcDbLine
 10
86.58587665715054
 20
120.8446067811866
 30
0.0
 11
87.03562412545637
 21
121.2943542494924
 31
0.0
  0
LINE
  5
151
330
A8
100
AcDbEntity
  8
0
  6
Continuous
 62
     9
370
    13
100
AcDbLine
 10
87.37876987596394
 20
121.6375
 30
0.0
 11
90.82851734426977
 21
125.0872474683058
 31
0.0
  0
LINE
  5
152
330
A8
100
AcDbEntity
  8
0
  6
Continuous
 62
     9
370
    13
100
AcDbLine
 10
88.77862929150517
 20
115.9662916036757
 30
0.0
 11
91.44983768782949
 21
118.6375
 31
0.0
  0
LINE
  5
153
330
A8
100
AcDbEntity
  8
0
  6
Continuous
 62
     9
370
    13
100
AcDbLine
 10
94.44983768782947
 20
121.6375
 30
0.0
 11
95.70683252178067
 21
122.8944948339512
 31
0.0
  0
LINE
  5
154
330
A8
100
AcDbEntity
  8
0
  6
Continuous
 62
     9
370
    13
100
AcDbLine
 10
89.70946733862554
 20
115.482916088423
 30
0.0
 11
92.86405125020259
 21
118.6375
 31
0.0
  0
LINE
  5
155
330
A8
100
AcDbEntity
  8
0
  6
Continuous
 62
     9
370
    13
100
AcDbLine
 10
95.86405125020258
 20
121.6375
 30
0.0
 11
96.1902080370334
 21
121.9636567868308
 31
0.0
  0
LINE
  5
156
330
A8
100
AcDbEntity
  8
0
  6
Continuous
 62
     9
370
    13
100
AcDbLine
 10
90.82851734426986
 20
115.1877525316942
 30
0.0
 11
94.2782648125757
 21
118.6375
 31
0.0
  0
LINE
  5
157
330
A8
100
AcDbEntity
  8
0
  6
Continuous
 62
     9
370
    13
100
AcDbLine
 10
96.03562412545637
 20
120.3948593128807
 30
0.0
 11
96.4853715937622
 21
120.8446067811865
 31
0.0
  0
LINE
  5
158
330
A8
100
AcDbEntity
  8
0
  6
Continuous
 62
     9
370
    13
100
AcDbLine
 10
92.24273090664298
 20
115.1877525316942
 30
0.0
 11
95.6924783749488
 21
118.6375
 31
0.0
  0
LINE
  5
159
330
A8
100
AcDbEntity
  8
0
  6
Continuous
 62
     9
370
    13
100
AcDbLine
 10
96.03562412545637
 20
118.9806457505076
 30
0.0
 11
96.48537159376218
 21
119.4303932188134
 31
0.0
  0
ENDBLK
  5
AA
330
A8
100
AcDbEntity
  8
0
100
AcDbBlockEnd
  0
BLOCK
  5
AC
330
AB
100
AcDbEntity
  8
0
100
AcDbBlockBegin
  2
DC_GROUP_KL500面付本締錠_3
 70
     0
 10
0.0
 20
0.0
 30
0.0
  3
DC_GROUP_KL500面付本締錠_3
  1

  0
LINE
  5
15A
330
AB
100
AcDbEntity
  8
0
  6
Continuous
 62
     9
370
    13
100
AcDbLine
 10
88.00009021952363
 20
-66.39803390593273
 30
0.0
 11
90.03562412545638
 21
-64.3625
 31
0.0
  0
LINE
  5
15B
330
AB
100
AcDbEntity
  8
0
  6
Continuous
 62
     9
370
    13
100
AcDbLine
 10
93.03562412545637
 20
-61.36250000000001
 30
0.0
 11
95.0711580313891
 21
-59.32696609406725
 31
0.0
  0
LINE
  5
15C
330
AB
100
AcDbEntity
  8
0
  6
Continuous
 62
     9
370
    13
100
AcDbLine
 10
87.36441572913206
 20
-65.61949483395121
 30
0.0
 11
88.62141056308327
 21
-64.3625
 31
0.0
  0
LINE
  5
15D
330
AB
100
AcDbEntity
  8
0
  6
Continuous
 62
     9
370
    13
100
AcDbLine
 10
91.62141056308326
 20
-61.36250000000001
 30
0.0
 11
94.29261895940756
 21
-58.69129160367569
 31
0.0
  0
LINE
  5
15E
330
AB
100
AcDbEntity
  8
0
  6
Continuous
 62
     9
370
    13
100
AcDbLine
 10
86.88104021387933
 20
-64.68865678683083
 30
0.0
 11
87.20719700071017
 21
-64.3625
 31
0.0
  0
LINE
  5
15F
330
AB
100
AcDbEntity
  8
0
  6
Continuous
 62
     9
370
    13
100
AcDbLine
 10
90.20719700071015
 20
-61.36250000000001
 30
0.0
 11
93.36178091228719
 21
-58.20791608842296
 31
0.0
  0
LINE
  5
160
330
AB
100
AcDbEntity
  8
0
  6
Continuous
 62
     9
370
    13
100
AcDbLine
 10
86.58587665715052
 20
-63.56960678118654
 30
0.0
 11
87.03562412545637
 21
-63.11985931288069
 31
0.0
  0
LINE
  5
161
330
AB
100
AcDbEntity
  8
0
  6
Continuous
 62
     9
370
    13
100
AcDbLine
 10
88.79298343833705
 20
-61.36250000000001
 30
0.0
 11
92.24273090664289
 21
-57.91275253169417
 31
0.0
  0
LINE
  5
162
330
AB
100
AcDbEntity
  8
0
  6
Continuous
 62
     9
370
    13
100
AcDbLine
 10
86.58587665715054
 20
-62.15539321881342
 30
0.0
 11
87.03562412545637
 21
-61.70564575050759
 31
0.0
  0
LINE
  5
163
330
AB
100
AcDbEntity
  8
0
  6
Continuous
 62
     9
370
    13
100
AcDbLine
 10
87.37876987596394
 20
-61.36250000000001
 30
0.0
 11
90.82851734426977
 21
-57.91275253169417
 31
0.0
  0
LINE
  5
164
330
AB
100
AcDbEntity
  8
0
  6
Continuous
 62
     9
370
    13
100
AcDbLine
 10
88.77862929150517
 20
-67.03370839632431
 30
0.0
 11
91.44983768782949
 21
-64.3625
 31
0.0
  0
LINE
  5
165
330
AB
100
AcDbEntity
  8
0
  6
Continuous
 62
     9
370
    13
100
AcDbLine
 10
94.44983768782947
 20
-61.36250000000001
 30
0.0
 11
95.70683252178067
 21
-60.10550516604881
 31
0.0
  0
LINE
  5
166
330
AB
100
AcDbEntity
  8
0
  6
Continuous
 62
     9
370
    13
100
AcDbLine
 10
89.70946733862554
 20
-67.51708391157705
 30
0.0
 11
92.86405125020259
 21
-64.3625
 31
0.0
  0
LINE
  5
167
330
AB
100
AcDbEntity
  8
0
  6
Continuous
 62
     9
370
    13
100
AcDbLine
 10
95.86405125020258
 20
-61.36250000000001
 30
0.0
 11
96.1902080370334
 21
-61.03634321316919
 31
0.0
  0
LINE
  5
168
330
AB
100
AcDbEntity
  8
0
  6
Continuous
 62
     9
370
    13
100
AcDbLine
 10
90.82851734426986
 20
-67.81224746830584
 30
0.0
 11
94.2782648125757
 21
-64.3625
 31
0.0
  0
LINE
  5
169
330
AB
100
AcDbEntity
  8
0
  6
Continuous
 62
     9
370
    13
100
AcDbLine
 10
96.03562412545637
 20
-62.60514068711933
 30
0.0
 11
96.4853715937622
 21
-62.1553932188135
 31
0.0
  0
LINE
  5
16A
330
AB
100
AcDbEntity
  8
0
  6
Continuous
 62
     9
370
    13
100
AcDbLine
 10
92.24273090664298
 20
-67.81224746830583
 30
0.0
 11
95.6924783749488
 21
-64.3625
 31
0.0
  0
LINE
  5
16B
330
AB
100
AcDbEntity
  8
0
  6
Continuous
 62
     9
370
    13
100
AcDbLine
 10
96.03562412545637
 20
-64.01935424949244
 30
0.0
 11
96.48537159376218
 21
-63.56960678118662
 31
0.0
  0
ENDBLK
  5
AD
330
AB
100
AcDbEntity
  8
0
100
AcDbBlockEnd
  0
BLOCK
  5
AF
330
AE
100
AcDbEntity
  8
0
100
AcDbBlockBegin
  2
*D20
 70
     1
 10
0.0
 20
0.0
 30
0.0
  3
*D20
  1

  0
LINE
  5
16C
330
AE
100
AcDbEntity
  8
0
  6
Continuous
 62
     4
370
    13
100
AcDbLine
 10
146.5356241254564
 20
-40.8625
 30
0.0
 11
146.5356241254564
 21
-21.61249999999995
 31
0.0
  0
INSERT
  5
16D
330
AE
100
AcDbEntity
  8
0
 62
     4
100
AcDbBlockReference
  2
_OPEN30
 10
146.5356241254564
 20
-40.8625
 30
0.0
 41
3.000002787824364
 42
2.999989273978464
 50
270.0
  0
INSERT
  5
16E
330
AE
100
AcDbEntity
  8
0
 62
     4
100
AcDbBlockReference
  2
_OPEN30
 10
146.5356241254564
 20
-21.61249999999995
 30
0.0
 41
3.000002787824364
 42
2.999989273978464
 50
90.0
  0
LINE
  5
16F
330
AE
100
AcDbEntity
  8
0
  6
Continuous
 62
     4
370
    13
100
AcDbLine
 10
109.5356241254564
 20
-40.8625
 30
0.0
 11
147.5356241254564
 21
-40.8625
 31
0.0
  0
LINE
  5
170
330
AE
100
AcDbEntity
  8
0
  6
Continuous
 62
     4
370
    13
100
AcDbLine
 10
140.5356241254564
 20
-21.61249999999995
 30
0.0
 11
147.5356241254564
 21
-21.61249999999995
 31
0.0
  0
MTEXT
  5
171
330
AE
100
AcDbEntity
  8
0
 62
     2
100
AcDbMText
 10
145.5356241254564
 20
-31.23749999999998
 30
0.0
 40
3.0
 41
15.75000000000003
 71
     8
 72
     1
  1
\T1.00;19mm
  7
dcStyle0
 11
6.123031769111886E-17
 21
1.0
 31
0.0
 73
     1
 44
1.0
  0
ENDBLK
  5
B0
330
AE
100
AcDbEntity
  8
0
100
AcDbBlockEnd
  0
BLOCK
  5
B2
330
B1
100
AcDbEntity
  8
0
100
AcDbBlockBegin
  2
*D21
 70
     1
 10
0.0
 20
0.0
 30
0.0
  3
*D21
  1

  0
LINE
  5
172
330
B1
100
AcDbEntity
  8
0
  6
Continuous
 62
     4
370
    13
100
AcDbLine
 10
154.5356241254564
 20
-62.8625
 30
0.0
 11
154.5356241254564
 21
-40.8625
 31
0.0
  0
INSERT
  5
173
330
B1
100
AcDbEntity
  8
0
 62
     4
100
AcDbBlockReference
  2
_OPEN30
 10
154.5356241254564
 20
-62.8625
 30
0.0
 41
3.000002787824364
 42
2.999989273978464
 50
270.0
  0
INSERT
  5
174
330
B1
100
AcDbEntity
  8
0
 62
     4
100
AcDbBlockReference
  2
_OPEN30
 10
154.5356241254564
 20
-40.8625
 30
0.0
 41
3.000002787824364
 42
2.999989273978464
 50
90.0
  0
LINE
  5
175
330
B1
100
AcDbEntity
  8
0
  6
Continuous
 62
     4
370
    13
100
AcDbLine
 10
102.5356241254564
 20
-62.8625
 30
0.0
 11
155.5356241254564
 21
-62.8625
 31
0.0
  0
LINE
  5
176
330
B1
100
AcDbEntity
  8
0
  6
Continuous
 62
     4
370
    13
100
AcDbLine
 10
109.5356241254564
 20
-40.8625
 30
0.0
 11
155.5356241254564
 21
-40.8625
 31
0.0
  0
MTEXT
  5
177
330
B1
100
AcDbEntity
  8
0
 62
     2
100
AcDbMText
 10
153.5356241254564
 20
-51.8625
 30
0.0
 40
3.0
 41
15.75000000000003
 71
     8
 72
     1
  1
\T1.00;22mm
  7
dcStyle0
 11
6.123031769111886E-17
 21
1.0
 31
0.0
 73
     1
 44
1.0
  0
ENDBLK
  5
B3
330
B1
100
AcDbEntity
  8
0
100
AcDbBlockEnd
  0
BLOCK
  5
B5
330
B4
100
AcDbEntity
  8
0
100
AcDbBlockBegin
  2
*D22
 70
     1
 10
0.0
 20
0.0
 30
0.0
  3
*D22
  1

  0
LINE
  5
178
330
B4
100
AcDbEntity
  8
0
  6
Continuous
 62
     4
370
    13
100
AcDbLine
 10
154.5356241254564
 20
-40.8625
 30
0.0
 11
154.5356241254564
 21
120.1375
 31
0.0
  0
INSERT
  5
179
330
B4
100
AcDbEntity
  8
0
 62
     4
100
AcDbBlockReference
  2
_OPEN30
 10
154.5356241254564
 20
-40.8625
 30
0.0
 41
3.000002787824364
 42
2.999989273978464
 50
270.0
  0
INSERT
  5
17A
330
B4
100
AcDbEntity
  8
0
 62
     4
100
AcDbBlockReference
  2
_OPEN30
 10
154.5356241254564
 20
120.1375
 30
0.0
 41
3.000002787824364
 42
2.999989273978464
 50
90.0
  0
LINE
  5
17B
330
B4
100
AcDbEntity
  8
0
  6
Continuous
 62
     4
370
    13
100
AcDbLine
 10
109.5356241254564
 20
-40.8625
 30
0.0
 11
155.5356241254564
 21
-40.8625
 31
0.0
  0
LINE
  5
17C
330
B4
100
AcDbEntity
  8
0
  6
Continuous
 62
     4
370
    13
100
AcDbLine
 10
102.5356241254564
 20
120.1375
 30
0.0
 11
155.5356241254564
 21
120.1375
 31
0.0
  0
MTEXT
  5
17D
330
B4
100
AcDbEntity
  8
0
 62
     2
100
AcDbMText
 10
153.5356241254564
 20
39.6375
 30
0.0
 40
3.0
 41
18.75
 71
     8
 72
     1
  1
\T1.00;161mm
  7
dcStyle0
 11
6.123031769111886E-17
 21
1.0
 31
0.0
 73
     1
 44
1.0
  0
ENDBLK
  5
B6
330
B4
100
AcDbEntity
  8
0
100
AcDbBlockEnd
  0
BLOCK
  5
B8
330
B7
100
AcDbEntity
  8
0
100
AcDbBlockBegin
  2
DA_IMAGEDIMGROUP_1
 70
     0
 10
0.0
 20
0.0
 30
0.0
  3
DA_IMAGEDIMGROUP_1
  1

  0
LINE
  5
17E
330
B7
100
AcDbEntity
  8
0
  6
Continuous
 62
     4
370
    13
100
AcDbLine
 10
70.53562412545641
 20
-32.61249999999994
 30
0.0
 11
70.53562412545641
 21
-47.61249999999994
 31
0.0
  0
LINE
  5
17F
330
B7
100
AcDbEntity
  8
0
  6
Continuous
 62
     4
370
    13
100
AcDbLine
 10
70.53562412545641
 20
-46.61249999999994
 30
0.0
 11
71.5356241254564
 21
-46.61249999999994
 31
0.0
  0
LINE
  5
180
330
B7
100
AcDbEntity
  8
0
  6
Continuous
 62
     4
370
    13
100
AcDbLine
 10
42.23784412545639
 20
-46.61249999999994
 30
0.0
 11
70.5356241254564
 21
-46.61249999999994
 31
0.0
  0
INSERT
  5
181
330
B7
100
AcDbEntity
  8
0
 62
     4
100
AcDbBlockReference
  2
_OPEN30
 10
70.5356241254564
 20
-46.61249999999994
 30
0.0
 41
3.000002787824364
 42
2.999989273978464
 50
360.0
  0
LINE
  5
182
330
B7
100
AcDbEntity
  8
0
  6
Continuous
 62
     4
370
    13
100
AcDbLine
 10
76.5356241254564
 20
-46.61249999999994
 30
0.0
 11
71.5356241254564
 21
-46.61249999999994
 31
0.0
  0
INSERT
  5
183
330
B7
100
AcDbEntity
  8
0
 62
     4
100
AcDbBlockReference
  2
_OPEN30
 10
71.5356241254564
 20
-46.61249999999994
 30
0.0
 41
3.000002787824364
 42
2.999989273978464
 50
180.0
  0
MTEXT
  5
184
330
B7
100
AcDbEntity
  8
0
 62
     2
100
AcDbMText
 10
66.6378441254564
 20
-45.61249999999994
 30
0.0
 40
3.0
 41
33.00000000000001
 71
     9
 72
     1
  1
\T1.00;1mm(L=72解錠時)
  7
dcStyle0
 73
     1
 44
1.0
  0
ENDBLK
  5
B9
330
B7
100
AcDbEntity
  8
0
100
AcDbBlockEnd
  0
BLOCK
  5
BB
330
BA
100
AcDbEntity
  8
0
100
AcDbBlockBegin
  2
*D24
 70
     1
 10
0.0
 20
0.0
 30
0.0
  3
*D24
  1

  0
LINE
  5
185
330
BA
100
AcDbEntity
  8
0
  6
Continuous
 62
     4
370
    13
100
AcDbLine
 10
40.5356241254564
 20
-57.61249999999994
 30
0.0
 11
71.5356241254564
 21
-57.61249999999994
 31
0.0
  0
INSERT
  5
186
330
BA
100
AcDbEntity
  8
0
 62
     4
100
AcDbBlockReference
  2
_OPEN30
 10
40.5356241254564
 20
-57.61249999999994
 30
0.0
 41
3.000002787824364
 42
2.999989273978464
 50
180.0
  0
INSERT
  5
187
330
BA
100
AcDbEntity
  8
0
 62
     4
100
AcDbBlockReference
  2
_OPEN30
 10
71.5356241254564
 20
-57.61249999999994
 30
0.0
 41
3.000002787824364
 42
2.999989273978464
 50
360.0
  0
LINE
  5
188
330
BA
100
AcDbEntity
  8
0
  6
Continuous
 62
     4
370
    13
100
AcDbLine
 10
40.5356241254564
 20
-32.61249999999994
 30
0.0
 11
40.5356241254564
 21
-58.61249999999994
 31
0.0
  0
MTEXT
  5
189
330
BA
100
AcDbEntity
  8
0
 62
     2
100
AcDbMText
 10
56.03562412545639
 20
-56.61249999999994
 30
0.0
 40
3.0
 41
15.74999999999999
 71
     8
 72
     1
  1
\T1.00;31mm
  7
dcStyle0
 73
     1
 44
1.0
  0
ENDBLK
  5
BC
330
BA
100
AcDbEntity
  8
0
100
AcDbBlockEnd
  0
BLOCK
  5
BE
330
BD
100
AcDbEntity
  8
0
100
AcDbBlockBegin
  2
DC_GROUP_KL500面付本締錠_4
 70
     0
 10
0.0
 20
0.0
 30
0.0
  3
DC_GROUP_KL500面付本締錠_4
  1

  0
LINE
  5
18A
330
BD
100
AcDbEntity
  8
0
  6
Continuous
 62
     9
370
    13
100
AcDbLine
 10
81.58126806813851
 20
-41.81685605731786
 30
0.0
 11
92.48998018277422
 21
-30.90814394268214
 31
0.0
  0
LINE
  5
18B
330
BD
100
AcDbEntity
  8
0
  6
Continuous
 62
     9
370
    13
100
AcDbLine
 10
81.54458183369684
 20
-40.43932872938642
 30
0.0
 11
91.11245285484279
 21
-30.87145770824048
 31
0.0
  0
LINE
  5
18C
330
BD
100
AcDbEntity
  8
0
  6
Continuous
 62
     9
370
    13
100
AcDbLine
 10
81.74557801527601
 20
-38.82411898543416
 30
0.0
 11
89.49724311089054
 21
-31.07245388981963
 31
0.0
  0
LINE
  5
18D
330
BD
100
AcDbEntity
  8
0
  6
Continuous
 62
     9
370
    13
100
AcDbLine
 10
82.4327484413969
 20
-36.72273499694017
 30
0.0
 11
87.39585912239654
 21
-31.75962431594053
 31
0.0
  0
LINE
  5
18E
330
BD
100
AcDbEntity
  8
0
  6
Continuous
 62
     9
370
    13
100
AcDbLine
 10
81.77498752822265
 20
-43.03735015960682
 30
0.0
 11
93.71047428506319
 21
-31.10186340276628
 31
0.0
  0
LINE
  5
18F
330
BD
100
AcDbEntity
  8
0
  6
Continuous
 62
     9
370
    13
100
AcDbLine
 10
82.08761150029433
 20
-44.13893974990823
 30
0.0
 11
85.53562412545637
 21
-40.6909271247462
 31
0.0
  0
LINE
  5
190
330
BD
100
AcDbEntity
  8
0
  6
Continuous
 62
     9
370
    13
100
AcDbLine
 10
86.86405125020256
 20
-39.3625
 30
0.0
 11
94.81206387536461
 21
-31.41448737483796
 31
0.0
  0
LINE
  5
191
330
BD
100
AcDbEntity
  8
0
  6
Continuous
 62
     9
370
    13
100
AcDbLine
 10
82.49797434653935
 20
-45.1427904660363
 30
0.0
 11
85.53562412545637
 21
-42.1051406871193
 31
0.0
  0
LINE
  5
192
330
BD
100
AcDbEntity
  8
0
  6
Continuous
 62
     9
370
    13
100
AcDbLine
 10
88.27826481257566
 20
-39.3625
 30
0.0
 11
95.81591459149267
 21
-31.82485022108298
 31
0.0
  0
LINE
  5
193
330
BD
100
AcDbEntity
  8
0
  6
Continuous
 62
     9
370
    13
100
AcDbLine
 10
82.99340032596578
 20
-46.06157804898298
 30
0.0
 11
86.69247837494876
 21
-42.3625
 31
0.0
  0
LINE
  5
194
330
BD
100
AcDbEntity
  8
0
  6
Continuous
 62
     9
370
    13
100
AcDbLine
 10
89.69247837494876
 20
-39.3625
 30
0.0
 11
96.73470217443935
 21
-32.32027620050941
 31
0.0
  0
LINE
  5
195
330
BD
100
AcDbEntity
  8
0
  6
Continuous
 62
     9
370
    13
100
AcDbLine
 10
83.56617372352699
 20
-46.90301821379488
 30
0.0
 11
88.10669193732187
 21
-42.3625
 31
0.0
  0
LINE
  5
196
330
BD
100
AcDbEntity
  8
0
  6
Continuous
 62
     9
370
    13
100
AcDbLine
 10
91.10669193732187
 20
-39.3625
 30
0.0
 11
97.57614233925125
 21
-32.89304959807062
 31
0.0
  0
LINE
  5
197
330
BD
100
AcDbEntity
  8
0
  6
Continuous
 62
     9
370
    13
100
AcDbLine
 10
84.21188199078674
 20
-47.67152350890822
 30
0.0
 11
89.52090549969496
 21
-42.3625
 31
0.0
  0
LINE
  5
198
330
BD
100
AcDbEntity
  8
0
  6
Continuous
 62
     9
370
    13
100
AcDbLine
 10
92.52090549969496
 20
-39.3625
 30
0.0
 11
98.34464763436458
 21
-33.53875786533037
 31
0.0
  0
LINE
  5
199
330
BD
100
AcDbEntity
  8
0
  6
Continuous
 62
     9
370
    13
100
AcDbLine
 10
84.92862112242256
 20
-48.36899793964551
 30
0.0
 11
90.93511906206805
 21
-42.3625
 31
0.0
  0
LINE
  5
19A
330
BD
100
AcDbEntity
  8
0
  6
Continuous
 62
     9
370
    13
100
AcDbLine
 10
93.93511906206805
 20
-39.3625
 30
0.0
 11
99.04212206510186
 21
-34.25549699696619
 31
0.0
  0
LINE
  5
19B
330
BD
100
AcDbEntity
  8
0
  6
Continuous
 62
     9
370
    13
100
AcDbLine
 10
85.7166853558411
 20
-48.99514726860007
 30
0.0
 11
92.34933262444116
 21
-42.3625
 31
0.0
  0
LINE
  5
19C
330
BD
100
AcDbEntity
  8
0
  6
Continuous
 62
     9
370
    13
100
AcDbLine
 10
95.34933262444116
 20
-39.3625
 30
0.0
 11
99.66827139405643
 21
-35.04356123038472
 31
0.0
  0
LINE
  5
19D
330
BD
100
AcDbEntity
  8
0
  6
Continuous
 62
     9
370
    13
100
AcDbLine
 10
86.57861387074566
 20
-49.54743231606861
 30
0.0
 11
93.76354618681427
 21
-42.3625
 31
0.0
  0
LINE
  5
19E
330
BD
100
AcDbEntity
  8
0
  6
Continuous
 62
     9
370
    13
100
AcDbLine
 10
96.76354618681427
 20
-39.3625
 30
0.0
 11
100.220556441525
 21
-35.90548974528929
 31
0.0
  0
LINE
  5
19F
330
BD
100
AcDbEntity
  8
0
  6
Continuous
 62
     9
370
    13
100
AcDbLine
 10
87.51961289522824
 20
-50.02064685395913
 30
0.0
 11
95.17775974918736
 21
-42.3625
 31
0.0
  0
LINE
  5
1A0
330
BD
100
AcDbEntity
  8
0
  6
Continuous
 62
     9
370
    13
100
AcDbLine
 10
97.53562412545637
 20
-40.00463562373099
 30
0.0
 11
100.6937709794155
 21
-36.84648876977186
 31
0.0
  0
LINE
  5
1A1
330
BD
100
AcDbEntity
  8
0
  6
Continuous
 62
     9
370
    13
100
AcDbLine
 10
88.5485316581615
 20
-50.40594165339896
 30
0.0
 11
96.59197331156045
 21
-42.3625
 31
0.0
  0
LINE
  5
1A2
330
BD
100
AcDbEntity
  8
0
  6
Continuous
 62
     9
370
    13
100
AcDbLine
 10
97.53562412545637
 20
-41.41884918610409
 30
0.0
 11
101.0790657788553
 21
-37.87540753270513
 31
0.0
  0
LINE
  5
1A3
330
BD
100
AcDbEntity
  8
0
  6
Continuous
 62
     9
370
    13
100
AcDbLine
 10
89.67988398217365
 20
-50.6888028917599
 30
0.0
 11
101.3619270172163
 21
-39.00675985671729
 31
0.0
  0
LINE
  5
1A4
330
BD
100
AcDbEntity
  8
0
  6
Continuous
 62
     9
370
    13
100
AcDbLine
 10
90.93825865724025
 20
-50.8446417790664
 30
0.0
 11
101.5177659045228
 21
-40.26513453178389
 31
0.0
  0
LINE
  5
1A5
330
BD
100
AcDbEntity
  8
0
  6
Continuous
 62
     9
370
    13
100
AcDbLine
 10
92.36943680970919
 20
-50.82767718897055
 30
0.0
 11
101.5008013144269
 21
-41.69631268425283
 31
0.0
  0
LINE
  5
1A6
330
BD
100
AcDbEntity
  8
0
  6
Continuous
 62
     9
370
    13
100
AcDbLine
 10
94.07719913084647
 20
-50.53412843020637
 30
0.0
 11
101.2072525556627
 21
-43.4040750053901
 31
0.0
  0
LINE
  5
1A7
330
BD
100
AcDbEntity
  8
0
  6
Continuous
 62
     9
370
    13
100
AcDbLine
 10
96.45899495860937
 20
-49.56654616481658
 30
0.0
 11
100.239670290273
 21
-45.78587083315301
 31
0.0
  0
ENDBLK
  5
BF
330
BD
100
AcDbEntity
  8
0
100
AcDbBlockEnd
  0
BLOCK
  5
E6
330
E5
100
AcDbEntity
  8
0
100
AcDbBlockBegin
  2
_OPEN30
 70
     0
 10
0.0
 20
0.0
 30
0.0
  3
_OPEN30
  1

  0
LINE
  5
E8
330
E5
100
AcDbEntity
  8
0
  6
ByBlock
 62
     0
370
    -2
100
AcDbLine
 10
-1.0
 20
0.267949
 30
0.0
 11
0.0
 21
0.0
 31
0.0
  0
LINE
  5
E9
330
E5
100
AcDbEntity
  8
0
  6
ByBlock
 62
     0
370
    -2
100
AcDbLine
 10
0.0
 20
0.0
 30
0.0
 11
-1.0
 21
-0.267949
 31
0.0
  0
LINE
  5
EA
330
E5
100
AcDbEntity
  8
0
  6
ByBlock
 62
     0
370
    -2
100
AcDbLine
 10
0.0
 20
0.0
 30
0.0
 11
-1.0
 21
0.0
 31
0.0
  0
ENDBLK
  5
E7
330
E5
100
AcDbEntity
  8
0
100
AcDbBlockEnd
  0
ENDSEC
  0
SECTION
  2
ENTITIES
  0
TEXT
  5
1A8
330
1F
100
AcDbEntity
  8
0
 62
     2
100
AcDbText
 10
87.03562412545637
 20
118.6375
 30
0.0
 40
3.0
  1
φ10mm
 41
0.5236515971373712
  7
dcStyle0
 72
     5
 11
96.03562412545637
 21
118.6375
 31
0.0
100
AcDbText
  0
TEXT
  5
1A9
330
1F
100
AcDbEntity
  8
0
 62
     2
100
AcDbText
 10
85.53562412545637
 20
-42.3625
 30
0.0
 40
3.0
  1
φ20mm
 41
0.698202129516495
  7
dcStyle0
 72
     5
 11
97.53562412545637
 21
-42.3625
 31
0.0
100
AcDbText
  0
TEXT
  5
1AA
330
1F
100
AcDbEntity
  8
0
 62
     2
100
AcDbText
 10
-106.9643758745436
 20
41.38750000000007
 30
0.0
 40
10.0
  1
受座
 41
0.6444275966641395
  7
dcStyle0
 72
     5
 11
-89.96437587454363
 21
41.38750000000007
 31
0.0
100
AcDbText
  0
TEXT
  5
1AB
330
1F
100
AcDbEntity
  8
0
 62
     2
100
AcDbText
 10
4.535624125456366
 20
118.6375
 30
0.0
 40
10.0
  1
面付本締錠
 41
0.667172100075815
  7
dcStyle0
 72
     5
 11
48.53562412545637
 21
118.6375
 31
0.0
100
AcDbText
  0
TEXT
  5
1AC
330
1F
100
AcDbEntity
  8
0
 62
     2
100
AcDbText
 10
-40.96437587454363
 20
41.38750000000007
 30
0.0
 40
10.0
  1
面付受箱
 41
0.6633813495072024
  7
dcStyle0
 72
     5
 11
-5.964375874543634
 21
41.38750000000007
 31
0.0
100
AcDbText
  0
TEXT
  5
1AD
330
1F
100
AcDbEntity
  8
0
 62
     2
100
AcDbText
 10
87.03562412545637
 20
-64.3625
 30
0.0
 40
3.0
  1
φ10mm
 41
0.5236515971373712
  7
dcStyle0
 72
     5
 11
96.03562412545637
 21
-64.3625
 31
0.0
100
AcDbText
  0
TEXT
  5
1AE
330
1F
100
AcDbEntity
  8
0
 62
     2
100
AcDbText
 10
34.53562412545632
 20
10.38750000000005
 30
0.0
 40
3.0
  1
(L=110施錠時)
 41
0.8545182653279212
  7
dcStyle0
 72
     5
 11
58.53562412545632
 21
10.38750000000005
 31
0.0
100
AcDbText
  0
TEXT
  5
1AF
330
1F
100
AcDbEntity
  8
0
 62
     2
100
AcDbText
 10
52.53562412545631
 20
-0.6124999999999545
 30
0.0
 40
3.0
  1
(L=110解錠時)
 41
0.6408886989959409
  7
dcStyle0
 72
     5
 11
70.53562412545631
 21
-0.6124999999999545
 31
0.0
100
AcDbText
  0
TEXT
  5
1B0
330
1F
100
AcDbEntity
  8
0
 62
     2
100
AcDbText
 10
45.2356241254564
 20
-61.61249999999994
 30
0.0
 40
3.0
  1
(L=72施錠時)
 41
0.8588810688297742
  7
dcStyle0
 72
     5
 11
66.83562412545639
 21
-61.61249999999994
 31
0.0
100
AcDbText
  0
TEXT
  5
1B1
330
1F
100
AcDbEntity
  8
0
 62
     2
100
AcDbText
 10
100.3356241254564
 20
-2.362499999999997
 30
0.0
 40
3.0
  1
スペーサー全厚4.5mm以下及び未使用の
 41
0.6539153179663237
  7
dcStyle0
 72
     5
 11
148.3356241254564
 21
-2.362499999999997
 31
0.0
100
AcDbText
  0
TEXT
  5
1B2
330
1F
100
AcDbEntity
  8
0
 62
     2
100
AcDbText
 10
100.3356241254564
 20
-6.362499999999997
 30
0.0
 40
3.0
  1
場合は、φ18mmで穴加工してください。
 41
0.6271066865250453
  7
dcStyle0
 72
     5
 11
148.3356241254564
 21
-6.362499999999997
 31
0.0
100
AcDbText
  0
LINE
  5
1B3
330
1F
100
AcDbEntity
  8
0
  6
Continuous
 62
     4
370
    13
100
AcDbLine
 10
87.03562412545637
 20
121.6375
 30
0.0
 11
96.03562412545637
 21
121.6375
 31
0.0
  0
LINE
  5
1B4
330
1F
100
AcDbEntity
  8
0
  6
Continuous
 62
     4
370
    13
100
AcDbLine
 10
87.03562412545637
 20
118.6375
 30
0.0
 11
96.03562412545637
 21
118.6375
 31
0.0
  0
LINE
  5
1B5
330
1F
100
AcDbEntity
  8
0
  6
Continuous
 62
     4
370
    13
100
AcDbLine
 10
85.53562412545637
 20
-39.3625
 30
0.0
 11
85.53562412545637
 21
-42.3625
 31
0.0
  0
LINE
  5
1B6
330
1F
100
AcDbEntity
  8
0
  6
Continuous
 62
     4
370
    13
100
AcDbLine
 10
85.53562412545637
 20
-39.3625
 30
0.0
 11
97.53562412545637
 21
-39.3625
 31
0.0
  0
LINE
  5
1B7
330
1F
100
AcDbEntity
  8
0
  6
Continuous
 62
     4
370
    13
100
AcDbLine
 10
85.53562412545637
 20
-42.3625
 30
0.0
 11
97.53562412545637
 21
-42.3625
 31
0.0
  0
LINE
  5
1B8
330
1F
100
AcDbEntity
  8
0
  6
Continuous
 62
     4
370
    13
100
AcDbLine
 10
97.53562412545637
 20
-39.3625
 30
0.0
 11
97.53562412545637
 21
-42.3625
 31
0.0
  0
LINE
  5
1B9
330
1F
100
AcDbEntity
  8
0
  6
Continuous
 62
     4
370
    13
100
AcDbLine
 10
96.03562412545637
 20
121.6375
 30
0.0
 11
96.03562412545637
 21
118.6375
 31
0.0
  0
LINE
  5
1BA
330
1F
100
AcDbEntity
  8
0
  6
Continuous
 62
     4
370
    13
100
AcDbLine
 10
87.03562412545637
 20
121.6375
 30
0.0
 11
87.03562412545637
 21
118.6375
 31
0.0
  0
LINE
  5
1BB
330
1F
100
AcDbEntity
  8
0
  6
Continuous
 62
     4
370
    13
100
AcDbLine
 10
87.03562412545637
 20
-61.36250000000001
 30
0.0
 11
96.03562412545637
 21
-61.36250000000001
 31
0.0
  0
LINE
  5
1BC
330
1F
100
AcDbEntity
  8
0
  6
Continuous
 62
     4
370
    13
100
AcDbLine
 10
87.03562412545637
 20
-64.3625
 30
0.0
 11
96.03562412545637
 21
-64.3625
 31
0.0
  0
LINE
  5
1BD
330
1F
100
AcDbEntity
  8
0
  6
Continuous
 62
     4
370
    13
100
AcDbLine
 10
96.03562412545637
 20
-61.36250000000001
 30
0.0
 11
96.03562412545637
 21
-64.3625
 31
0.0
  0
LINE
  5
1BE
330
1F
100
AcDbEntity
  8
0
  6
Continuous
 62
     4
370
    13
100
AcDbLine
 10
87.03562412545637
 20
-61.36250000000001
 30
0.0
 11
87.03562412545637
 21
-64.3625
 31
0.0
  0
LINE
  5
1BF
330
1F
100
AcDbEntity
  8
0
  6
Continuous
 62
     4
370
    13
100
AcDbLine
 10
99.33562412545636
 20
1.637500000000003
 30
0.0
 11
149.3356241254564
 21
1.637500000000003
 31
0.0
  0
LINE
  5
1C0
330
1F
100
AcDbEntity
  8
0
  6
Continuous
 62
     4
370
    13
100
AcDbLine
 10
99.33562412545636
 20
-7.362499999999997
 30
0.0
 11
149.3356241254564
 21
-7.362499999999997
 31
0.0
  0
LINE
  5
1C1
330
1F
100
AcDbEntity
  8
0
  6
Continuous
 62
     4
370
    13
100
AcDbLine
 10
149.3356241254564
 20
1.637500000000003
 30
0.0
 11
149.3356241254564
 21
-7.362499999999997
 31
0.0
  0
LINE
  5
1C2
330
1F
100
AcDbEntity
  8
0
  6
Continuous
 62
     4
370
    13
100
AcDbLine
 10
99.33562412545636
 20
-7.362499999999997
 30
0.0
 11
93.71047428506319
 21
-31.10186340276628
 31
0.0
  0
LINE
  5
1C3
330
1F
100
AcDbEntity
  8
0
  6
Continuous
 62
     4
370
    13
100
AcDbLine
 10
99.33562412545636
 20
1.637500000000003
 30
0.0
 11
93.71047428506319
 21
-31.10186340276628
 31
0.0
  0
LINE
  5
1C4
330
1F
100
AcDbEntity
  8
0
  6
CENTER
 62
     4
370
    13
100
AcDbLine
 10
74.53562412545637
 20
-40.8625
 30
0.0
 11
85.53562412545637
 21
-40.8625
 31
0.0
  0
LINE
  5
1C5
330
1F
100
AcDbEntity
  8
0
  6
CENTER
 62
     4
370
    13
100
AcDbLine
 10
97.53562412545637
 20
-40.8625
 30
0.0
 11
108.5356241254564
 21
-40.8625
 31
0.0
  0
LINE
  5
1C6
330
1F
100
AcDbEntity
  8
0
  6
CENTER
 62
     4
370
    13
100
AcDbLine
 10
91.53562412545637
 20
-42.3625
 30
0.0
 11
91.53562412545637
 21
-61.3625
 31
0.0
  0
LINE
  5
1C7
330
1F
100
AcDbEntity
  8
0
  6
CENTER
 62
     4
370
    13
100
AcDbLine
 10
91.53562412545637
 20
-64.3625
 30
0.0
 11
91.5356241254564
 21
-85.8625
 31
0.0
  0
LINE
  5
1C8
330
1F
100
AcDbEntity
  8
0
  6
CENTER
 62
     4
370
    13
100
AcDbLine
 10
91.53562412545637
 20
118.6375
 30
0.0
 11
91.53562412545637
 21
-39.3625
 31
0.0
  0
LINE
  5
1C9
330
1F
100
AcDbEntity
  8
0
  6
CENTER
 62
     4
370
    13
100
AcDbLine
 10
81.53562412545637
 20
120.1375
 30
0.0
 11
87.03562412545637
 21
120.1375
 31
0.0
  0
LINE
  5
1CA
330
1F
100
AcDbEntity
  8
0
  6
CENTER
 62
     4
370
    13
100
AcDbLine
 10
96.03562412545637
 20
120.1375
 30
0.0
 11
101.5356241254564
 21
120.1375
 31
0.0
  0
LINE
  5
1CB
330
1F
100
AcDbEntity
  8
0
  6
CENTER
 62
     4
370
    13
100
AcDbLine
 10
91.5356241254564
 20
140.1375
 30
0.0
 11
91.53562412545637
 21
121.6375
 31
0.0
  0
LINE
  5
1CC
330
1F
100
AcDbEntity
  8
0
  6
CENTER
 62
     4
370
    13
100
AcDbLine
 10
-8.46437587454363
 20
21.38750000000007
 30
0.0
 11
-8.464375874543627
 21
-64.61249999999993
 31
0.0
  0
LINE
  5
1CD
330
1F
100
AcDbEntity
  8
0
  6
CENTER
 62
     4
370
    13
100
AcDbLine
 10
-17.56437587454363
 20
5.38750000000007
 30
0.0
 11
0.6356241254563688
 21
5.38750000000007
 31
0.0
  0
LINE
  5
1CE
330
1F
100
AcDbEntity
  8
0
  6
CENTER
 62
     4
370
    13
100
AcDbLine
 10
0.6356241254563706
 20
-48.61249999999994
 30
0.0
 11
-17.56437587454363
 21
-48.61249999999994
 31
0.0
  0
LINE
  5
1CF
330
1F
100
AcDbEntity
  8
0
  6
CENTER
 62
     4
370
    13
100
AcDbLine
 10
-76.46437587454363
 20
-21.61249999999995
 30
0.0
 11
-120.4643758745436
 21
-21.61249999999995
 31
0.0
  0
LINE
  5
1D0
330
1F
100
AcDbEntity
  8
0
  6
CENTER
 62
     4
370
    13
100
AcDbLine
 10
-107.7143758745436
 20
10.88750000000005
 30
0.0
 11
-89.21437587454363
 21
10.88750000000005
 31
0.0
  0
LINE
  5
1D1
330
1F
100
AcDbEntity
  8
0
  6
CENTER
 62
     4
370
    13
100
AcDbLine
 10
-89.21437587454363
 20
-54.11249999999995
 30
0.0
 11
-107.7143758745436
 21
-54.11249999999995
 31
0.0
  0
LINE
  5
1D2
330
1F
100
AcDbEntity
  8
0
  6
CENTER
 62
     4
370
    13
100
AcDbLine
 10
-98.46437587454363
 20
31.38750000000005
 30
0.0
 11
-98.46437587454363
 21
-74.61249999999995
 31
0.0
  0
LINE
  5
1D3
330
1F
100
AcDbEntity
  8
0
  6
CENTER
 62
     4
370
    13
100
AcDbLine
 10
-98.46437587454363
 20
-94.61249999999995
 30
0.0
 11
-98.46437587454363
 21
-132.6125
 31
0.0
  0
LINE
  5
1D4
330
1F
100
AcDbEntity
  8
0
  6
CENTER
 62
     4
370
    13
100
AcDbLine
 10
81.53562412545637
 20
-62.8625
 30
0.0
 11
87.03562412545637
 21
-62.8625
 31
0.0
  0
LINE
  5
1D5
330
1F
100
AcDbEntity
  8
0
  6
CENTER
 62
     4
370
    13
100
AcDbLine
 10
96.03562412545637
 20
-62.8625
 30
0.0
 11
101.5356241254564
 21
-62.8625
 31
0.0
  0
LINE
  5
1D6
330
1F
100
AcDbEntity
  8
0
  6
DIVIDE
 62
     4
370
    13
100
AcDbLine
 10
21.53562412545637
 20
-11.61249999999995
 30
0.0
 11
21.53562412545637
 21
-31.61249999999994
 31
0.0
  0
LINE
  5
1D7
330
1F
100
AcDbEntity
  8
0
  6
DIVIDE
 62
     4
370
    13
100
AcDbLine
 10
71.5356241254564
 20
-11.61249999999995
 30
0.0
 11
21.53562412545637
 21
-11.61249999999995
 31
0.0
  0
LINE
  5
1D8
330
1F
100
AcDbEntity
  8
0
  6
DIVIDE
 62
     4
370
    13
100
AcDbLine
 10
71.5356241254564
 20
-31.61249999999994
 30
0.0
 11
21.53562412545637
 21
-31.61249999999994
 31
0.0
  0
LINE
  5
1D9
330
1F
100
AcDbEntity
  8
0
  6
DIVIDE
 62
     4
370
    13
100
AcDbLine
 10
131.5356241254564
 20
-11.61249999999995
 30
0.0
 11
131.5356241254564
 21
-31.61249999999995
 31
0.0
  0
LINE
  5
1DA
330
1F
100
AcDbEntity
  8
0
  6
DIVIDE
 62
     4
370
    13
100
AcDbLine
 10
131.5356241254564
 20
-11.61249999999995
 30
0.0
 11
111.5356241254564
 21
-11.61249999999995
 31
0.0
  0
LINE
  5
1DB
330
1F
100
AcDbEntity
  8
0
  6
DIVIDE
 62
     4
370
    13
100
AcDbLine
 10
131.5356241254564
 20
-31.61249999999995
 30
0.0
 11
111.5356241254564
 21
-31.61249999999993
 31
0.0
  0
LINE
  5
1DC
330
1F
100
AcDbEntity
  8
0
  6
DIVIDE
 62
     4
370
    13
100
AcDbLine
 10
51.53562412545632
 20
-11.61249999999995
 30
0.0
 11
51.53562412545632
 21
-31.61249999999994
 31
0.0
  0
LINE
  5
1DD
330
1F
100
AcDbEntity
  8
0
  6
DIVIDE
 62
     4
370
    13
100
AcDbLine
 10
71.5356241254564
 20
112.1375
 30
0.0
 11
71.5356241254564
 21
-57.86249999999999
 31
0.0
  0
ARC
  5
1DE
330
1F
100
AcDbEntity
  8
0
  6
DIVIDE
 62
     4
370
    13
100
AcDbCircle
 10
91.5356241254564
 20
-57.8625
 30
0.0
 40
20.0
100
AcDbArc
 50
180.0
 51
0.0
  0
ARC
  5
1DF
330
1F
100
AcDbEntity
  8
0
  6
DIVIDE
 62
     4
370
    13
100
AcDbCircle
 10
91.5356241254564
 20
112.1375
 30
0.0
 40
20.0
100
AcDbArc
 50
0.0
 51
180.0
  0
LINE
  5
1E0
330
1F
100
AcDbEntity
  8
0
  6
DIVIDE
 62
     4
370
    13
100
AcDbLine
 10
40.5356241254564
 20
-11.61249999999995
 30
0.0
 11
40.5356241254564
 21
-31.61249999999994
 31
0.0
  0
LINE
  5
1E1
330
1F
100
AcDbEntity
  8
0
  6
DIVIDE
 62
     4
370
    13
100
AcDbLine
 10
70.53562412545641
 20
-11.61249999999995
 30
0.0
 11
70.53562412545641
 21
-31.61249999999994
 31
0.0
  0
LINE
  5
1E2
330
1F
100
AcDbEntity
  8
0
  6
DIVIDE
 62
     4
370
    13
100
AcDbLine
 10
111.5356241254564
 20
112.1375
 30
0.0
 11
111.5356241254564
 21
1.637500000000003
 31
0.0
  0
LINE
  5
1E3
330
1F
100
AcDbEntity
  8
0
  6
DIVIDE
 62
     4
370
    13
100
AcDbLine
 10
111.5356241254564
 20
-7.362499999999997
 30
0.0
 11
111.5356241254564
 21
-57.86249999999999
 31
0.0
  0
LINE
  5
1E4
330
1F
100
AcDbEntity
  8
0
  6
DASHED2
 62
     4
370
    13
100
AcDbLine
 10
-108.9643758745436
 20
-1.612499999999946
 30
0.0
 11
-108.9643758745436
 21
-41.61249999999995
 31
0.0
  0
LINE
  5
1E5
330
1F
100
AcDbEntity
  8
0
  6
DASHED2
 62
     4
370
    13
100
AcDbLine
 10
-87.96437587454363
 20
-41.61249999999995
 30
0.0
 11
-87.96437587454363
 21
-1.612499999999948
 31
0.0
  0
LINE
  5
1E6
330
1F
100
AcDbEntity
  8
0
  6
DASHED2
 62
     4
370
    13
100
AcDbLine
 10
-108.9643758745436
 20
-1.612499999999946
 30
0.0
 11
-87.96437587454363
 21
-1.612499999999948
 31
0.0
  0
LINE
  5
1E7
330
1F
100
AcDbEntity
  8
0
  6
DASHED2
 62
     4
370
    13
100
AcDbLine
 10
-87.96437587454363
 20
-41.61249999999995
 30
0.0
 11
-108.9643758745436
 21
-41.61249999999995
 31
0.0
  0
CIRCLE
  5
1E8
330
1F
100
AcDbEntity
  8
0
  6
DASHED2
 62
     4
370
    13
100
AcDbCircle
 10
91.53562412545637
 20
-40.8625
 30
0.0
 40
9.0
  0
INSERT
  5
1E9
330
1F
100
AcDbEntity
  8
0
  6
Continuous
100
AcDbBlockReference
  2
DC_GROUP_KL500面付本締錠_1
 10
0.0
 20
0.0
 30
0.0
  0
DIMENSION
  5
1EA
330
1F
100
AcDbEntity
  8
0
  6
Continuous
370
    13
100
AcDbDimension
  2
*D2
 10
1.535624125456367
 20
-71.61249999999993
 30
0.0
 11
-8.464375874543633
 21
-71.61249999999993
 31
0.0
 70
   160
  1
<>mm
 71
     8
 42
-1.0
  3
dc_Rotated
100
AcDbAlignedDimension
 13
-18.46437587454363
 23
-46.61249999999993
 33
0.0
 14
1.535624125456367
 24
-46.61249999999993
 34
0.0
100
AcDbRotatedDimension
1001
ACAD
1000
DSTYLE
1002
{
1070
   274
1070
     4
1070
    41
1040
3.000001882570243
1070
    79
1070
     2
1070
   343
1005
E5
1070
   344
1005
E5
1070
   176
1070
     4
1070
   177
1070
     4
1070
   178
1070
     2
1070
   271
1070
     2
1070
    44
1040
1.0
1070
    42
1040
1.0
1070
   147
1040
1.0
1070
   173
1070
     1
1070
    77
1070
     3
1070
    73
1070
     0
1070
   172
1070
     1
1070
    74
1070
     0
1070
   283
1070
     0
1070
   340
1005
C0
1070
   140
1040
3.0
1070
   284
1070
     8
1070
   288
1070
     1
1070
    78
1070
     8
1070
    90
1070
     1
1002
}
  0
DIMENSION
  5
1EC
330
1F
100
AcDbEntity
  8
0
  6
Continuous
370
    13
100
AcDbDimension
  2
*D3
 10
-33.46437587454363
 20
-8.61249999999993
 30
0.0
 11
-33.46437587454363
 21
-21.61249999999993
 31
0.0
 70
   160
  1
<>mm
 71
     8
 42
-1.0
  3
dc_Rotated
100
AcDbAlignedDimension
 13
-18.46437587454363
 23
-34.61249999999993
 33
0.0
 14
-18.46437587454363
 24
-8.61249999999993
 34
0.0
 50
90.0
100
AcDbRotatedDimension
1001
ACAD
1000
DSTYLE
1002
{
1070
   274
1070
     4
1070
    41
1040
3.000001882570243
1070
    79
1070
     2
1070
   343
1005
E5
1070
   344
1005
E5
1070
   176
1070
     4
1070
   177
1070
     4
1070
   178
1070
     2
1070
   271
1070
     2
1070
    44
1040
1.0
1070
    42
1040
1.0
1070
   147
1040
1.0
1070
   173
1070
     1
1070
    77
1070
     3
1070
    73
1070
     0
1070
   172
1070
     1
1070
    74
1070
     0
1070
   283
1070
     0
1070
   340
1005
C0
1070
   140
1040
3.0
1070
   284
1070
     8
1070
   288
1070
     1
1070
    78
1070
     8
1070
    90
1070
     1
1002
}
  0
DIMENSION
  5
1ED
330
1F
100
AcDbEntity
  8
0
  6
Continuous
370
    13
100
AcDbDimension
  2
*D4
 10
-41.46437587454363
 20
5.38750000000007
 30
0.0
 11
-41.46437587454363
 21
-21.61249999999993
 31
0.0
 70
   160
  1
<>mm
 71
     8
 42
-1.0
  3
dc_Rotated
100
AcDbAlignedDimension
 13
-17.56437587454363
 23
-48.61249999999994
 33
0.0
 14
-17.56437587454363
 24
5.38750000000007
 34
0.0
 50
90.0
100
AcDbRotatedDimension
1001
ACAD
1000
DSTYLE
1002
{
1070
   274
1070
     4
1070
    41
1040
3.000001882570243
1070
    79
1070
     2
1070
   343
1005
E5
1070
   344
1005
E5
1070
   176
1070
     4
1070
   177
1070
     4
1070
   178
1070
     2
1070
   271
1070
     2
1070
    44
1040
1.0
1070
    42
1040
1.0
1070
   147
1040
1.0
1070
   173
1070
     1
1070
    77
1070
     3
1070
    73
1070
     0
1070
   172
1070
     1
1070
    74
1070
     0
1070
   283
1070
     0
1070
   340
1005
C0
1070
   140
1040
3.0
1070
   284
1070
     8
1070
   288
1070
     1
1070
    78
1070
     8
1070
    90
1070
     1
1002
}
  0
DIMENSION
  5
1EE
330
1F
100
AcDbEntity
  8
0
  6
Continuous
370
    13
100
AcDbDimension
  2
*D5
 10
-49.46437587454363
 20
13.38750000000007
 30
0.0
 11
-49.46437587454363
 21
-21.61249999999993
 31
0.0
 70
   160
  1
<>mm
 71
     8
 42
-1.0
  3
dc_Rotated
100
AcDbAlignedDimension
 13
-8.464375874543629
 23
-56.61249999999993
 33
0.0
 14
-8.46437587454363
 24
13.38750000000007
 34
0.0
 50
90.0
100
AcDbRotatedDimension
1001
ACAD
1000
DSTYLE
1002
{
1070
   274
1070
     4
1070
    41
1040
3.000001882570243
1070
    79
1070
     2
1070
   343
1005
E5
1070
   344
1005
E5
1070
   176
1070
     4
1070
   177
1070
     4
1070
   178
1070
     2
1070
   271
1070
     2
1070
    44
1040
1.0
1070
    42
1040
1.0
1070
   147
1040
1.0
1070
   173
1070
     1
1070
    77
1070
     3
1070
    73
1070
     0
1070
   172
1070
     1
1070
    74
1070
     0
1070
   283
1070
     0
1070
   340
1005
C0
1070
   140
1040
3.0
1070
   284
1070
     8
1070
   288
1070
     1
1070
    78
1070
     8
1070
    90
1070
     1
1002
}
  0
DIMENSION
  5
1EF
330
1F
100
AcDbEntity
  8
0
  6
Continuous
370
    13
100
AcDbDimension
  2
*D6
 10
-6.964375874543632
 20
28.38750000000007
 30
0.0
 11
-12.71437587454363
 21
28.38750000000007
 31
0.0
 70
   160
  1
<>mm
 71
     8
 42
-1.0
  3
dc_Rotated
100
AcDbAlignedDimension
 13
-18.46437587454363
 23
3.38750000000007
 33
0.0
 14
-6.964375874543632
 24
-12.61249999999993
 34
0.0
100
AcDbRotatedDimension
1001
ACAD
1000
DSTYLE
1002
{
1070
   274
1070
     4
1070
    41
1040
3.000001882570243
1070
    79
1070
     2
1070
   343
1005
E5
1070
   344
1005
E5
1070
   176
1070
     4
1070
   177
1070
     4
1070
   178
1070
     2
1070
   271
1070
     2
1070
    44
1040
1.0
1070
    42
1040
1.0
1070
   147
1040
1.0
1070
   173
1070
     1
1070
    77
1070
     3
1070
    73
1070
     0
1070
   172
1070
     1
1070
    74
1070
     0
1070
   283
1070
     0
1070
   340
1005
C0
1070
   140
1040
3.0
1070
   284
1070
     8
1070
   288
1070
     1
1070
    78
1070
     8
1070
    90
1070
     1
1002
}
  0
DIMENSION
  5
1F0
330
1F
100
AcDbEntity
  8
0
  6
Continuous
370
    13
100
AcDbDimension
  2
*D7
 10
71.53562412545631
 20
3.387500000000045
 30
0.0
 11
61.53562412545631
 21
3.387500000000045
 31
0.0
 70
   160
  1
<>mm
 71
     8
 42
-1.0
  3
dc_Rotated
100
AcDbAlignedDimension
 13
51.53562412545632
 23
-11.61249999999995
 33
0.0
 14
71.53562412545631
 24
3.387500000000045
 34
0.0
100
AcDbRotatedDimension
1001
ACAD
1000
DSTYLE
1002
{
1070
   274
1070
     4
1070
    41
1040
3.000001882570243
1070
    79
1070
     2
1070
   343
1005
E5
1070
   344
1005
E5
1070
   176
1070
     4
1070
   177
1070
     4
1070
   178
1070
     2
1070
   271
1070
     2
1070
    44
1040
0.0
1070
    42
1040
1.0
1070
   147
1040
1.0
1070
   173
1070
     1
1070
    76
1070
     1
1070
    77
1070
     3
1070
    73
1070
     0
1070
   172
1070
     1
1070
    74
1070
     0
1070
   283
1070
     0
1070
   340
1005
C0
1070
   140
1040
3.0
1070
   284
1070
     8
1070
   288
1070
     1
1070
    78
1070
     8
1070
    90
1070
     1
1002
}
  0
DIMENSION
  5
1F1
330
1F
100
AcDbEntity
  8
0
  6
Continuous
370
    13
100
AcDbDimension
  2
*D8
 10
71.53562412545628
 20
14.38750000000005
 30
0.0
 11
46.53562412545632
 21
14.38750000000005
 31
0.0
 70
   160
  1
<>mm
 71
     8
 42
-1.0
  3
dc_Rotated
100
AcDbAlignedDimension
 13
21.53562412545637
 23
-11.61249999999995
 33
0.0
 14
71.53562412545628
 24
14.38750000000005
 34
0.0
100
AcDbRotatedDimension
1001
ACAD
1000
DSTYLE
1002
{
1070
   274
1070
     4
1070
    41
1040
3.000001882570243
1070
    79
1070
     2
1070
   343
1005
E5
1070
   344
1005
E5
1070
   176
1070
     4
1070
   177
1070
     4
1070
   178
1070
     2
1070
   271
1070
     2
1070
    44
1040
0.0
1070
    42
1040
1.0
1070
   147
1040
1.0
1070
   173
1070
     1
1070
    76
1070
     1
1070
    77
1070
     3
1070
    73
1070
     0
1070
   172
1070
     1
1070
    74
1070
     0
1070
   283
1070
     0
1070
   340
1005
C0
1070
   140
1040
3.0
1070
   284
1070
     8
1070
   288
1070
     1
1070
    78
1070
     8
1070
    90
1070
     1
1002
}
  0
DIMENSION
  5
1F2
330
1F
100
AcDbEntity
  8
0
  6
Continuous
370
    13
100
AcDbDimension
  2
*D9
 10
-84.46437587454363
 20
-89.61249999999995
 30
0.0
 11
-98.46437587454363
 21
-89.61249999999995
 31
0.0
 70
   160
  1
<>mm
 71
     8
 42
-1.0
  3
dc_Rotated
100
AcDbAlignedDimension
 13
-112.4643758745436
 23
-66.61249999999995
 33
0.0
 14
-84.46437587454363
 24
-66.61249999999995
 34
0.0
100
AcDbRotatedDimension
1001
ACAD
1000
DSTYLE
1002
{
1070
   274
1070
     4
1070
    41
1040
3.000001882570243
1070
    79
1070
     2
1070
   343
1005
E5
1070
   344
1005
E5
1070
   176
1070
     4
1070
   177
1070
     4
1070
   178
1070
     2
1070
   271
1070
     2
1070
    44
1040
1.0
1070
    42
1040
1.0
1070
   147
1040
1.0
1070
   173
1070
     1
1070
    77
1070
     3
1070
    73
1070
     0
1070
   172
1070
     1
1070
    74
1070
     0
1070
   283
1070
     0
1070
   340
1005
C0
1070
   140
1040
3.0
1070
   284
1070
     8
1070
   288
1070
     1
1070
    78
1070
     8
1070
    90
1070
     1
1002
}
  0
DIMENSION
  5
1F3
330
1F
100
AcDbEntity
  8
0
  6
Continuous
370
    13
100
AcDbDimension
  2
*D10
 10
-143.4643758745436
 20
23.38750000000006
 30
0.0
 11
-143.4643758745436
 21
-21.61249999999995
 31
0.0
 70
   160
  1
<>mm
 71
     8
 42
-1.0
  3
dc_Rotated
100
AcDbAlignedDimension
 13
-112.4643758745436
 23
-66.61249999999995
 33
0.0
 14
-112.4643758745436
 24
23.38750000000006
 34
0.0
 50
90.0
100
AcDbRotatedDimension
1001
ACAD
1000
DSTYLE
1002
{
1070
   274
1070
     4
1070
    41
1040
3.000001882570243
1070
    79
1070
     2
1070
   343
1005
E5
1070
   344
1005
E5
1070
   176
1070
     4
1070
   177
1070
     4
1070
   178
1070
     2
1070
   271
1070
     2
1070
    44
1040
1.0
1070
    42
1040
1.0
1070
   147
1040
1.0
1070
   173
1070
     1
1070
    77
1070
     3
1070
    73
1070
     0
1070
   172
1070
     1
1070
    74
1070
     0
1070
   283
1070
     0
1070
   340
1005
C0
1070
   140
1040
3.0
1070
   284
1070
     8
1070
   288
1070
     1
1070
    78
1070
     8
1070
    90
1070
     1
1002
}
  0
DIMENSION
  5
1F4
330
1F
100
AcDbEntity
  8
0
  6
Continuous
370
    13
100
AcDbDimension
  2
*D11
 10
-135.4643758745436
 20
10.88750000000005
 30
0.0
 11
-135.4643758745436
 21
-21.61249999999995
 31
0.0
 70
   160
  1
<>mm
 71
     8
 42
-1.0
  3
dc_Rotated
100
AcDbAlignedDimension
 13
-107.7143758745436
 23
-54.11249999999995
 33
0.0
 14
-107.7143758745436
 24
10.88750000000005
 34
0.0
 50
90.0
100
AcDbRotatedDimension
1001
ACAD
1000
DSTYLE
1002
{
1070
   274
1070
     4
1070
    41
1040
3.000001882570243
1070
    79
1070
     2
1070
   343
1005
E5
1070
   344
1005
E5
1070
   176
1070
     4
1070
   177
1070
     4
1070
   178
1070
     2
1070
   271
1070
     2
1070
    44
1040
1.0
1070
    42
1040
1.0
1070
   147
1040
1.0
1070
   173
1070
     1
1070
    77
1070
     3
1070
    73
1070
     0
1070
   172
1070
     1
1070
    74
1070
     0
1070
   283
1070
     0
1070
   340
1005
C0
1070
   140
1040
3.0
1070
   284
1070
     8
1070
   288
1070
     1
1070
    78
1070
     8
1070
    90
1070
     1
1002
}
  0
DIMENSION
  5
1F5
330
1F
100
AcDbEntity
  8
0
  6
Continuous
370
    13
100
AcDbDimension
  2
*D12
 10
-127.4643758745436
 20
-1.612499999999946
 30
0.0
 11
-127.4643758745436
 21
-21.61249999999995
 31
0.0
 70
   160
  1
<>mm
 71
     8
 42
-1.0
  3
dc_Rotated
100
AcDbAlignedDimension
 13
-108.9643758745436
 23
-41.61249999999995
 33
0.0
 14
-108.9643758745436
 24
-1.612499999999946
 34
0.0
 50
90.0
100
AcDbRotatedDimension
1001
ACAD
1000
DSTYLE
1002
{
1070
   274
1070
     4
1070
    41
1040
3.000001882570243
1070
    79
1070
     2
1070
   343
1005
E5
1070
   344
1005
E5
1070
   176
1070
     4
1070
   177
1070
     4
1070
   178
1070
     2
1070
   271
1070
     2
1070
    44
1040
1.0
1070
    42
1040
1.0
1070
   147
1040
1.0
1070
   173
1070
     1
1070
    77
1070
     3
1070
    73
1070
     0
1070
   172
1070
     1
1070
    74
1070
     0
1070
   283
1070
     0
1070
   340
1005
C0
1070
   140
1040
3.0
1070
   284
1070
     8
1070
   288
1070
     1
1070
    78
1070
     8
1070
    90
1070
     1
1002
}
  0
DIMENSION
  5
1F6
330
1F
100
AcDbEntity
  8
0
  6
Continuous
370
    13
100
AcDbDimension
  2
*D13
 10
-87.96437587454363
 20
-81.61249999999995
 30
0.0
 11
-98.46437587454363
 21
-81.61249999999995
 31
0.0
 70
   160
  1
<>mm
 71
     8
 42
-1.0
  3
dc_Rotated
100
AcDbAlignedDimension
 13
-108.9643758745436
 23
-41.61249999999995
 33
0.0
 14
-87.96437587454363
 24
-41.61249999999995
 34
0.0
100
AcDbRotatedDimension
1001
ACAD
1000
DSTYLE
1002
{
1070
   274
1070
     4
1070
    41
1040
3.000001882570243
1070
    79
1070
     2
1070
   343
1005
E5
1070
   344
1005
E5
1070
   176
1070
     4
1070
   177
1070
     4
1070
   178
1070
     2
1070
   271
1070
     2
1070
    44
1040
1.0
1070
    42
1040
1.0
1070
   147
1040
1.0
1070
   173
1070
     1
1070
    77
1070
     3
1070
    73
1070
     0
1070
   172
1070
     1
1070
    74
1070
     0
1070
   283
1070
     0
1070
   340
1005
C0
1070
   140
1040
3.0
1070
   284
1070
     8
1070
   288
1070
     1
1070
    78
1070
     8
1070
    90
1070
     1
1002
}
  0
DIMENSION
  5
1F7
330
1F
100
AcDbEntity
  8
0
  6
Continuous
370
    13
100
AcDbDimension
  2
*D14
 10
-87.96437587454362
 20
-139.6125
 30
0.0
 11
-98.46437587454363
 21
-139.6125
 31
0.0
 70
   160
  1
<>mm
 71
     8
 42
-1.0
  3
dc_Rotated
100
AcDbAlignedDimension
 13
-108.9643758745436
 23
-124.6125
 33
0.0
 14
-87.96437587454362
 24
-124.6125
 34
0.0
100
AcDbRotatedDimension
1001
ACAD
1000
DSTYLE
1002
{
1070
   274
1070
     4
1070
    41
1040
3.000001882570243
1070
    79
1070
     2
1070
   343
1005
E5
1070
   344
1005
E5
1070
   176
1070
     4
1070
   177
1070
     4
1070
   178
1070
     2
1070
   271
1070
     2
1070
    44
1040
1.0
1070
    42
1040
1.0
1070
   147
1040
1.0
1070
   173
1070
     1
1070
    77
1070
     3
1070
    73
1070
     0
1070
   172
1070
     1
1070
    74
1070
     0
1070
   283
1070
     0
1070
   340
1005
C0
1070
   140
1040
3.0
1070
   284
1070
     8
1070
   288
1070
     1
1070
    78
1070
     8
1070
    90
1070
     1
1002
}
  0
DIMENSION
  5
1F8
330
1F
100
AcDbEntity
  8
0
  6
Continuous
370
    13
100
AcDbDimension
  2
*D15
 10
-69.46437587454362
 20
-104.1125
 30
0.0
 11
-69.46437587454362
 21
-114.3625
 31
0.0
 70
   160
  1
<>mm
 71
     8
 42
-1.0
  3
dc_Rotated
100
AcDbAlignedDimension
 13
-87.96437587454362
 23
-124.6125
 33
0.0
 14
-84.46437587454362
 24
-104.1125
 34
0.0
 50
90.0
100
AcDbRotatedDimension
1001
ACAD
1000
DSTYLE
1002
{
1070
   274
1070
     4
1070
    41
1040
3.000001882570243
1070
    79
1070
     2
1070
   343
1005
E5
1070
   344
1005
E5
1070
   176
1070
     4
1070
   177
1070
     4
1070
   178
1070
     2
1070
   271
1070
     2
1070
    44
1040
1.0
1070
    42
1040
1.0
1070
   147
1040
1.0
1070
   173
1070
     1
1070
    77
1070
     3
1070
    73
1070
     0
1070
   172
1070
     1
1070
    74
1070
     0
1070
   283
1070
     0
1070
   340
1005
C0
1070
   140
1040
3.0
1070
   284
1070
     8
1070
   288
1070
     1
1070
    78
1070
     8
1070
    90
1070
     1
1002
}
  0
DIMENSION
  5
1F9
330
1F
100
AcDbEntity
  8
0
  6
Continuous
370
    13
100
AcDbDimension
  2
*D16
 10
-69.46437587454362
 20
-102.6125
 30
0.0
 11
-69.46437587454362
 21
-92.71471999999996
 31
0.0
 70
   160
  1
<>mm
 71
     8
 42
-1.0
  3
dc_Rotated
100
AcDbAlignedDimension
 13
-84.46437587454362
 23
-104.1125
 33
0.0
 14
-84.46437587454362
 24
-102.6125
 34
0.0
 50
90.0
100
AcDbRotatedDimension
1001
ACAD
1000
DSTYLE
1002
{
1070
   274
1070
     4
1070
    41
1040
3.000001882570243
1070
    79
1070
     2
1070
   343
1005
E5
1070
   344
1005
E5
1070
   176
1070
     4
1070
   177
1070
     4
1070
   178
1070
     2
1070
   271
1070
     2
1070
    44
1040
1.0
1070
    42
1040
1.0
1070
   147
1040
1.0
1070
   173
1070
     1
1070
    77
1070
     3
1070
    73
1070
     0
1070
   172
1070
     1
1070
    74
1070
     0
1070
   283
1070
     0
1070
   340
1005
C0
1070
   140
1040
3.0
1070
   284
1070
     8
1070
   288
1070
     1
1070
    78
1070
     8
1070
    90
1070
     1
1002
}
  0
DIMENSION
  5
1FA
330
1F
100
AcDbEntity
  8
0
  6
Continuous
370
    13
100
AcDbDimension
  2
*D17
 10
-61.46437587454362
 20
-102.6125
 30
0.0
 11
-61.46437587454362
 21
-113.6125
 31
0.0
 70
   160
  1
<>mm
 71
     8
 42
-1.0
  3
dc_Rotated
100
AcDbAlignedDimension
 13
-87.96437587454362
 23
-124.6125
 33
0.0
 14
-84.46437587454362
 24
-102.6125
 34
0.0
 50
90.0
100
AcDbRotatedDimension
1001
ACAD
1000
DSTYLE
1002
{
1070
   274
1070
     4
1070
    41
1040
3.000001882570243
1070
    79
1070
     2
1070
   343
1005
E5
1070
   344
1005
E5
1070
   176
1070
     4
1070
   177
1070
     4
1070
   178
1070
     2
1070
   271
1070
     2
1070
    44
1040
1.0
1070
    42
1040
1.0
1070
   147
1040
1.0
1070
   173
1070
     1
1070
    77
1070
     3
1070
    73
1070
     0
1070
   172
1070
     1
1070
    74
1070
     0
1070
   283
1070
     0
1070
   340
1005
C0
1070
   140
1040
3.0
1070
   284
1070
     8
1070
   288
1070
     1
1070
    78
1070
     8
1070
    90
1070
     1
1002
}
  0
INSERT
  5
1FB
330
1F
100
AcDbEntity
  8
0
  6
Continuous
100
AcDbBlockReference
  2
DC_GROUP_KL500面付本締錠_2
 10
0.0
 20
0.0
 30
0.0
  0
INSERT
  5
1FC
330
1F
100
AcDbEntity
  8
0
  6
Continuous
100
AcDbBlockReference
  2
DC_GROUP_KL500面付本締錠_3
 10
0.0
 20
0.0
 30
0.0
  0
DIMENSION
  5
1FD
330
1F
100
AcDbEntity
  8
0
  6
Continuous
370
    13
100
AcDbDimension
  2
*D20
 10
146.5356241254564
 20
-21.61249999999995
 30
0.0
 11
146.5356241254564
 21
-31.23749999999998
 31
0.0
 70
   160
  1
19mm
 71
     8
 42
-1.0
  3
dc_Rotated
100
AcDbAlignedDimension
 13
108.5356241254564
 23
-40.8625
 33
0.0
 14
139.5356241254564
 24
-21.61249999999995
 34
0.0
 50
90.0
100
AcDbRotatedDimension
1001
ACAD
1000
DSTYLE
1002
{
1070
   274
1070
     4
1070
    41
1040
3.000001882570243
1070
    79
1070
     2
1070
   343
1005
E5
1070
   344
1005
E5
1070
   176
1070
     4
1070
   177
1070
     4
1070
   178
1070
     2
1070
   271
1070
     2
1070
    44
1040
1.0
1070
    42
1040
1.0
1070
   147
1040
1.0
1070
   173
1070
     1
1070
    77
1070
     3
1070
    73
1070
     0
1070
   172
1070
     1
1070
    74
1070
     0
1070
   283
1070
     0
1070
   340
1005
C0
1070
   140
1040
3.0
1070
   284
1070
     8
1070
   288
1070
     1
1070
    78
1070
     8
1070
    90
1070
     1
1002
}
  0
DIMENSION
  5
1FE
330
1F
100
AcDbEntity
  8
0
  6
Continuous
370
    13
100
AcDbDimension
  2
*D21
 10
154.5356241254564
 20
-40.8625
 30
0.0
 11
154.5356241254564
 21
-51.8625
 31
0.0
 70
   160
  1
<>mm
 71
     8
 42
-1.0
  3
dc_Rotated
100
AcDbAlignedDimension
 13
101.5356241254564
 23
-62.8625
 33
0.0
 14
108.5356241254564
 24
-40.8625
 34
0.0
 50
90.0
100
AcDbRotatedDimension
1001
ACAD
1000
DSTYLE
1002
{
1070
   274
1070
     4
1070
    41
1040
3.000001882570243
1070
    79
1070
     2
1070
   343
1005
E5
1070
   344
1005
E5
1070
   176
1070
     4
1070
   177
1070
     4
1070
   178
1070
     2
1070
   271
1070
     2
1070
    44
1040
1.0
1070
    42
1040
1.0
1070
   147
1040
1.0
1070
   173
1070
     1
1070
    77
1070
     3
1070
    73
1070
     0
1070
   172
1070
     1
1070
    74
1070
     0
1070
   283
1070
     0
1070
   340
1005
C0
1070
   140
1040
3.0
1070
   284
1070
     8
1070
   288
1070
     1
1070
    78
1070
     8
1070
    90
1070
     1
1002
}
  0
DIMENSION
  5
1FF
330
1F
100
AcDbEntity
  8
0
  6
Continuous
370
    13
100
AcDbDimension
  2
*D22
 10
154.5356241254564
 20
120.1375
 30
0.0
 11
154.5356241254564
 21
39.6375
 31
0.0
 70
   160
  1
<>mm
 71
     8
 42
-1.0
  3
dc_Rotated
100
AcDbAlignedDimension
 13
108.5356241254564
 23
-40.8625
 33
0.0
 14
101.5356241254564
 24
120.1375
 34
0.0
 50
90.0
100
AcDbRotatedDimension
1001
ACAD
1000
DSTYLE
1002
{
1070
   274
1070
     4
1070
    41
1040
3.000001882570243
1070
    79
1070
     2
1070
   343
1005
E5
1070
   344
1005
E5
1070
   176
1070
     4
1070
   177
1070
     4
1070
   178
1070
     2
1070
   271
1070
     2
1070
    44
1040
1.0
1070
    42
1040
1.0
1070
   147
1040
1.0
1070
   173
1070
     1
1070
    77
1070
     3
1070
    73
1070
     0
1070
   172
1070
     1
1070
    74
1070
     0
1070
   283
1070
     0
1070
   340
1005
C0
1070
   140
1040
3.0
1070
   284
1070
     8
1070
   288
1070
     1
1070
    78
1070
     8
1070
    90
1070
     1
1002
}
  0
INSERT
  5
200
330
1F
100
AcDbEntity
  8
0
  6
Continuous
100
AcDbBlockReference
  2
DA_IMAGEDIMGROUP_1
 10
0.0
 20
0.0
 30
0.0
  0
DIMENSION
  5
201
330
1F
100
AcDbEntity
  8
0
  6
Continuous
370
    13
100
AcDbDimension
  2
*D24
 10
71.5356241254564
 20
-57.61249999999994
 30
0.0
 11
56.03562412545639
 21
-57.61249999999994
 31
0.0
 70
   160
  1
<>mm
 71
     8
 42
-1.0
  3
dc_Rotated
100
AcDbAlignedDimension
 13
40.5356241254564
 23
-31.61249999999994
 33
0.0
 14
71.5356241254564
 24
-57.61249999999994
 34
0.0
100
AcDbRotatedDimension
1001
ACAD
1000
DSTYLE
1002
{
1070
   274
1070
     4
1070
    41
1040
3.000001882570243
1070
    79
1070
     2
1070
   343
1005
E5
1070
   344
1005
E5
1070
   176
1070
     4
1070
   177
1070
     4
1070
   178
1070
     2
1070
   271
1070
     2
1070
    44
1040
0.0
1070
    42
1040
1.0
1070
   147
1040
1.0
1070
   173
1070
     1
1070
    76
1070
     1
1070
    77
1070
     3
1070
    73
1070
     0
1070
   172
1070
     1
1070
    74
1070
     0
1070
   283
1070
     0
1070
   340
1005
C0
1070
   140
1040
3.0
1070
   284
1070
     8
1070
   288
1070
     1
1070
    78
1070
     8
1070
    90
1070
     1
1002
}
  0
LINE
  5
202
330
1F
100
AcDbEntity
  8
0
  6
CENTER
 62
     4
370
    25
100
AcDbLine
 10
139.5356241254564
 20
-21.61249999999995
 30
0.0
 11
-26.46437587454363
 21
-21.61249999999995
 31
0.0
  0
CIRCLE
  5
203
330
1F
100
AcDbEntity
  8
0
  6
Continuous
 62
     4
370
    25
100
AcDbCircle
 10
-98.46437587454363
 20
10.88750000000006
 30
0.0
 40
4.25
  0
CIRCLE
  5
204
330
1F
100
AcDbEntity
  8
0
  6
Continuous
 62
     4
370
    25
100
AcDbCircle
 10
-98.46437587454363
 20
-54.11249999999995
 30
0.0
 40
4.25
  0
LINE
  5
205
330
1F
100
AcDbEntity
  8
0
  6
Continuous
 62
     3
370
    50
100
AcDbLine
 10
1.535624125456367
 20
3.38750000000007
 30
0.0
 11
1.535624125456367
 21
-46.61249999999993
 31
0.0
  0
ARC
  5
206
330
1F
100
AcDbEntity
  8
0
  6
Continuous
 62
     3
370
    50
100
AcDbCircle
 10
-8.46437587454363
 20
3.387500000000069
 30
0.0
 40
10.0
100
AcDbArc
 50
0.0000000000000095
 51
180.0
  0
ARC
  5
207
330
1F
100
AcDbEntity
  8
0
  6
Continuous
 62
     3
370
    50
100
AcDbCircle
 10
-8.464375874543627
 20
-46.61249999999993
 30
0.0
 40
10.0
100
AcDbArc
 50
180.0
 51
0.0000000000000509
  0
LINE
  5
208
330
1F
100
AcDbEntity
  8
0
  6
Continuous
 62
     3
370
    50
100
AcDbLine
 10
-6.964375874543632
 20
-12.61249999999993
 30
0.0
 11
-6.96437587454363
 21
-30.61249999999993
 31
0.0
  0
LINE
  5
209
330
1F
100
AcDbEntity
  8
0
  6
Continuous
 62
     3
370
    50
100
AcDbLine
 10
-18.46437587454363
 20
-8.61249999999993
 30
0.0
 11
-10.96437587454363
 21
-8.612499999999931
 31
0.0
  0
LINE
  5
20A
330
1F
100
AcDbEntity
  8
0
  6
Continuous
 62
     3
370
    50
100
AcDbLine
 10
-10.96437587454363
 20
-34.61249999999993
 30
0.0
 11
-18.46437587454363
 21
-34.61249999999993
 31
0.0
  0
LINE
  5
20B
330
1F
100
AcDbEntity
  8
0
  6
Continuous
 62
     3
370
    50
100
AcDbLine
 10
-18.46437587454363
 20
3.38750000000007
 30
0.0
 11
-18.46437587454363
 21
-8.61249999999993
 31
0.0
  0
LINE
  5
20C
330
1F
100
AcDbEntity
  8
0
  6
Continuous
 62
     3
370
    50
100
AcDbLine
 10
-18.46437587454363
 20
-34.61249999999993
 30
0.0
 11
-18.46437587454363
 21
-46.61249999999993
 31
0.0
  0
ARC
  5
20D
330
1F
100
AcDbEntity
  8
0
  6
Continuous
 62
     3
370
    50
100
AcDbCircle
 10
-10.96437587454363
 20
-12.61249999999993
 30
0.0
 40
4.0
100
AcDbArc
 50
359.9999999999999
 51
90.0
  0
ARC
  5
20E
330
1F
100
AcDbEntity
  8
0
  6
Continuous
 62
     3
370
    50
100
AcDbCircle
 10
-10.96437587454363
 20
-30.61249999999993
 30
0.0
 40
4.0
100
AcDbArc
 50
270.0
 51
0.0
  0
CIRCLE
  5
20F
330
1F
100
AcDbEntity
  8
0
  6
Continuous
 62
     3
370
    50
100
AcDbCircle
 10
-8.46437587454363
 20
5.387500000000069
 30
0.0
 40
4.1
  0
CIRCLE
  5
210
330
1F
100
AcDbEntity
  8
0
  6
Continuous
 62
     3
370
    50
100
AcDbCircle
 10
-8.464375874543629
 20
-48.61249999999994
 30
0.0
 40
4.1
  0
CIRCLE
  5
211
330
1F
100
AcDbEntity
  8
0
  6
Continuous
 62
     3
370
    50
100
AcDbCircle
 10
-8.46437587454363
 20
5.387500000000069
 30
0.0
 40
2.1
  0
CIRCLE
  5
212
330
1F
100
AcDbEntity
  8
0
  6
Continuous
 62
     3
370
    50
100
AcDbCircle
 10
-8.464375874543629
 20
-48.61249999999994
 30
0.0
 40
2.1
  0
LINE
  5
213
330
1F
100
AcDbEntity
  8
0
  6
Continuous
 62
     3
370
    50
100
AcDbLine
 10
-112.4643758745436
 20
23.38750000000006
 30
0.0
 11
-84.46437587454363
 21
23.38750000000005
 31
0.0
  0
LINE
  5
214
330
1F
100
AcDbEntity
  8
0
  6
Continuous
 62
     3
370
    50
100
AcDbLine
 10
-84.46437587454363
 20
-66.61249999999995
 30
0.0
 11
-112.4643758745436
 21
-66.61249999999995
 31
0.0
  0
LINE
  5
215
330
1F
100
AcDbEntity
  8
0
  6
Continuous
 62
     3
370
    50
100
AcDbLine
 10
-112.4643758745436
 20
23.38750000000006
 30
0.0
 11
-112.4643758745436
 21
-66.61249999999995
 31
0.0
  0
LINE
  5
216
330
1F
100
AcDbEntity
  8
0
  6
Continuous
 62
     3
370
    50
100
AcDbLine
 10
-84.46437587454363
 20
-66.61249999999995
 30
0.0
 11
-84.46437587454363
 21
23.38750000000005
 31
0.0
  0
LINE
  5
217
330
1F
100
AcDbEntity
  8
0
  6
Continuous
 62
     3
370
    50
100
AcDbLine
 10
-112.4643758745436
 20
-102.6125
 30
0.0
 11
-84.46437587454362
 21
-102.6125
 31
0.0
  0
LINE
  5
218
330
1F
100
AcDbEntity
  8
0
  6
Continuous
 62
     3
370
    50
100
AcDbLine
 10
-112.4643758745436
 20
-102.6125
 30
0.0
 11
-112.4643758745436
 21
-104.1125
 31
0.0
  0
LINE
  5
219
330
1F
100
AcDbEntity
  8
0
  6
Continuous
 62
     3
370
    50
100
AcDbLine
 10
-84.46437587454362
 20
-102.6125
 30
0.0
 11
-84.46437587454362
 21
-104.1125
 31
0.0
  0
LINE
  5
21A
330
1F
100
AcDbEntity
  8
0
  6
Continuous
 62
     3
370
    50
100
AcDbLine
 10
-108.9643758745436
 20
-104.1125
 30
0.0
 11
-108.9643758745436
 21
-124.6125
 31
0.0
  0
LINE
  5
21B
330
1F
100
AcDbEntity
  8
0
  6
Continuous
 62
     3
370
    50
100
AcDbLine
 10
-87.96437587454362
 20
-124.6125
 30
0.0
 11
-87.96437587454362
 21
-104.1125
 31
0.0
  0
LINE
  5
21C
330
1F
100
AcDbEntity
  8
0
  6
Continuous
 62
     3
370
    50
100
AcDbLine
 10
-112.4643758745436
 20
-104.1125
 30
0.0
 11
-84.46437587454362
 21
-104.1125
 31
0.0
  0
LINE
  5
21D
330
1F
100
AcDbEntity
  8
0
  6
Continuous
 62
     3
370
    50
100
AcDbLine
 10
-108.9643758745436
 20
-124.6125
 30
0.0
 11
-87.96437587454362
 21
-124.6125
 31
0.0
  0
ARC
  5
21E
330
1F
100
AcDbEntity
  8
0
  6
Continuous
 62
     3
370
    50
100
AcDbCircle
 10
-91.96437587454363
 20
-39.11249999999995
 30
0.0
 40
1.5
100
AcDbArc
 50
270.0
 51
0.0
  0
LINE
  5
21F
330
1F
100
AcDbEntity
  8
0
  6
Continuous
 62
     3
370
    50
100
AcDbLine
 10
-104.9643758745436
 20
-2.612499999999926
 30
0.0
 11
-91.96437587454363
 21
-2.612499999999926
 31
0.0
  0
LINE
  5
220
330
1F
100
AcDbEntity
  8
0
  6
Continuous
 62
     3
370
    50
100
AcDbLine
 10
-106.4643758745436
 20
-4.112499999999926
 30
0.0
 11
-106.4643758745436
 21
-39.11249999999995
 31
0.0
  0
ARC
  5
221
330
1F
100
AcDbEntity
  8
0
  6
Continuous
 62
     3
370
    50
100
AcDbCircle
 10
-104.9643758745436
 20
-4.112499999999926
 30
0.0
 40
1.5
100
AcDbArc
 50
90.0
 51
180.0
  0
LINE
  5
222
330
1F
100
AcDbEntity
  8
0
  6
Continuous
 62
     3
370
    50
100
AcDbLine
 10
-90.46437587454363
 20
-4.112499999999926
 30
0.0
 11
-90.46437587454363
 21
-39.11249999999995
 31
0.0
  0
ARC
  5
223
330
1F
100
AcDbEntity
  8
0
  6
Continuous
 62
     3
370
    50
100
AcDbCircle
 10
-91.96437587454363
 20
-4.112499999999926
 30
0.0
 40
1.5
100
AcDbArc
 50
0.0
 51
90.0
  0
LINE
  5
224
330
1F
100
AcDbEntity
  8
0
  6
Continuous
 62
     3
370
    50
100
AcDbLine
 10
-91.96437587454363
 20
-40.61249999999995
 30
0.0
 11
-104.9643758745436
 21
-40.61249999999995
 31
0.0
  0
ARC
  5
225
330
1F
100
AcDbEntity
  8
0
  6
Continuous
 62
     3
370
    50
100
AcDbCircle
 10
-104.9643758745436
 20
-39.11249999999995
 30
0.0
 40
1.5
100
AcDbArc
 50
180.0
 51
270.0
  0
CIRCLE
  5
226
330
1F
100
AcDbEntity
  8
0
  6
Continuous
 62
     3
370
    50
100
AcDbCircle
 10
-98.46437587454363
 20
10.88750000000006
 30
0.0
 40
3.0
  0
CIRCLE
  5
227
330
1F
100
AcDbEntity
  8
0
  6
Continuous
 62
     3
370
    50
100
AcDbCircle
 10
-98.46437587454363
 20
-54.11249999999995
 30
0.0
 40
3.0
  0
CIRCLE
  5
228
330
1F
100
AcDbEntity
  8
0
  6
Continuous
 62
     3
370
    50
100
AcDbCircle
 10
91.53562412545637
 20
120.1375
 30
0.0
 40
5.0
  0
CIRCLE
  5
229
330
1F
100
AcDbEntity
  8
0
  6
Continuous
 62
     3
370
    50
100
AcDbCircle
 10
91.53562412545637
 20
-62.8625
 30
0.0
 40
5.0
  0
CIRCLE
  5
22A
330
1F
100
AcDbEntity
  8
0
  6
Continuous
 62
     3
370
    50
100
AcDbCircle
 10
91.53562412545637
 20
-40.8625
 30
0.0
 40
10.0
  0
INSERT
  5
22B
330
1F
100
AcDbEntity
  8
0
  6
DASHED2
100
AcDbBlockReference
  2
DC_GROUP_KL500面付本締錠_4
 10
0.0
 20
0.0
 30
0.0
  0
VIEWPORT
  5
74
330
1B
100
AcDbEntity
 67
     1
  8
0
100
AcDbViewport
 10
-18.23218793727182
 20
4.0
 30
0.0
 40
1042.606872376369
 41
819.6749999999997
 68
     1
 69
     1
 12
-18.23218793727182
 22
4.0
 13
0.0
 23
0.0
 14
0.5
 24
0.5
 15
0.0
 25
0.0
 16
0.0
 26
0.0
 36
1.0
 17
0.0
 27
0.0
 37
0.0
 42
50.0
 43
0.0
 44
0.0
 45
819.6749999999997
 50
0.0
 51
0.0
 72
   100
 90
   557152
  1

281
     0
 71
     1
 74
     0
110
0.0
120
0.0
130
0.0
111
1.0
121
0.0
131
0.0
112
0.0
122
1.0
132
0.0
 79
     0
146
0.0
  0
ENDSEC
  0
SECTION
  2
OBJECTS
  0
DICTIONARY
  5
C
330
0
100
AcDbDictionary
281
     1
  3
ACAD_GROUP
350
D
  3
ACAD_LAYOUT
350
1A
  3
ACAD_MATERIAL
350
3B
  3
ACAD_MLEADERSTYLE
350
22E
  3
ACAD_MLINESTYLE
350
17
  3
ACAD_PLOTSETTINGS
350
19
  3
ACAD_PLOTSTYLENAME
350
E
  3
ACAD_SCALELIST
350
C2
  3
ACAD_VISUALSTYLE
350
2A
  3
AcDbVariableDictionary
350
22C
  0
DICTIONARY
  5
D
102
{ACAD_REACTORS
330
C
102
}
330
C
100
AcDbDictionary
281
     1
  0
DICTIONARY
  5
1A
102
{ACAD_REACTORS
330
C
102
}
330
C
100
AcDbDictionary
281
     1
  3
Layout1
350
1E
  3
Layout2
350
26
  3
Model
350
22
  0
DICTIONARY
  5
3B
102
{ACAD_REACTORS
330
C
102
}
330
C
100
AcDbDictionary
281
     1
  3
ByBlock
350
3D
  3
ByLayer
350
3C
  3
Global
350
3E
  0
DICTIONARY
  5
22E
102
{ACAD_REACTORS
330
C
102
}
330
C
100
AcDbDictionary
281
     1
  0
DICTIONARY
  5
17
102
{ACAD_REACTORS
330
C
102
}
330
C
100
AcDbDictionary
281
     1
  3
Standard
350
18
  0
DICTIONARY
  5
19
102
{ACAD_REACTORS
330
C
102
}
330
C
100
AcDbDictionary
281
     1
  0
ACDBDICTIONARYWDFLT
  5
E
102
{ACAD_REACTORS
330
C
102
}
330
C
100
AcDbDictionary
281
     1
  3
Normal
350
F
100
AcDbDictionaryWithDefault
340
F
  0
DICTIONARY
  5
C2
102
{ACAD_REACTORS
330
C
102
}
330
C
100
AcDbDictionary
281
     1
  3
A0
350
C3
  3
A1
350
C4
  3
A2
350
C5
  3
A3
350
C6
  3
A4
350
C7
  3
A5
350
C8
  3
A6
350
C9
  3
A7
350
CA
  3
A8
350
CB
  3
A9
350
CC
  3
B0
350
CD
  3
B1
350
CE
  3
B2
350
CF
  3
B3
350
D0
  3
B4
350
D1
  3
B5
350
D2
  3
B6
350
D3
  3
B7
350
D4
  3
B8
350
D5
  3
B9
350
D6
  3
C0
350
D7
  3
C1
350
D8
  3
C2
350
D9
  3
C3
350
DA
  3
C4
350
DB
  3
C5
350
DC
  3
C6
350
DD
  3
C7
350
DE
  3
C8
350
DF
  3
C9
350
E0
  3
D0
350
E1
  3
D1
350
E2
  3
D2
350
E3
  0
DICTIONARY
  5
2A
102
{ACAD_REACTORS
330
C
102
}
330
C
100
AcDbDictionary
281
     1
  3
2dWireframe
350
2F
  3
3D Hidden
350
31
  3
3dWireframe
350
30
  3
Basic
350
32
  3
Brighten
350
36
  3
ColorChange
350
3A
  3
Conceptual
350
34
  3
Dim
350
35
  3
Facepattern
350
39
  3
Flat
350
2B
  3
FlatWithEdges
350
2C
  3
Gouraud
350
2D
  3
GouraudWithEdges
350
2E
  3
Linepattern
350
38
  3
Realistic
350
33
  3
Thicken
350
37
  0
DICTIONARY
  5
22C
102
{ACAD_REACTORS
330
C
102
}
330
C
100
AcDbDictionary
281
     1
  3
CANNOSCALE
350
22F
  3
DIMASSOC
350
230
  3
HIDETEXT
350
231
  0
LAYOUT
  5
1E
102
{ACAD_REACTORS
330
1A
102
}
330
1A
100
AcDbPlotSettings
  1

  2
none_device
  4

  6

 40
0.0
 41
0.0
 42
0.0
 43
0.0
 44
0.0
 45
0.0
 46
0.0
 47
0.0
 48
0.0
 49
0.0
140
0.0
141
0.0
142
1.0
143
1.0
 70
   688
 72
     0
 73
     0
 74
     5
  7

 75
    16
147
1.0
148
0.0
149
0.0
100
AcDbLayout
  1
Layout1
 70
     0
 71
     1
 10
0.0
 20
0.0
 11
12.0
 21
9.0
 12
0.0
 22
0.0
 32
0.0
 14
1.000000000000000E+20
 24
1.000000000000000E+20
 34
1.000000000000000E+20
 15
-1.000000000000000E+20
 25
-1.000000000000000E+20
 35
-1.000000000000000E+20
146
0.0
 13
0.0
 23
0.0
 33
0.0
 16
1.0
 26
0.0
 36
0.0
 17
0.0
 27
1.0
 37
0.0
 76
     0
330
1B
331
74
  0
LAYOUT
  5
26
102
{ACAD_REACTORS
330
1A
102
}
330
1A
100
AcDbPlotSettings
  1

  2
none_device
  4

  6

 40
0.0
 41
0.0
 42
0.0
 43
0.0
 44
0.0
 45
0.0
 46
0.0
 47
0.0
 48
0.0
 49
0.0
140
0.0
141
0.0
142
1.0
143
1.0
 70
   688
 72
     0
 73
     0
 74
     5
  7

 75
    16
147
1.0
148
0.0
149
0.0
100
AcDbLayout
  1
Layout2
 70
     1
 71
     2
 10
0.0
 20
0.0
 11
0.0
 21
0.0
 12
0.0
 22
0.0
 32
0.0
 14
0.0
 24
0.0
 34
0.0
 15
0.0
 25
0.0
 35
0.0
146
0.0
 13
0.0
 23
0.0
 33
0.0
 16
1.0
 26
0.0
 36
0.0
 17
0.0
 27
1.0
 37
0.0
 76
     0
330
23
  0
LAYOUT
  5
22
102
{ACAD_REACTORS
330
1A
102
}
330
1A
100
AcDbPlotSettings
  1

  2
none_device
  4

  6

 40
0.0
 41
0.0
 42
0.0
 43
0.0
 44
0.0
 45
0.0
 46
0.0
 47
0.0
 48
0.0
 49
0.0
140
0.0
141
0.0
142
1.0
143
1.0
 70
  1712
 72
     0
 73
     0
 74
     0
  7

 75
     0
147
1.0
148
0.0
149
0.0
100
AcDbLayout
  1
Model
 70
     1
 71
     0
 10
-210.0
 20
-148.5
 11
210.0
 21
148.5
 12
0.0
 22
0.0
 32
0.0
 14
-539.5356241254564
 24
-405.8374999999999
 34
0.0
 15
503.0712482509127
 25
413.8374999999999
 35
0.0
146
0.0
 13
0.0
 23
0.0
 33
0.0
 16
1.0
 26
0.0
 36
0.0
 17
0.0
 27
1.0
 37
0.0
 76
     0
330
1F
331
29
  0
MATERIAL
  5
3D
102
{ACAD_REACTORS
330
3B
102
}
102
{ACAD_XDICTIONARY
360
255
102
}
330
3B
100
AcDbMaterial
  1
ByBlock
  0
MATERIAL
  5
3C
102
{ACAD_REACTORS
330
3B
102
}
102
{ACAD_XDICTIONARY
360
253
102
}
330
3B
100
AcDbMaterial
  1
ByLayer
  0
MATERIAL
  5
3E
102
{ACAD_REACTORS
330
3B
102
}
102
{ACAD_XDICTIONARY
360
257
102
}
330
3B
100
AcDbMaterial
  1
Global
  0
MLINESTYLE
  5
18
102
{ACAD_REACTORS
330
17
102
}
330
17
100
AcDbMlineStyle
  2
Standard
 70
     0
  3

 62
   256
 51
90.0
 52
90.0
 71
     2
 49
0.5
 62
   256
  6
BYLAYER
 49
-0.5
 62
   256
  6
BYLAYER
  0
ACDBPLACEHOLDER
  5
F
102
{ACAD_REACTORS
330
E
102
}
330
E
  0
SCALE
  5
C3
102
{ACAD_REACTORS
330
C2
102
}
330
C2
100
AcDbScale
 70
     0
300
1:1
140
1.0
141
1.0
290
     1
  0
SCALE
  5
C4
102
{ACAD_REACTORS
330
C2
102
}
330
C2
100
AcDbScale
 70
     0
300
1:2
140
1.0
141
2.0
290
     0
  0
SCALE
  5
C5
102
{ACAD_REACTORS
330
C2
102
}
330
C2
100
AcDbScale
 70
     0
300
1:4
140
1.0
141
4.0
290
     0
  0
SCALE
  5
C6
102
{ACAD_REACTORS
330
C2
102
}
330
C2
100
AcDbScale
 70
     0
300
1:5
140
1.0
141
5.0
290
     0
  0
SCALE
  5
C7
102
{ACAD_REACTORS
330
C2
102
}
330
C2
100
AcDbScale
 70
     0
300
1:8
140
1.0
141
8.0
290
     0
  0
SCALE
  5
C8
102
{ACAD_REACTORS
330
C2
102
}
330
C2
100
AcDbScale
 70
     0
300
1:10
140
1.0
141
10.0
290
     0
  0
SCALE
  5
C9
102
{ACAD_REACTORS
330
C2
102
}
330
C2
100
AcDbScale
 70
     0
300
1:16
140
1.0
141
16.0
290
     0
  0
SCALE
  5
CA
102
{ACAD_REACTORS
330
C2
102
}
330
C2
100
AcDbScale
 70
     0
300
1:20
140
1.0
141
20.0
290
     0
  0
SCALE
  5
CB
102
{ACAD_REACTORS
330
C2
102
}
330
C2
100
AcDbScale
 70
     0
300
1:30
140
1.0
141
30.0
290
     0
  0
SCALE
  5
CC
102
{ACAD_REACTORS
330
C2
102
}
330
C2
100
AcDbScale
 70
     0
300
1:40
140
1.0
141
40.0
290
     0
  0
SCALE
  5
CD
102
{ACAD_REACTORS
330
C2
102
}
330
C2
100
AcDbScale
 70
     0
300
1:50
140
1.0
141
50.0
290
     0
  0
SCALE
  5
CE
102
{ACAD_REACTORS
330
C2
102
}
330
C2
100
AcDbScale
 70
     0
300
1:100
140
1.0
141
100.0
290
     0
  0
SCALE
  5
CF
102
{ACAD_REACTORS
330
C2
102
}
330
C2
100
AcDbScale
 70
     0
300
2:1
140
2.0
141
1.0
290
     0
  0
SCALE
  5
D0
102
{ACAD_REACTORS
330
C2
102
}
330
C2
100
AcDbScale
 70
     0
300
4:1
140
4.0
141
1.0
290
     0
  0
SCALE
  5
D1
102
{ACAD_REACTORS
330
C2
102
}
330
C2
100
AcDbScale
 70
     0
300
8:1
140
8.0
141
1.0
290
     0
  0
SCALE
  5
D2
102
{ACAD_REACTORS
330
C2
102
}
330
C2
100
AcDbScale
 70
     0
300
10:1
140
10.0
141
1.0
290
     0
  0
SCALE
  5
D3
102
{ACAD_REACTORS
330
C2
102
}
330
C2
100
AcDbScale
 70
     0
300
100:1
140
100.0
141
1.0
290
     0
  0
SCALE
  5
D4
102
{ACAD_REACTORS
330
C2
102
}
330
C2
100
AcDbScale
 70
     0
300
1/128" = 1'-0"
140
0.0078125
141
12.0
290
     0
  0
SCALE
  5
D5
102
{ACAD_REACTORS
330
C2
102
}
330
C2
100
AcDbScale
 70
     0
300
1/64" = 1'-0"
140
0.015625
141
12.0
290
     0
  0
SCALE
  5
D6
102
{ACAD_REACTORS
330
C2
102
}
330
C2
100
AcDbScale
 70
     0
300
1/32" = 1'-0"
140
0.03125
141
12.0
290
     0
  0
SCALE
  5
D7
102
{ACAD_REACTORS
330
C2
102
}
330
C2
100
AcDbScale
 70
     0
300
1/16" = 1'-0"
140
0.0625
141
12.0
290
     0
  0
SCALE
  5
D8
102
{ACAD_REACTORS
330
C2
102
}
330
C2
100
AcDbScale
 70
     0
300
3/32" = 1'-0"
140
0.09375
141
12.0
290
     0
  0
SCALE
  5
D9
102
{ACAD_REACTORS
330
C2
102
}
330
C2
100
AcDbScale
 70
     0
300
1/8" = 1'-0"
140
0.125
141
12.0
290
     0
  0
SCALE
  5
DA
102
{ACAD_REACTORS
330
C2
102
}
330
C2
100
AcDbScale
 70
     0
300
3/16" = 1'-0"
140
0.1875
141
12.0
290
     0
  0
SCALE
  5
DB
102
{ACAD_REACTORS
330
C2
102
}
330
C2
100
AcDbScale
 70
     0
300
1/4" = 1'-0"
140
0.25
141
12.0
290
     0
  0
SCALE
  5
DC
102
{ACAD_REACTORS
330
C2
102
}
330
C2
100
AcDbScale
 70
     0
300
3/8" = 1'-0"
140
0.375
141
12.0
290
     0
  0
SCALE
  5
DD
102
{ACAD_REACTORS
330
C2
102
}
330
C2
100
AcDbScale
 70
     0
300
1/2" = 1'-0"
140
0.5
141
12.0
290
     0
  0
SCALE
  5
DE
102
{ACAD_REACTORS
330
C2
102
}
330
C2
100
AcDbScale
 70
     0
300
3/4" = 1'-0"
140
0.75
141
12.0
290
     0
  0
SCALE
  5
DF
102
{ACAD_REACTORS
330
C2
102
}
330
C2
100
AcDbScale
 70
     0
300
1" = 1'-0"
140
1.0
141
12.0
290
     0
  0
SCALE
  5
E0
102
{ACAD_REACTORS
330
C2
102
}
330
C2
100
AcDbScale
 70
     0
300
1-1/2" = 1'-0"
140
1.5
141
12.0
290
     0
  0
SCALE
  5
E1
102
{ACAD_REACTORS
330
C2
102
}
330
C2
100
AcDbScale
 70
     0
300
3" = 1'-0"
140
3.0
141
12.0
290
     0
  0
SCALE
  5
E2
102
{ACAD_REACTORS
330
C2
102
}
330
C2
100
AcDbScale
 70
     0
300
6" = 1'-0"
140
6.0
141
12.0
290
     0
  0
SCALE
  5
E3
102
{ACAD_REACTORS
330
C2
102
}
330
C2
100
AcDbScale
 70
     0
300
1'-0" = 1'-0"
140
12.0
141
12.0
290
     0
  0
VISUALSTYLE
  5
2F
102
{ACAD_REACTORS
330
2A
102
}
102
{ACAD_XDICTIONARY
360
23B
102
}
330
2A
100
AcDbVisualStyle
  2
2dWireframe
 70
     4
 71
     0
 72
     2
 73
     0
 90
        0
 40
-0.6
 41
-30.0
 62
     5
 63
     7
 74
     1
 91
        4
 64
     7
 65
   257
 75
     1
175
     1
 42
1.0
 92
        0
 66
   257
 43
1.0
 76
     1
 77
     6
 78
     2
 67
     7
 79
     5
170
     0
171
     0
290
     0
174
     0
 93
        1
 44
0.0
173
     0
291
     0
 45
0.0
1001
ACAD
1000
AcDbSavedByObjectVersion
1070
     0
  0
VISUALSTYLE
  5
31
102
{ACAD_REACTORS
330
2A
102
}
102
{ACAD_XDICTIONARY
360
23F
102
}
330
2A
100
AcDbVisualStyle
  2
3D Hidden
 70
     6
 71
     1
 72
     2
 73
     2
 90
        0
 40
-0.6
 41
-30.0
 62
     5
 63
     7
 74
     2
 91
        2
 64
     7
 65
   257
 75
     2
175
     1
 42
40.0
 92
        0
 66
   257
 43
1.0
 76
     1
 77
     6
 78
     2
 67
     7
 79
     3
170
     0
171
     0
290
     0
174
     0
 93
        1
 44
0.0
173
     0
291
     0
 45
0.0
1001
ACAD
1000
AcDbSavedByObjectVersion
1070
     0
  0
VISUALSTYLE
  5
30
102
{ACAD_REACTORS
330
2A
102
}
102
{ACAD_XDICTIONARY
360
23D
102
}
330
2A
100
AcDbVisualStyle
  2
3dWireframe
 70
     5
 71
     0
 72
     2
 73
     0
 90
        0
 40
-0.6
 41
-30.0
 62
     5
 63
     7
 74
     1
 91
        4
 64
     7
 65
   257
 75
     1
175
     1
 42
1.0
 92
        0
 66
   257
 43
1.0
 76
     1
 77
     6
 78
     2
 67
     7
 79
     5
170
     0
171
     0
290
     0
174
     0
 93
        1
 44
0.0
173
     0
291
     0
 45
0.0
1001
ACAD
1000
AcDbSavedByObjectVersion
1070
     0
  0
VISUALSTYLE
  5
32
102
{ACAD_REACTORS
330
2A
102
}
102
{ACAD_XDICTIONARY
360
241
102
}
330
2A
100
AcDbVisualStyle
  2
Basic
 70
     7
 71
     1
 72
     0
 73
     1
 90
        0
 40
-0.6
 41
-30.0
 62
     5
 63
     7
 74
     0
 91
        4
 64
     7
 65
   257
 75
     1
175
     1
 42
1.0
 92
        8
 66
     7
 43
1.0
 76
     1
 77
     6
 78
     2
 67
     7
 79
     5
170
     0
171
     0
290
     0
174
     0
 93
        1
 44
0.0
173
     0
291
     1
 45
0.0
1001
ACAD
1000
AcDbSavedByObjectVersion
1070
     0
  0
VISUALSTYLE
  5
36
102
{ACAD_REACTORS
330
2A
102
}
102
{ACAD_XDICTIONARY
360
249
102
}
330
2A
100
AcDbVisualStyle
  2
Brighten
 70
    12
 71
     2
 72
     2
 73
     0
 90
        0
 40
-0.6
 41
-30.0
 62
     5
 63
     7
 74
     1
 91
        4
 64
     7
 65
   257
 75
     1
175
     1
 42
1.0
 92
        8
 66
     7
 43
1.0
 76
     1
 77
     6
 78
     2
 67
     7
 79
     5
170
     0
171
     0
290
     0
174
     0
 93
        1
 44
50.0
173
     0
291
     1
 45
0.0
1001
ACAD
1000
AcDbSavedByObjectVersion
1070
     0
  0
VISUALSTYLE
  5
3A
102
{ACAD_REACTORS
330
2A
102
}
102
{ACAD_XDICTIONARY
360
251
102
}
330
2A
100
AcDbVisualStyle
  2
ColorChange
 70
    16
 71
     2
 72
     2
 73
     3
 90
        0
 40
-0.6
 41
-30.0
 62
     5
 63
     8
 74
     1
 91
        4
 64
     7
 65
   257
 75
     1
175
     1
 42
1.0
 92
        8
 66
     8
 43
1.0
 76
     1
 77
     6
 78
     2
 67
     7
 79
     5
170
     0
171
     0
290
     0
174
     0
 93
        1
 44
0.0
173
     0
291
     1
 45
0.0
1001
ACAD
1000
AcDbSavedByObjectVersion
1070
     0
  0
VISUALSTYLE
  5
34
102
{ACAD_REACTORS
330
2A
102
}
102
{ACAD_XDICTIONARY
360
245
102
}
330
2A
100
AcDbVisualStyle
  2
Conceptual
 70
     9
 71
     3
 72
     2
 73
     0
 90
        0
 40
-0.6
 41
-30.0
 62
     5
 63
     7
 74
     2
 91
        2
 64
     7
 65
   257
 75
     1
175
     1
 42
40.0
 92
        8
 66
     7
 43
1.0
 76
     1
 77
     6
 78
     2
 67
     7
 79
     3
170
     0
171
     0
290
     0
174
     0
 93
        1
 44
0.0
173
     0
291
     0
 45
0.0
1001
ACAD
1000
AcDbSavedByObjectVersion
1070
     0
  0
VISUALSTYLE
  5
35
102
{ACAD_REACTORS
330
2A
102
}
102
{ACAD_XDICTIONARY
360
247
102
}
330
2A
100
AcDbVisualStyle
  2
Dim
 70
    11
 71
     2
 72
     2
 73
     0
 90
        0
 40
-0.6
 41
-30.0
 62
     5
 63
     7
 74
     1
 91
        4
 64
     7
 65
   257
 75
     1
175
     1
 42
1.0
 92
        8
 66
     7
 43
1.0
 76
     1
 77
     6
 78
     2
 67
     7
 79
     5
170
     0
171
     0
290
     0
174
     0
 93
        1
 44
-50.0
173
     0
291
     1
 45
0.0
1001
ACAD
1000
AcDbSavedByObjectVersion
1070
     0
  0
VISUALSTYLE
  5
39
102
{ACAD_REACTORS
330
2A
102
}
102
{ACAD_XDICTIONARY
360
24F
102
}
330
2A
100
AcDbVisualStyle
  2
Facepattern
 70
    15
 71
     2
 72
     2
 73
     0
 90
        0
 40
-0.6
 41
-30.0
 62
     5
 63
     7
 74
     1
 91
        4
 64
     7
 65
   257
 75
     1
175
     1
 42
1.0
 92
        8
 66
     7
 43
1.0
 76
     1
 77
     6
 78
     2
 67
     7
 79
     5
170
     0
171
     0
290
     0
174
     0
 93
        1
 44
0.0
173
     0
291
     1
 45
0.0
1001
ACAD
1000
AcDbSavedByObjectVersion
1070
     0
  0
VISUALSTYLE
  5
2B
102
{ACAD_REACTORS
330
2A
102
}
102
{ACAD_XDICTIONARY
360
233
102
}
330
2A
100
AcDbVisualStyle
  2
Flat
 70
     0
 71
     2
 72
     1
 73
     1
 90
        2
 40
-0.6
 41
30.0
 62
     5
 63
     7
 74
     0
 91
        4
 64
     7
 65
   257
 75
     1
175
     1
 42
1.0
 92
        8
 66
     7
 43
1.0
 76
     1
 77
     6
 78
     2
 67
     7
 79
     5
170
     0
171
     0
290
     0
174
     0
 93
       13
 44
0.0
173
     0
291
     1
 45
0.0
1001
ACAD
1000
AcDbSavedByObjectVersion
1070
     0
  0
VISUALSTYLE
  5
2C
102
{ACAD_REACTORS
330
2A
102
}
102
{ACAD_XDICTIONARY
360
235
102
}
330
2A
100
AcDbVisualStyle
  2
FlatWithEdges
 70
     1
 71
     2
 72
     1
 73
     1
 90
        2
 40
-0.6
 41
30.0
 62
     5
 63
     7
 74
     1
 91
        4
 64
     7
 65
   257
 75
     1
175
     1
 42
1.0
 92
        0
 66
   257
 43
1.0
 76
     1
 77
     6
 78
     2
 67
     7
 79
     5
170
     0
171
     0
290
     0
174
     0
 93
       13
 44
0.0
173
     0
291
     1
 45
0.0
1001
ACAD
1000
AcDbSavedByObjectVersion
1070
     0
  0
VISUALSTYLE
  5
2D
102
{ACAD_REACTORS
330
2A
102
}
102
{ACAD_XDICTIONARY
360
237
102
}
330
2A
100
AcDbVisualStyle
  2
Gouraud
 70
     2
 71
     2
 72
     2
 73
     1
 90
        2
 40
-0.6
 41
30.0
 62
     5
 63
     7
 74
     0
 91
        4
 64
     7
 65
   257
 75
     1
175
     1
 42
1.0
 92
        0
 66
     7
 43
1.0
 76
     1
 77
     6
 78
     2
 67
     7
 79
     5
170
     0
171
     0
290
     0
174
     0
 93
       13
 44
0.0
173
     0
291
     1
 45
0.0
1001
ACAD
1000
AcDbSavedByObjectVersion
1070
     0
  0
VISUALSTYLE
  5
2E
102
{ACAD_REACTORS
330
2A
102
}
102
{ACAD_XDICTIONARY
360
239
102
}
330
2A
100
AcDbVisualStyle
  2
GouraudWithEdges
 70
     3
 71
     2
 72
     2
 73
     1
 90
        2
 40
-0.6
 41
30.0
 62
     5
 63
     7
 74
     1
 91
        4
 64
     7
 65
   257
 75
     1
175
     1
 42
1.0
 92
        0
 66
   257
 43
1.0
 76
     1
 77
     6
 78
     2
 67
     7
 79
     5
170
     0
171
     0
290
     0
174
     0
 93
       13
 44
0.0
173
     0
291
     1
 45
0.0
1001
ACAD
1000
AcDbSavedByObjectVersion
1070
     0
  0
VISUALSTYLE
  5
38
102
{ACAD_REACTORS
330
2A
102
}
102
{ACAD_XDICTIONARY
360
24D
102
}
330
2A
100
AcDbVisualStyle
  2
Linepattern
 70
    14
 71
     2
 72
     2
 73
     0
 90
        0
 40
-0.6
 41
-30.0
 62
     5
 63
     7
 74
     1
 91
        4
 64
     7
 65
   257
 75
     7
175
     7
 42
1.0
 92
        8
 66
     7
 43
1.0
 76
     1
 77
     6
 78
     2
 67
     7
 79
     5
170
     0
171
     0
290
     0
174
     0
 93
        1
 44
0.0
173
     0
291
     1
 45
0.0
1001
ACAD
1000
AcDbSavedByObjectVersion
1070
     0
  0
VISUALSTYLE
  5
33
102
{ACAD_REACTORS
330
2A
102
}
102
{ACAD_XDICTIONARY
360
243
102
}
330
2A
100
AcDbVisualStyle
  2
Realistic
 70
     8
 71
     2
 72
     2
 73
     0
 90
        0
 40
-0.6
 41
-30.0
 62
     5
 63
     7
 74
     1
 91
        0
 64
     7
 65
   257
 75
     1
175
     1
 42
1.0
 92
        8
 66
     8
 43
1.0
 76
     1
 77
     6
 78
     2
 67
     7
 79
     5
170
     0
171
     0
290
     0
174
     0
 93
       13
 44
0.0
173
     0
291
     0
 45
0.0
1001
ACAD
1000
AcDbSavedByObjectVersion
1070
     0
  0
VISUALSTYLE
  5
37
102
{ACAD_REACTORS
330
2A
102
}
102
{ACAD_XDICTIONARY
360
24B
102
}
330
2A
100
AcDbVisualStyle
  2
Thicken
 70
    13
 71
     2
 72
     2
 73
     0
 90
        0
 40
-0.6
 41
-30.0
 62
     5
 63
     7
 74
     1
 91
        4
 64
     7
 65
   257
 75
     1
175
     1
 42
1.0
 92
       12
 66
     7
 43
1.0
 76
     1
 77
     6
 78
     2
 67
     7
 79
     5
170
     0
171
     0
290
     0
174
     0
 93
        1
 44
0.0
173
     0
291
     1
 45
0.0
1001
ACAD
1000
AcDbSavedByObjectVersion
1070
     0
  0
DICTIONARYVAR
  5
22F
102
{ACAD_REACTORS
330
22C
102
}
330
22C
100
DictionaryVariables
280
     0
  1
1:1
  0
DICTIONARYVAR
  5
230
102
{ACAD_REACTORS
330
22C
102
}
330
22C
100
DictionaryVariables
280
     0
  1
2
  0
DICTIONARYVAR
  5
231
102
{ACAD_REACTORS
330
22C
102
}
330
22C
100
DictionaryVariables
280
     0
  1
1
  0
DICTIONARY
  5
255
330
3D
100
AcDbDictionary
280
     1
281
     1
  3
ACAD_XREC_ROUNDTRIP
360
256
  0
DICTIONARY
  5
253
330
3C
100
AcDbDictionary
280
     1
281
     1
  3
ACAD_XREC_ROUNDTRIP
360
254
  0
DICTIONARY
  5
257
330
3E
100
AcDbDictionary
280
     1
281
     1
  3
ACAD_XREC_ROUNDTRIP
360
258
  0
DICTIONARY
  5
23B
330
2F
100
AcDbDictionary
280
     1
281
     1
  3
ACAD_XREC_ROUNDTRIP
360
23C
  0
DICTIONARY
  5
23F
330
31
100
AcDbDictionary
280
     1
281
     1
  3
ACAD_XREC_ROUNDTRIP
360
240
  0
DICTIONARY
  5
23D
330
30
100
AcDbDictionary
280
     1
281
     1
  3
ACAD_XREC_ROUNDTRIP
360
23E
  0
DICTIONARY
  5
241
330
32
100
AcDbDictionary
280
     1
281
     1
  3
ACAD_XREC_ROUNDTRIP
360
242
  0
DICTIONARY
  5
249
330
36
100
AcDbDictionary
280
     1
281
     1
  3
ACAD_XREC_ROUNDTRIP
360
24A
  0
DICTIONARY
  5
251
330
3A
100
AcDbDictionary
280
     1
281
     1
  3
ACAD_XREC_ROUNDTRIP
360
252
  0
DICTIONARY
  5
245
330
34
100
AcDbDictionary
280
     1
281
     1
  3
ACAD_XREC_ROUNDTRIP
360
246
  0
DICTIONARY
  5
247
330
35
100
AcDbDictionary
280
     1
281
     1
  3
ACAD_XREC_ROUNDTRIP
360
248
  0
DICTIONARY
  5
24F
330
39
100
AcDbDictionary
280
     1
281
     1
  3
ACAD_XREC_ROUNDTRIP
360
250
  0
DICTIONARY
  5
233
330
2B
100
AcDbDictionary
280
     1
281
     1
  3
ACAD_XREC_ROUNDTRIP
360
234
  0
DICTIONARY
  5
235
330
2C
100
AcDbDictionary
280
     1
281
     1
  3
ACAD_XREC_ROUNDTRIP
360
236
  0
DICTIONARY
  5
237
330
2D
100
AcDbDictionary
280
     1
281
     1
  3
ACAD_XREC_ROUNDTRIP
360
238
  0
DICTIONARY
  5
239
330
2E
100
AcDbDictionary
280
     1
281
     1
  3
ACAD_XREC_ROUNDTRIP
360
23A
  0
DICTIONARY
  5
24D
330
38
100
AcDbDictionary
280
     1
281
     1
  3
ACAD_XREC_ROUNDTRIP
360
24E
  0
DICTIONARY
  5
243
330
33
100
AcDbDictionary
280
     1
281
     1
  3
ACAD_XREC_ROUNDTRIP
360
244
  0
DICTIONARY
  5
24B
330
37
100
AcDbDictionary
280
     1
281
     1
  3
ACAD_XREC_ROUNDTRIP
360
24C
  0
XRECORD
  5
256
102
{ACAD_REACTORS
330
255
102
}
330
255
100
AcDbXrecord
280
     1
102
MATERIAL
148
0.0
149
0.0
149
0.0
 93
        0
 94
      127
282
     0
 72
     1
 77
     1
171
     1
175
     1
179
     1
273
     0
  0
XRECORD
  5
254
102
{ACAD_REACTORS
330
253
102
}
330
253
100
AcDbXrecord
280
     1
102
MATERIAL
148
0.0
149
0.0
149
0.0
 93
        0
 94
      127
282
     0
 72
     1
 77
     1
171
     1
175
     1
179
     1
273
     0
  0
XRECORD
  5
258
102
{ACAD_REACTORS
330
257
102
}
330
257
100
AcDbXrecord
280
     1
102
MATERIAL
148
0.0
149
0.0
149
0.0
 93
        0
 94
      127
282
     0
 72
     1
 77
     1
171
     1
175
     1
179
     1
273
     0
  0
XRECORD
  5
23C
102
{ACAD_REACTORS
330
23B
102
}
330
23B
100
AcDbXrecord
280
     1
102
RTVSPropertyOp0
 70
     1
102
RTVSPropertyOp1
 70
     1
102
RTVSPropertyOp2
 70
     1
102
RTVSPropertyOp3
 70
     1
102
RTVSPropertyOp4
 70
     1
102
RTVSPropertyOp5
 70
     1
102
RTVSPropertyOp6
 70
     1
102
RTVSPropertyOp7
 70
     1
102
RTVSPropertyOp8
 70
     1
102
RTVSPropertyOp9
 70
     1
102
RTVSPropertyOp10
 70
     1
102
RTVSPropertyOp11
 70
     1
102
RTVSPropertyOp12
 70
     1
102
RTVSPropertyOp13
 70
     1
102
RTVSPropertyOp14
 70
     1
102
RTVSPropertyOp15
 70
     1
102
RTVSPropertyOp16
 70
     1
102
RTVSPropertyOp17
 70
     1
102
RTVSPropertyOp18
 70
     1
102
RTVSPropertyOp19
 70
     1
102
RTVSPropertyOp20
 70
     1
102
RTVSPropertyOp21
 70
     1
102
RTVSPropertyOp22
 70
     1
102
RTVSPropertyOp23
 70
     1
102
RTVSPropertyOp24
 70
     1
102
RTVSPropertyOp25
 70
     1
102
RTVSPropertyOp26
 70
     1
102
RTVSPropertyOp27
 70
     1
  0
XRECORD
  5
240
102
{ACAD_REACTORS
330
23F
102
}
330
23F
100
AcDbXrecord
280
     1
102
RTVSPropertyOp0
 70
     1
102
RTVSPropertyOp1
 70
     1
102
RTVSPropertyOp2
 70
     1
102
RTVSPropertyOp3
 70
     1
102
RTVSPropertyOp4
 70
     1
102
RTVSPropertyOp5
 70
     1
102
RTVSPropertyOp6
 70
     1
102
RTVSPropertyOp7
 70
     1
102
RTVSPropertyOp8
 70
     1
102
RTVSPropertyOp9
 70
     1
102
RTVSPropertyOp10
 70
     1
102
RTVSPropertyOp11
 70
     1
102
RTVSPropertyOp12
 70
     1
102
RTVSPropertyOp13
 70
     1
102
RTVSPropertyOp14
 70
     1
102
RTVSPropertyOp15
 70
     1
102
RTVSPropertyOp16
 70
     1
102
RTVSPropertyOp17
 70
     1
102
RTVSPropertyOp18
 70
     1
102
RTVSPropertyOp19
 70
     1
102
RTVSPropertyOp20
 70
     1
102
RTVSPropertyOp21
 70
     1
102
RTVSPropertyOp22
 70
     1
102
RTVSPropertyOp23
 70
     1
102
RTVSPropertyOp24
 70
     1
102
RTVSPropertyOp25
 70
     1
102
RTVSPropertyOp26
 70
     1
102
RTVSPropertyOp27
 70
     1
  0
XRECORD
  5
23E
102
{ACAD_REACTORS
330
23D
102
}
330
23D
100
AcDbXrecord
280
     1
102
RTVSPropertyOp0
 70
     1
102
RTVSPropertyOp1
 70
     1
102
RTVSPropertyOp2
 70
     1
102
RTVSPropertyOp3
 70
     1
102
RTVSPropertyOp4
 70
     1
102
RTVSPropertyOp5
 70
     1
102
RTVSPropertyOp6
 70
     1
102
RTVSPropertyOp7
 70
     1
102
RTVSPropertyOp8
 70
     1
102
RTVSPropertyOp9
 70
     1
102
RTVSPropertyOp10
 70
     1
102
RTVSPropertyOp11
 70
     1
102
RTVSPropertyOp12
 70
     1
102
RTVSPropertyOp13
 70
     1
102
RTVSPropertyOp14
 70
     1
102
RTVSPropertyOp15
 70
     1
102
RTVSPropertyOp16
 70
     1
102
RTVSPropertyOp17
 70
     1
102
RTVSPropertyOp18
 70
     1
102
RTVSPropertyOp19
 70
     1
102
RTVSPropertyOp20
 70
     1
102
RTVSPropertyOp21
 70
     1
102
RTVSPropertyOp22
 70
     1
102
RTVSPropertyOp23
 70
     1
102
RTVSPropertyOp24
 70
     1
102
RTVSPropertyOp25
 70
     1
102
RTVSPropertyOp26
 70
     1
102
RTVSPropertyOp27
 70
     1
  0
XRECORD
  5
242
102
{ACAD_REACTORS
330
241
102
}
330
241
100
AcDbXrecord
280
     1
102
RTVSPropertyOp0
 70
     1
102
RTVSPropertyOp1
 70
     1
102
RTVSPropertyOp2
 70
     1
102
RTVSPropertyOp3
 70
     1
102
RTVSPropertyOp4
 70
     1
102
RTVSPropertyOp5
 70
     1
102
RTVSPropertyOp6
 70
     1
102
RTVSPropertyOp7
 70
     1
102
RTVSPropertyOp8
 70
     1
102
RTVSPropertyOp9
 70
     1
102
RTVSPropertyOp10
 70
     1
102
RTVSPropertyOp11
 70
     1
102
RTVSPropertyOp12
 70
     1
102
RTVSPropertyOp13
 70
     1
102
RTVSPropertyOp14
 70
     1
102
RTVSPropertyOp15
 70
     1
102
RTVSPropertyOp16
 70
     1
102
RTVSPropertyOp17
 70
     1
102
RTVSPropertyOp18
 70
     1
102
RTVSPropertyOp19
 70
     1
102
RTVSPropertyOp20
 70
     1
102
RTVSPropertyOp21
 70
     1
102
RTVSPropertyOp22
 70
     1
102
RTVSPropertyOp23
 70
     1
102
RTVSPropertyOp24
 70
     1
102
RTVSPropertyOp25
 70
     1
102
RTVSPropertyOp26
 70
     1
102
RTVSPropertyOp27
 70
     1
  0
XRECORD
  5
24A
102
{ACAD_REACTORS
330
249
102
}
330
249
100
AcDbXrecord
280
     1
102
RTVSPropertyOp0
 70
     1
102
RTVSPropertyOp1
 70
     1
102
RTVSPropertyOp2
 70
     1
102
RTVSPropertyOp3
 70
     1
102
RTVSPropertyOp4
 70
     1
102
RTVSPropertyOp5
 70
     1
102
RTVSPropertyOp6
 70
     1
102
RTVSPropertyOp7
 70
     1
102
RTVSPropertyOp8
 70
     1
102
RTVSPropertyOp9
 70
     1
102
RTVSPropertyOp10
 70
     1
102
RTVSPropertyOp11
 70
     1
102
RTVSPropertyOp12
 70
     1
102
RTVSPropertyOp13
 70
     1
102
RTVSPropertyOp14
 70
     1
102
RTVSPropertyOp15
 70
     1
102
RTVSPropertyOp16
 70
     1
102
RTVSPropertyOp17
 70
     1
102
RTVSPropertyOp18
 70
     1
102
RTVSPropertyOp19
 70
     1
102
RTVSPropertyOp20
 70
     1
102
RTVSPropertyOp21
 70
     1
102
RTVSPropertyOp22
 70
     1
102
RTVSPropertyOp23
 70
     1
102
RTVSPropertyOp24
 70
     1
102
RTVSPropertyOp25
 70
     1
102
RTVSPropertyOp26
 70
     1
102
RTVSPropertyOp27
 70
     1
  0
XRECORD
  5
252
102
{ACAD_REACTORS
330
251
102
}
330
251
100
AcDbXrecord
280
     1
102
RTVSPropertyOp0
 70
     1
102
RTVSPropertyOp1
 70
     1
102
RTVSPropertyOp2
 70
     1
102
RTVSPropertyOp3
 70
     1
102
RTVSPropertyOp4
 70
     1
102
RTVSPropertyOp5
 70
     1
102
RTVSPropertyOp6
 70
     1
102
RTVSPropertyOp7
 70
     1
102
RTVSPropertyOp8
 70
     1
102
RTVSPropertyOp9
 70
     1
102
RTVSPropertyOp10
 70
     1
102
RTVSPropertyOp11
 70
     1
102
RTVSPropertyOp12
 70
     1
102
RTVSPropertyOp13
 70
     1
102
RTVSPropertyOp14
 70
     1
102
RTVSPropertyOp15
 70
     1
102
RTVSPropertyOp16
 70
     1
102
RTVSPropertyOp17
 70
     1
102
RTVSPropertyOp18
 70
     1
102
RTVSPropertyOp19
 70
     1
102
RTVSPropertyOp20
 70
     1
102
RTVSPropertyOp21
 70
     1
102
RTVSPropertyOp22
 70
     1
102
RTVSPropertyOp23
 70
     1
102
RTVSPropertyOp24
 70
     1
102
RTVSPropertyOp25
 70
     1
102
RTVSPropertyOp26
 70
     1
102
RTVSPropertyOp27
 70
     1
  0
XRECORD
  5
246
102
{ACAD_REACTORS
330
245
102
}
330
245
100
AcDbXrecord
280
     1
102
RTVSPropertyOp0
 70
     1
102
RTVSPropertyOp1
 70
     1
102
RTVSPropertyOp2
 70
     1
102
RTVSPropertyOp3
 70
     1
102
RTVSPropertyOp4
 70
     1
102
RTVSPropertyOp5
 70
     1
102
RTVSPropertyOp6
 70
     1
102
RTVSPropertyOp7
 70
     1
102
RTVSPropertyOp8
 70
     1
102
RTVSPropertyOp9
 70
     1
102
RTVSPropertyOp10
 70
     1
102
RTVSPropertyOp11
 70
     1
102
RTVSPropertyOp12
 70
     1
102
RTVSPropertyOp13
 70
     1
102
RTVSPropertyOp14
 70
     1
102
RTVSPropertyOp15
 70
     1
102
RTVSPropertyOp16
 70
     1
102
RTVSPropertyOp17
 70
     1
102
RTVSPropertyOp18
 70
     1
102
RTVSPropertyOp19
 70
     1
102
RTVSPropertyOp20
 70
     1
102
RTVSPropertyOp21
 70
     1
102
RTVSPropertyOp22
 70
     1
102
RTVSPropertyOp23
 70
     1
102
RTVSPropertyOp24
 70
     1
102
RTVSPropertyOp25
 70
     1
102
RTVSPropertyOp26
 70
     1
102
RTVSPropertyOp27
 70
     1
  0
XRECORD
  5
248
102
{ACAD_REACTORS
330
247
102
}
330
247
100
AcDbXrecord
280
     1
102
RTVSPropertyOp0
 70
     1
102
RTVSPropertyOp1
 70
     1
102
RTVSPropertyOp2
 70
     1
102
RTVSPropertyOp3
 70
     1
102
RTVSPropertyOp4
 70
     1
102
RTVSPropertyOp5
 70
     1
102
RTVSPropertyOp6
 70
     1
102
RTVSPropertyOp7
 70
     1
102
RTVSPropertyOp8
 70
     1
102
RTVSPropertyOp9
 70
     1
102
RTVSPropertyOp10
 70
     1
102
RTVSPropertyOp11
 70
     1
102
RTVSPropertyOp12
 70
     1
102
RTVSPropertyOp13
 70
     1
102
RTVSPropertyOp14
 70
     1
102
RTVSPropertyOp15
 70
     1
102
RTVSPropertyOp16
 70
     1
102
RTVSPropertyOp17
 70
     1
102
RTVSPropertyOp18
 70
     1
102
RTVSPropertyOp19
 70
     1
102
RTVSPropertyOp20
 70
     1
102
RTVSPropertyOp21
 70
     1
102
RTVSPropertyOp22
 70
     1
102
RTVSPropertyOp23
 70
     1
102
RTVSPropertyOp24
 70
     1
102
RTVSPropertyOp25
 70
     1
102
RTVSPropertyOp26
 70
     1
102
RTVSPropertyOp27
 70
     1
  0
XRECORD
  5
250
102
{ACAD_REACTORS
330
24F
102
}
330
24F
100
AcDbXrecord
280
     1
102
RTVSPropertyOp0
 70
     1
102
RTVSPropertyOp1
 70
     1
102
RTVSPropertyOp2
 70
     1
102
RTVSPropertyOp3
 70
     1
102
RTVSPropertyOp4
 70
     1
102
RTVSPropertyOp5
 70
     1
102
RTVSPropertyOp6
 70
     1
102
RTVSPropertyOp7
 70
     1
102
RTVSPropertyOp8
 70
     1
102
RTVSPropertyOp9
 70
     1
102
RTVSPropertyOp10
 70
     1
102
RTVSPropertyOp11
 70
     1
102
RTVSPropertyOp12
 70
     1
102
RTVSPropertyOp13
 70
     1
102
RTVSPropertyOp14
 70
     1
102
RTVSPropertyOp15
 70
     1
102
RTVSPropertyOp16
 70
     1
102
RTVSPropertyOp17
 70
     1
102
RTVSPropertyOp18
 70
     1
102
RTVSPropertyOp19
 70
     1
102
RTVSPropertyOp20
 70
     1
102
RTVSPropertyOp21
 70
     1
102
RTVSPropertyOp22
 70
     1
102
RTVSPropertyOp23
 70
     1
102
RTVSPropertyOp24
 70
     1
102
RTVSPropertyOp25
 70
     1
102
RTVSPropertyOp26
 70
     1
102
RTVSPropertyOp27
 70
     1
  0
XRECORD
  5
234
102
{ACAD_REACTORS
330
233
102
}
330
233
100
AcDbXrecord
280
     1
102
RTVSPropertyOp0
 70
     1
102
RTVSPropertyOp1
 70
     1
102
RTVSPropertyOp2
 70
     1
102
RTVSPropertyOp3
 70
     1
102
RTVSPropertyOp4
 70
     1
102
RTVSPropertyOp5
 70
     1
102
RTVSPropertyOp6
 70
     1
102
RTVSPropertyOp7
 70
     1
102
RTVSPropertyOp8
 70
     1
102
RTVSPropertyOp9
 70
     1
102
RTVSPropertyOp10
 70
     1
102
RTVSPropertyOp11
 70
     1
102
RTVSPropertyOp12
 70
     1
102
RTVSPropertyOp13
 70
     1
102
RTVSPropertyOp14
 70
     1
102
RTVSPropertyOp15
 70
     1
102
RTVSPropertyOp16
 70
     1
102
RTVSPropertyOp17
 70
     1
102
RTVSPropertyOp18
 70
     1
102
RTVSPropertyOp19
 70
     1
102
RTVSPropertyOp20
 70
     1
102
RTVSPropertyOp21
 70
     1
102
RTVSPropertyOp22
 70
     1
102
RTVSPropertyOp23
 70
     1
102
RTVSPropertyOp24
 70
     1
102
RTVSPropertyOp25
 70
     1
102
RTVSPropertyOp26
 70
     1
102
RTVSPropertyOp27
 70
     1
  0
XRECORD
  5
236
102
{ACAD_REACTORS
330
235
102
}
330
235
100
AcDbXrecord
280
     1
102
RTVSPropertyOp0
 70
     1
102
RTVSPropertyOp1
 70
     1
102
RTVSPropertyOp2
 70
     1
102
RTVSPropertyOp3
 70
     1
102
RTVSPropertyOp4
 70
     1
102
RTVSPropertyOp5
 70
     1
102
RTVSPropertyOp6
 70
     1
102
RTVSPropertyOp7
 70
     1
102
RTVSPropertyOp8
 70
     1
102
RTVSPropertyOp9
 70
     1
102
RTVSPropertyOp10
 70
     1
102
RTVSPropertyOp11
 70
     1
102
RTVSPropertyOp12
 70
     1
102
RTVSPropertyOp13
 70
     1
102
RTVSPropertyOp14
 70
     1
102
RTVSPropertyOp15
 70
     1
102
RTVSPropertyOp16
 70
     1
102
RTVSPropertyOp17
 70
     1
102
RTVSPropertyOp18
 70
     1
102
RTVSPropertyOp19
 70
     1
102
RTVSPropertyOp20
 70
     1
102
RTVSPropertyOp21
 70
     1
102
RTVSPropertyOp22
 70
     1
102
RTVSPropertyOp23
 70
     1
102
RTVSPropertyOp24
 70
     1
102
RTVSPropertyOp25
 70
     1
102
RTVSPropertyOp26
 70
     1
102
RTVSPropertyOp27
 70
     1
  0
XRECORD
  5
238
102
{ACAD_REACTORS
330
237
102
}
330
237
100
AcDbXrecord
280
     1
102
RTVSPropertyOp0
 70
     1
102
RTVSPropertyOp1
 70
     1
102
RTVSPropertyOp2
 70
     1
102
RTVSPropertyOp3
 70
     1
102
RTVSPropertyOp4
 70
     1
102
RTVSPropertyOp5
 70
     1
102
RTVSPropertyOp6
 70
     1
102
RTVSPropertyOp7
 70
     1
102
RTVSPropertyOp8
 70
     1
102
RTVSPropertyOp9
 70
     1
102
RTVSPropertyOp10
 70
     1
102
RTVSPropertyOp11
 70
     1
102
RTVSPropertyOp12
 70
     1
102
RTVSPropertyOp13
 70
     1
102
RTVSPropertyOp14
 70
     1
102
RTVSPropertyOp15
 70
     1
102
RTVSPropertyOp16
 70
     1
102
RTVSPropertyOp17
 70
     1
102
RTVSPropertyOp18
 70
     1
102
RTVSPropertyOp19
 70
     1
102
RTVSPropertyOp20
 70
     1
102
RTVSPropertyOp21
 70
     1
102
RTVSPropertyOp22
 70
     1
102
RTVSPropertyOp23
 70
     1
102
RTVSPropertyOp24
 70
     1
102
RTVSPropertyOp25
 70
     1
102
RTVSPropertyOp26
 70
     1
102
RTVSPropertyOp27
 70
     1
  0
XRECORD
  5
23A
102
{ACAD_REACTORS
330
239
102
}
330
239
100
AcDbXrecord
280
     1
102
RTVSPropertyOp0
 70
     1
102
RTVSPropertyOp1
 70
     1
102
RTVSPropertyOp2
 70
     1
102
RTVSPropertyOp3
 70
     1
102
RTVSPropertyOp4
 70
     1
102
RTVSPropertyOp5
 70
     1
102
RTVSPropertyOp6
 70
     1
102
RTVSPropertyOp7
 70
     1
102
RTVSPropertyOp8
 70
     1
102
RTVSPropertyOp9
 70
     1
102
RTVSPropertyOp10
 70
     1
102
RTVSPropertyOp11
 70
     1
102
RTVSPropertyOp12
 70
     1
102
RTVSPropertyOp13
 70
     1
102
RTVSPropertyOp14
 70
     1
102
RTVSPropertyOp15
 70
     1
102
RTVSPropertyOp16
 70
     1
102
RTVSPropertyOp17
 70
     1
102
RTVSPropertyOp18
 70
     1
102
RTVSPropertyOp19
 70
     1
102
RTVSPropertyOp20
 70
     1
102
RTVSPropertyOp21
 70
     1
102
RTVSPropertyOp22
 70
     1
102
RTVSPropertyOp23
 70
     1
102
RTVSPropertyOp24
 70
     1
102
RTVSPropertyOp25
 70
     1
102
RTVSPropertyOp26
 70
     1
102
RTVSPropertyOp27
 70
     1
  0
XRECORD
  5
24E
102
{ACAD_REACTORS
330
24D
102
}
330
24D
100
AcDbXrecord
280
     1
102
RTVSPropertyOp0
 70
     1
102
RTVSPropertyOp1
 70
     1
102
RTVSPropertyOp2
 70
     1
102
RTVSPropertyOp3
 70
     1
102
RTVSPropertyOp4
 70
     1
102
RTVSPropertyOp5
 70
     1
102
RTVSPropertyOp6
 70
     1
102
RTVSPropertyOp7
 70
     1
102
RTVSPropertyOp8
 70
     1
102
RTVSPropertyOp9
 70
     1
102
RTVSPropertyOp10
 70
     1
102
RTVSPropertyOp11
 70
     1
102
RTVSPropertyOp12
 70
     1
102
RTVSPropertyOp13
 70
     1
102
RTVSPropertyOp14
 70
     1
102
RTVSPropertyOp15
 70
     1
102
RTVSPropertyOp16
 70
     1
102
RTVSPropertyOp17
 70
     1
102
RTVSPropertyOp18
 70
     1
102
RTVSPropertyOp19
 70
     1
102
RTVSPropertyOp20
 70
     1
102
RTVSPropertyOp21
 70
     1
102
RTVSPropertyOp22
 70
     1
102
RTVSPropertyOp23
 70
     1
102
RTVSPropertyOp24
 70
     1
102
RTVSPropertyOp25
 70
     1
102
RTVSPropertyOp26
 70
     1
102
RTVSPropertyOp27
 70
     1
  0
XRECORD
  5
244
102
{ACAD_REACTORS
330
243
102
}
330
243
100
AcDbXrecord
280
     1
102
RTVSPropertyOp0
 70
     1
102
RTVSPropertyOp1
 70
     1
102
RTVSPropertyOp2
 70
     1
102
RTVSPropertyOp3
 70
     1
102
RTVSPropertyOp4
 70
     1
102
RTVSPropertyOp5
 70
     1
102
RTVSPropertyOp6
 70
     1
102
RTVSPropertyOp7
 70
     1
102
RTVSPropertyOp8
 70
     1
102
RTVSPropertyOp9
 70
     1
102
RTVSPropertyOp10
 70
     1
102
RTVSPropertyOp11
 70
     1
102
RTVSPropertyOp12
 70
     1
102
RTVSPropertyOp13
 70
     1
102
RTVSPropertyOp14
 70
     1
102
RTVSPropertyOp15
 70
     1
102
RTVSPropertyOp16
 70
     1
102
RTVSPropertyOp17
 70
     1
102
RTVSPropertyOp18
 70
     1
102
RTVSPropertyOp19
 70
     1
102
RTVSPropertyOp20
 70
     1
102
RTVSPropertyOp21
 70
     1
102
RTVSPropertyOp22
 70
     1
102
RTVSPropertyOp23
 70
     1
102
RTVSPropertyOp24
 70
     1
102
RTVSPropertyOp25
 70
     1
102
RTVSPropertyOp26
 70
     1
102
RTVSPropertyOp27
 70
     1
  0
XRECORD
  5
24C
102
{ACAD_REACTORS
330
24B
102
}
330
24B
100
AcDbXrecord
280
     1
102
RTVSPropertyOp0
 70
     1
102
RTVSPropertyOp1
 70
     1
102
RTVSPropertyOp2
 70
     1
102
RTVSPropertyOp3
 70
     1
102
RTVSPropertyOp4
 70
     1
102
RTVSPropertyOp5
 70
     1
102
RTVSPropertyOp6
 70
     1
102
RTVSPropertyOp7
 70
     1
102
RTVSPropertyOp8
 70
     1
102
RTVSPropertyOp9
 70
     1
102
RTVSPropertyOp10
 70
     1
102
RTVSPropertyOp11
 70
     1
102
RTVSPropertyOp12
 70
     1
102
RTVSPropertyOp13
 70
     1
102
RTVSPropertyOp14
 70
     1
102
RTVSPropertyOp15
 70
     1
102
RTVSPropertyOp16
 70
     1
102
RTVSPropertyOp17
 70
     1
102
RTVSPropertyOp18
 70
     1
102
RTVSPropertyOp19
 70
     1
102
RTVSPropertyOp20
 70
     1
102
RTVSPropertyOp21
 70
     1
102
RTVSPropertyOp22
 70
     1
102
RTVSPropertyOp23
 70
     1
102
RTVSPropertyOp24
 70
     1
102
RTVSPropertyOp25
 70
     1
102
RTVSPropertyOp26
 70
     1
102
RTVSPropertyOp27
 70
     1
  0
ENDSEC
  0
EOF
