  0
SECTION
  2
HEADER
  9
$ACADVER
  1
AC1015
  9
$ACADMAINTVER
 70
     6
  9
$DWGCODEPAGE
  3
ANSI_932
  9
$INSBASE
 10
0.0
 20
0.0
 30
0.0
  9
$EXTMIN
 10
-223.4931009592062
 20
-393.518691588785
 30
0.0
  9
$EXTMAX
 10
185.9862019184124
 20
394.0373831775701
 30
0.0
  9
$LIMMIN
 10
-105.0
 20
-148.5
  9
$LIMMAX
 10
105.0
 20
148.5
  9
$ORTHOMODE
 70
     0
  9
$REGENMODE
 70
     1
  9
$FILLMODE
 70
     1
  9
$QTEXTMODE
 70
     0
  9
$MIRRTEXT
 70
     1
  9
$LTSCALE
 40
0.25
  9
$ATTMODE
 70
     1
  9
$TEXTSIZE
 40
0.2
  9
$TRACEWID
 40
0.05
  9
$TEXTSTYLE
  7
Standard
  9
$CLAYER
  8
0
  9
$CELTYPE
  6
ByLayer
  9
$CECOLOR
 62
   256
  9
$CELTSCALE
 40
1.0
  9
$DISPSILH
 70
     0
  9
$DIMSCALE
 40
1.0
  9
$DIMASZ
 40
3.000001882570243
  9
$DIMEXO
 40
1.0
  9
$DIMDLI
 40
10.0
  9
$DIMRND
 40
0.0
  9
$DIMDLE
 40
0.0
  9
$DIMEXE
 40
1.0
  9
$DIMTP
 40
0.0
  9
$DIMTM
 40
0.0
  9
$DIMTXT
 40
3.0
  9
$DIMCEN
 40
0.0
  9
$DIMTSZ
 40
0.0
  9
$DIMTOL
 70
     0
  9
$DIMLIM
 70
     0
  9
$DIMTIH
 70
     0
  9
$DIMTOH
 70
     0
  9
$DIMSE1
 70
     0
  9
$DIMSE2
 70
     0
  9
$DIMTAD
 70
     1
  9
$DIMZIN
 70
     8
  9
$DIMBLK
  1

  9
$DIMASO
 70
     1
  9
$DIMSHO
 70
     1
  9
$DIMPOST
  1

  9
$DIMAPOST
  1

  9
$DIMALT
 70
     0
  9
$DIMALTD
 70
     2
  9
$DIMALTF
 40
25.4
  9
$DIMLFAC
 40
1.0
  9
$DIMTOFL
 70
     0
  9
$DIMTVP
 40
0.0
  9
$DIMTIX
 70
     0
  9
$DIMSOXD
 70
     0
  9
$DIMSAH
 70
     0
  9
$DIMBLK1
  1

  9
$DIMBLK2
  1

  9
$DIMSTYLE
  2
Standard
  9
$DIMCLRD
 70
     0
  9
$DIMCLRE
 70
     0
  9
$DIMCLRT
 70
     0
  9
$DIMTFAC
 40
0.65
  9
$DIMGAP
 40
0.09
  9
$DIMJUST
 70
     0
  9
$DIMSD1
 70
     0
  9
$DIMSD2
 70
     0
  9
$DIMTOLJ
 70
     0
  9
$DIMTZIN
 70
     0
  9
$DIMALTZ
 70
     0
  9
$DIMALTTZ
 70
     0
  9
$DIMUPT
 70
     0
  9
$DIMDEC
 70
     2
  9
$DIMTDEC
 70
     2
  9
$DIMALTU
 70
     2
  9
$DIMALTTD
 70
     2
  9
$DIMTXSTY
  7
Standard
  9
$DIMAUNIT
 70
     0
  9
$DIMADEC
 70
     2
  9
$DIMALTRND
 40
0.0
  9
$DIMAZIN
 70
     2
  9
$DIMDSEP
 70
    46
  9
$DIMATFIT
 70
     3
  9
$DIMFRAC
 70
     0
  9
$DIMLDRBLK
  1

  9
$DIMLUNIT
 70
     2
  9
$DIMLWD
 70
    -2
  9
$DIMLWE
 70
    -2
  9
$DIMTMOVE
 70
     0
  9
$LUNITS
 70
     2
  9
$LUPREC
 70
     4
  9
$SKETCHINC
 40
0.1
  9
$FILLETRAD
 40
0.5
  9
$AUNITS
 70
     0
  9
$AUPREC
 70
     0
  9
$MENU
  1
.
  9
$ELEVATION
 40
0.0
  9
$PELEVATION
 40
0.0
  9
$THICKNESS
 40
0.0
  9
$LIMCHECK
 70
     0
  9
$CHAMFERA
 40
0.5
  9
$CHAMFERB
 40
0.5
  9
$CHAMFERC
 40
1.0
  9
$CHAMFERD
 40
0.0
  9
$SKPOLY
 70
     0
  9
$TDCREATE
 40
2455552.472079711
  9
$TDUCREATE
 40
2455552.097079711
  9
$TDUPDATE
 40
2455552.472079722
  9
$TDUUPDATE
 40
2455552.097079722
  9
$TDINDWG
 40
0.0000000116
  9
$TDUSRTIMER
 40
0.0000000116
  9
$USRTIMER
 70
     1
  9
$ANGBASE
 50
0.0
  9
$ANGDIR
 70
     0
  9
$PDMODE
 70
     0
  9
$PDSIZE
 40
1.0
  9
$PLINEWID
 40
0.0
  9
$SPLFRAME
 70
     0
  9
$SPLINETYPE
 70
     6
  9
$SPLINESEGS
 70
     8
  9
$HANDSEED
  5
20D
  9
$SURFTAB1
 70
     6
  9
$SURFTAB2
 70
     6
  9
$SURFTYPE
 70
     6
  9
$SURFU
 70
     6
  9
$SURFV
 70
     6
  9
$UCSBASE
  2

  9
$UCSNAME
  2

  9
$UCSORG
 10
0.0
 20
0.0
 30
0.0
  9
$UCSXDIR
 10
1.0
 20
0.0
 30
0.0
  9
$UCSYDIR
 10
0.0
 20
1.0
 30
0.0
  9
$UCSORTHOREF
  2

  9
$UCSORTHOVIEW
 70
     0
  9
$UCSORGTOP
 10
0.0
 20
0.0
 30
0.0
  9
$UCSORGBOTTOM
 10
0.0
 20
0.0
 30
0.0
  9
$UCSORGLEFT
 10
0.0
 20
0.0
 30
0.0
  9
$UCSORGRIGHT
 10
0.0
 20
0.0
 30
0.0
  9
$UCSORGFRONT
 10
0.0
 20
0.0
 30
0.0
  9
$UCSORGBACK
 10
0.0
 20
0.0
 30
0.0
  9
$PUCSBASE
  2

  9
$PUCSNAME
  2

  9
$PUCSORG
 10
0.0
 20
0.0
 30
0.0
  9
$PUCSXDIR
 10
1.0
 20
0.0
 30
0.0
  9
$PUCSYDIR
 10
0.0
 20
1.0
 30
0.0
  9
$PUCSORTHOREF
  2

  9
$PUCSORTHOVIEW
 70
     0
  9
$PUCSORGTOP
 10
0.0
 20
0.0
 30
0.0
  9
$PUCSORGBOTTOM
 10
0.0
 20
0.0
 30
0.0
  9
$PUCSORGLEFT
 10
0.0
 20
0.0
 30
0.0
  9
$PUCSORGRIGHT
 10
0.0
 20
0.0
 30
0.0
  9
$PUCSORGFRONT
 10
0.0
 20
0.0
 30
0.0
  9
$PUCSORGBACK
 10
0.0
 20
0.0
 30
0.0
  9
$USERI1
 70
     0
  9
$USERI2
 70
     0
  9
$USERI3
 70
     0
  9
$USERI4
 70
     0
  9
$USERI5
 70
     0
  9
$USERR1
 40
0.0
  9
$USERR2
 40
0.0
  9
$USERR3
 40
0.0
  9
$USERR4
 40
0.0
  9
$USERR5
 40
0.0
  9
$WORLDVIEW
 70
     1
  9
$SHADEDGE
 70
     3
  9
$SHADEDIF
 70
    70
  9
$TILEMODE
 70
     1
  9
$MAXACTVP
 70
    64
  9
$PINSBASE
 10
0.0
 20
0.0
 30
0.0
  9
$PLIMCHECK
 70
     0
  9
$PEXTMIN
 10
1.000000000000000E+20
 20
1.000000000000000E+20
 30
1.000000000000000E+20
  9
$PEXTMAX
 10
-1.000000000000000E+20
 20
-1.000000000000000E+20
 30
-1.000000000000000E+20
  9
$PLIMMIN
 10
0.0
 20
0.0
  9
$PLIMMAX
 10
12.0
 20
9.0
  9
$UNITMODE
 70
     0
  9
$VISRETAIN
 70
     0
  9
$PLINEGEN
 70
     1
  9
$PSLTSCALE
 70
     0
  9
$TREEDEPTH
 70
  3020
  9
$CMLSTYLE
  2
Standard
  9
$CMLJUST
 70
     0
  9
$CMLSCALE
 40
1.0
  9
$PROXYGRAPHICS
 70
     0
  9
$MEASUREMENT
 70
     1
  9
$CELWEIGHT
370
    -1
  9
$ENDCAPS
280
     0
  9
$JOINSTYLE
280
     0
  9
$LWDISPLAY
290
     1
  9
$INSUNITS
 70
     4
  9
$HYPERLINKBASE
  1

  9
$STYLESHEET
  1

  9
$XEDIT
290
     1
  9
$CEPSNTYPE
380
     0
  9
$PSTYLEMODE
290
     1
  9
$FINGERPRINTGUID
  2
{F8200309-35B8-4302-AD1A-85ECF30F5CC5}
  9
$VERSIONGUID
  2
{FAEB1C32-E019-11D5-929B-00C0DF256EC4}
  9
$EXTNAMES
290
     1
  9
$PSVPSCALE
 40
0.0
  9
$OLESTARTUP
290
     0
  0
ENDSEC
  0
SECTION
  2
CLASSES
  0
CLASS
  1
ACDBDICTIONARYWDFLT
  2
AcDbDictionaryWithDefault
  3
ObjectDBX Classes
 90
        0
280
     0
281
     0
  0
CLASS
  1
VISUALSTYLE
  2
AcDbVisualStyle
  3
ObjectDBX Classes
 90
     4095
280
     0
281
     0
  0
CLASS
  1
MATERIAL
  2
AcDbMaterial
  3
ObjectDBX Classes
 90
     1153
280
     0
281
     0
  0
CLASS
  1
SCALE
  2
AcDbScale
  3
ObjectDBX Classes
 90
     1153
280
     0
281
     0
  0
CLASS
  1
DICTIONARYVAR
  2
AcDbDictionaryVar
  3
ObjectDBX Classes
 90
        0
280
     0
281
     0
  0
CLASS
  1
ACDBPLACEHOLDER
  2
AcDbPlaceHolder
  3
ObjectDBX Classes
 90
        0
280
     0
281
     0
  0
CLASS
  1
LAYOUT
  2
AcDbLayout
  3
ObjectDBX Classes
 90
        0
280
     0
281
     0
  0
ENDSEC
  0
SECTION
  2
TABLES
  0
TABLE
  2
VPORT
  5
8
330
0
100
AcDbSymbolTable
 70
     1
  0
VPORT
  5
29
330
8
100
AcDbSymbolTableRecord
100
AcDbViewportTableRecord
  2
*Active
 70
     0
 10
0.0
 20
0.0
 11
1.0
 21
1.0
 12
-18.7534495203969
 22
0.0744432681074727
 13
0.0
 23
0.0
 14
0.5
 24
0.5
 15
0.5
 25
0.5
 16
0.0
 26
0.0
 36
1.0
 17
0.0
 27
0.0
 37
0.0
 40
268.4499951080607
 41
0.5186178637192679
 42
50.0
 43
0.0
 44
0.0
 50
0.0
 51
0.0
 71
     0
 72
  1000
 73
     1
 74
     1
 75
     0
 76
     0
 77
     0
 78
     0
281
     0
 65
     1
110
0.0
120
0.0
130
0.0
111
1.0
121
0.0
131
0.0
112
0.0
122
1.0
132
0.0
 79
     0
146
0.0
  0
ENDTAB
  0
TABLE
  2
LTYPE
  5
5
330
0
100
AcDbSymbolTable
 70
    53
  0
LTYPE
  5
14
330
5
100
AcDbSymbolTableRecord
100
AcDbLinetypeTableRecord
  2
ByBlock
 70
     0
  3

 72
    65
 73
     0
 40
0.0
  0
LTYPE
  5
15
330
5
100
AcDbSymbolTableRecord
100
AcDbLinetypeTableRecord
  2
ByLayer
 70
     0
  3

 72
    65
 73
     0
 40
0.0
  0
LTYPE
  5
16
330
5
100
AcDbSymbolTableRecord
100
AcDbLinetypeTableRecord
  2
Continuous
 70
     0
  3
Solid line
 72
    65
 73
     0
 40
0.0
  0
LTYPE
  5
40
330
5
100
AcDbSymbolTableRecord
100
AcDbLinetypeTableRecord
  2
HIDDENX2
 70
     0
  3
Hidden (2x) ____ ____ ____ ____ ____ ____ ____ 
 72
    65
 73
     2
 40
19.05
 49
12.7
 74
     0
 49
-6.35
 74
     0
  0
LTYPE
  5
41
330
5
100
AcDbSymbolTableRecord
100
AcDbLinetypeTableRecord
  2
HIDDEN
 70
     0
  3
Hidden __ __ __ __ __ __ __ __ __ __ __ __ __ __
 72
    65
 73
     2
 40
9.524999999999999
 49
6.35
 74
     0
 49
-3.175
 74
     0
  0
LTYPE
  5
42
330
5
100
AcDbSymbolTableRecord
100
AcDbLinetypeTableRecord
  2
HIDDEN2
 70
     0
  3
Hidden (.5x) _ _ _ _ _ _ _ _ _ _ _ _ _ _ _ _ _ 
 72
    65
 73
     2
 40
4.762499999999999
 49
3.175
 74
     0
 49
-1.5875
 74
     0
  0
LTYPE
  5
43
330
5
100
AcDbSymbolTableRecord
100
AcDbLinetypeTableRecord
  2
DASHED
 70
     0
  3
Dashed __ __ __ __ __ __ __ __ __ __ __ __ __ _
 72
    65
 73
     2
 40
19.05
 49
12.7
 74
     0
 49
-6.35
 74
     0
  0
LTYPE
  5
44
330
5
100
AcDbSymbolTableRecord
100
AcDbLinetypeTableRecord
  2
DASHED2
 70
     0
  3
Dashed (.5x) _ _ _ _ _ _ _ _ _ _ _ _ _ _ _ _ _ 
 72
    65
 73
     2
 40
9.524999999999999
 49
6.35
 74
     0
 49
-3.175
 74
     0
  0
LTYPE
  5
45
330
5
100
AcDbSymbolTableRecord
100
AcDbLinetypeTableRecord
  2
DASHEDX2
 70
     0
  3
Dashed (2x) ____  ____  ____  ____  ____  ___
 72
    65
 73
     2
 40
38.09999999999999
 49
25.4
 74
     0
 49
-12.7
 74
     0
  0
LTYPE
  5
46
330
5
100
AcDbSymbolTableRecord
100
AcDbLinetypeTableRecord
  2
DOTX2
 70
     0
  3
Dot (2x) .  .  .  .  .  .  .  .  .  .  .  .  .  .
 72
    65
 73
     2
 40
12.7
 49
0.0
 74
     0
 49
-12.7
 74
     0
  0
LTYPE
  5
47
330
5
100
AcDbSymbolTableRecord
100
AcDbLinetypeTableRecord
  2
DOT
 70
     0
  3
Dot . . . . . . . . . . . . . . . . . . . . . . . .
 72
    65
 73
     2
 40
6.35
 49
0.0
 74
     0
 49
-6.35
 74
     0
  0
LTYPE
  5
48
330
5
100
AcDbSymbolTableRecord
100
AcDbLinetypeTableRecord
  2
DOT2
 70
     0
  3
Dot (.5x) ........................................
 72
    65
 73
     2
 40
3.175
 49
0.0
 74
     0
 49
-3.175
 74
     0
  0
LTYPE
  5
49
330
5
100
AcDbSymbolTableRecord
100
AcDbLinetypeTableRecord
  2
CENTERX2
 70
     0
  3
Center (2x) ________  __  ________  __  _____
 72
    65
 73
     4
 40
101.6
 49
63.5
 74
     0
 49
-12.7
 74
     0
 49
12.7
 74
     0
 49
-12.7
 74
     0
  0
LTYPE
  5
4A
330
5
100
AcDbSymbolTableRecord
100
AcDbLinetypeTableRecord
  2
CENTER
 70
     0
  3
Center ____ _ ____ _ ____ _ ____ _ ____ _ ____
 72
    65
 73
     4
 40
50.8
 49
31.75
 74
     0
 49
-6.35
 74
     0
 49
6.35
 74
     0
 49
-6.35
 74
     0
  0
LTYPE
  5
4B
330
5
100
AcDbSymbolTableRecord
100
AcDbLinetypeTableRecord
  2
CENTER2
 70
     0
  3
Center (.5x) ___ _ ___ _ ___ _ ___ _ ___ _ ___
 72
    65
 73
     4
 40
28.575
 49
19.05
 74
     0
 49
-3.175
 74
     0
 49
3.175
 74
     0
 49
-3.175
 74
     0
  0
LTYPE
  5
4C
330
5
100
AcDbSymbolTableRecord
100
AcDbLinetypeTableRecord
  2
DASHDOTX2
 70
     0
  3
Dash dot (2x) ____  .  ____  .  ____  .  ___
 72
    65
 73
     4
 40
50.8
 49
25.4
 74
     0
 49
-12.7
 74
     0
 49
0.0
 74
     0
 49
-12.7
 74
     0
  0
LTYPE
  5
4D
330
5
100
AcDbSymbolTableRecord
100
AcDbLinetypeTableRecord
  2
DASHDOT
 70
     0
  3
Dash dot __ . __ . __ . __ . __ . __ . __ . __
 72
    65
 73
     4
 40
25.4
 49
12.7
 74
     0
 49
-6.35
 74
     0
 49
0.0
 74
     0
 49
-6.35
 74
     0
  0
LTYPE
  5
4E
330
5
100
AcDbSymbolTableRecord
100
AcDbLinetypeTableRecord
  2
DASHDOT2
 70
     0
  3
Dash dot (.5x) _._._._._._._._._._._._._._._.
 72
    65
 73
     4
 40
12.7
 49
6.35
 74
     0
 49
-3.175
 74
     0
 49
0.0
 74
     0
 49
-3.175
 74
     0
  0
LTYPE
  5
4F
330
5
100
AcDbSymbolTableRecord
100
AcDbLinetypeTableRecord
  2
DIVIDEX2
 70
     0
  3
Divide (2x) ________  .  .  ________  .  .  _
 72
    65
 73
     6
 40
63.5
 49
25.4
 74
     0
 49
-12.7
 74
     0
 49
0.0
 74
     0
 49
-12.7
 74
     0
 49
0.0
 74
     0
 49
-12.7
 74
     0
  0
LTYPE
  5
50
330
5
100
AcDbSymbolTableRecord
100
AcDbLinetypeTableRecord
  2
DIVIDE
 70
     0
  3
Divide ____ . . ____ . . ____ . . ____ . . ____
 72
    65
 73
     6
 40
31.75
 49
12.7
 74
     0
 49
-6.35
 74
     0
 49
0.0
 74
     0
 49
-6.35
 74
     0
 49
0.0
 74
     0
 49
-6.35
 74
     0
  0
LTYPE
  5
51
330
5
100
AcDbSymbolTableRecord
100
AcDbLinetypeTableRecord
  2
DIVIDE2
 70
     0
  3
Divide (.5x) __..__..__..__..__..__..__..__.._
 72
    65
 73
     6
 40
15.875
 49
6.35
 74
     0
 49
-3.175
 74
     0
 49
0.0
 74
     0
 49
-3.175
 74
     0
 49
0.0
 74
     0
 49
-3.175
 74
     0
  0
LTYPE
  5
52
330
5
100
AcDbSymbolTableRecord
100
AcDbLinetypeTableRecord
  2
BORDERX2
 70
     0
  3
Border (2x) ____  ____  .  ____  ____  .  ___
 72
    65
 73
     6
 40
88.89999999999999
 49
25.4
 74
     0
 49
-12.7
 74
     0
 49
25.4
 74
     0
 49
-12.7
 74
     0
 49
0.0
 74
     0
 49
-12.7
 74
     0
  0
LTYPE
  5
53
330
5
100
AcDbSymbolTableRecord
100
AcDbLinetypeTableRecord
  2
BORDER
 70
     0
  3
Border __ __ . __ __ . __ __ . __ __ . __ __ .
 72
    65
 73
     6
 40
44.45
 49
12.7
 74
     0
 49
-6.35
 74
     0
 49
12.7
 74
     0
 49
-6.35
 74
     0
 49
0.0
 74
     0
 49
-6.35
 74
     0
  0
LTYPE
  5
54
330
5
100
AcDbSymbolTableRecord
100
AcDbLinetypeTableRecord
  2
BORDER2
 70
     0
  3
Border (.5x) __.__.__.__.__.__.__.__.__.__.__.
 72
    65
 73
     6
 40
22.225
 49
6.35
 74
     0
 49
-3.175
 74
     0
 49
6.35
 74
     0
 49
-3.175
 74
     0
 49
0.0
 74
     0
 49
-3.175
 74
     0
  0
LTYPE
  5
55
330
5
100
AcDbSymbolTableRecord
100
AcDbLinetypeTableRecord
  2
PHANTOMX2
 70
     0
  3
Phantom (2x) ____________    ____    ____   _
 72
    65
 73
     6
 40
127.0
 49
63.5
 74
     0
 49
-12.7
 74
     0
 49
12.7
 74
     0
 49
-12.7
 74
     0
 49
12.7
 74
     0
 49
-12.7
 74
     0
  0
LTYPE
  5
56
330
5
100
AcDbSymbolTableRecord
100
AcDbLinetypeTableRecord
  2
PHANTOM
 70
     0
  3
Phantom ______  __  __  ______  __  __  ______ 
 72
    65
 73
     6
 40
63.5
 49
31.75
 74
     0
 49
-6.35
 74
     0
 49
6.35
 74
     0
 49
-6.35
 74
     0
 49
6.35
 74
     0
 49
-6.35
 74
     0
  0
LTYPE
  5
57
330
5
100
AcDbSymbolTableRecord
100
AcDbLinetypeTableRecord
  2
PHANTOM2
 70
     0
  3
Phantom (.5x) ___ _ _ ___ _ _ ___ _ _ ___ _ _
 72
    65
 73
     6
 40
31.75
 49
15.875
 74
     0
 49
-3.175
 74
     0
 49
3.175
 74
     0
 49
-3.175
 74
     0
 49
3.175
 74
     0
 49
-3.175
 74
     0
  0
LTYPE
  5
58
330
5
100
AcDbSymbolTableRecord
100
AcDbLinetypeTableRecord
  2
ACAD_ISO06W100
 70
     0
  3
ISO long-dash triple-dot ____ ... ____ ... ____
 72
    65
 73
     8
 40
36.0
 49
24.0
 74
     0
 49
-3.0
 74
     0
 49
0.0
 74
     0
 49
-3.0
 74
     0
 49
0.0
 74
     0
 49
-3.0
 74
     0
 49
0.0
 74
     0
 49
-3.0
 74
     0
  0
LTYPE
  5
59
330
5
100
AcDbSymbolTableRecord
100
AcDbLinetypeTableRecord
  2
ACAD_ISO13W100
 70
     0
  3
ISO double-dash double-dot __ __ . . __ __ . . _
 72
    65
 73
     8
 40
36.0
 49
12.0
 74
     0
 49
-3.0
 74
     0
 49
12.0
 74
     0
 49
-3.0
 74
     0
 49
0.0
 74
     0
 49
-3.0
 74
     0
 49
0.0
 74
     0
 49
-3.0
 74
     0
  0
LTYPE
  5
5A
330
5
100
AcDbSymbolTableRecord
100
AcDbLinetypeTableRecord
  2
ACAD_ISO14W100
 70
     0
  3
ISO dash triple-dot __ . . . __ . . . __ . . . _
 72
    65
 73
     8
 40
24.0
 49
12.0
 74
     0
 49
-3.0
 74
     0
 49
0.0
 74
     0
 49
-3.0
 74
     0
 49
0.0
 74
     0
 49
-3.0
 74
     0
 49
0.0
 74
     0
 49
-3.0
 74
     0
  0
LTYPE
  5
5B
330
5
100
AcDbSymbolTableRecord
100
AcDbLinetypeTableRecord
  2
ACAD_ISO02W100
 70
     0
  3
ISO dash __ __ __ __ __ __ __ __ __ __ __ __ __
 72
    65
 73
     2
 40
15.0
 49
12.0
 74
     0
 49
-3.0
 74
     0
  0
LTYPE
  5
5C
330
5
100
AcDbSymbolTableRecord
100
AcDbLinetypeTableRecord
  2
ACAD_ISO03W100
 70
     0
  3
ISO dash space __    __    __    __    __    __
 72
    65
 73
     2
 40
30.0
 49
12.0
 74
     0
 49
-18.0
 74
     0
  0
LTYPE
  5
5D
330
5
100
AcDbSymbolTableRecord
100
AcDbLinetypeTableRecord
  2
ACAD_ISO04W100
 70
     0
  3
ISO long-dash dot ____ . ____ . ____ . ____ . _
 72
    65
 73
     4
 40
30.0
 49
24.0
 74
     0
 49
-3.0
 74
     0
 49
0.0
 74
     0
 49
-3.0
 74
     0
  0
LTYPE
  5
5E
330
5
100
AcDbSymbolTableRecord
100
AcDbLinetypeTableRecord
  2
ACAD_ISO05W100
 70
     0
  3
ISO long-dash double-dot ____ .. ____ .. ____ . 
 72
    65
 73
     6
 40
33.0
 49
24.0
 74
     0
 49
-3.0
 74
     0
 49
0.0
 74
     0
 49
-3.0
 74
     0
 49
0.0
 74
     0
 49
-3.0
 74
     0
  0
LTYPE
  5
5F
330
5
100
AcDbSymbolTableRecord
100
AcDbLinetypeTableRecord
  2
ACAD_ISO07W100
 70
     0
  3
ISO dot . . . . . . . . . . . . . . . . . . . . 
 72
    65
 73
     2
 40
3.0
 49
0.0
 74
     0
 49
-3.0
 74
     0
  0
LTYPE
  5
60
330
5
100
AcDbSymbolTableRecord
100
AcDbLinetypeTableRecord
  2
ACAD_ISO08W100
 70
     0
  3
ISO long-dash short-dash ____ __ ____ __ ____ _
 72
    65
 73
     4
 40
36.0
 49
24.0
 74
     0
 49
-3.0
 74
     0
 49
6.0
 74
     0
 49
-3.0
 74
     0
  0
LTYPE
  5
61
330
5
100
AcDbSymbolTableRecord
100
AcDbLinetypeTableRecord
  2
ACAD_ISO09W100
 70
     0
  3
ISO long-dash double-short-dash ____ __ __ ____
 72
    65
 73
     6
 40
45.0
 49
24.0
 74
     0
 49
-3.0
 74
     0
 49
6.0
 74
     0
 49
-3.0
 74
     0
 49
6.0
 74
     0
 49
-3.0
 74
     0
  0
LTYPE
  5
62
330
5
100
AcDbSymbolTableRecord
100
AcDbLinetypeTableRecord
  2
ACAD_ISO10W100
 70
     0
  3
ISO dash dot __ . __ . __ . __ . __ . __ . __ . 
 72
    65
 73
     4
 40
18.0
 49
12.0
 74
     0
 49
-3.0
 74
     0
 49
0.0
 74
     0
 49
-3.0
 74
     0
  0
LTYPE
  5
63
330
5
100
AcDbSymbolTableRecord
100
AcDbLinetypeTableRecord
  2
ACAD_ISO11W100
 70
     0
  3
ISO double-dash dot __ __ . __ __ . __ __ . __ _
 72
    65
 73
     6
 40
33.0
 49
12.0
 74
     0
 49
-3.0
 74
     0
 49
12.0
 74
     0
 49
-3.0
 74
     0
 49
0.0
 74
     0
 49
-3.0
 74
     0
  0
LTYPE
  5
64
330
5
100
AcDbSymbolTableRecord
100
AcDbLinetypeTableRecord
  2
ACAD_ISO12W100
 70
     0
  3
ISO dash double-dot __ . . __ . . __ . . __ . . 
 72
    65
 73
     6
 40
21.0
 49
12.0
 74
     0
 49
-3.0
 74
     0
 49
0.0
 74
     0
 49
-3.0
 74
     0
 49
0.0
 74
     0
 49
-3.0
 74
     0
  0
LTYPE
  5
65
330
5
100
AcDbSymbolTableRecord
100
AcDbLinetypeTableRecord
  2
ACAD_ISO15W100
 70
     0
  3
ISO double-dash triple-dot __ __ . . . __ __ . .
 72
    65
 73
    10
 40
39.0
 49
12.0
 74
     0
 49
-3.0
 74
     0
 49
12.0
 74
     0
 49
-3.0
 74
     0
 49
0.0
 74
     0
 49
-3.0
 74
     0
 49
0.0
 74
     0
 49
-3.0
 74
     0
 49
0.0
 74
     0
 49
-3.0
 74
     0
  0
LTYPE
  5
66
330
5
100
AcDbSymbolTableRecord
100
AcDbLinetypeTableRecord
  2
JIS_02_0.7
 70
     0
  3
HIDDEN0.75 _ _ _ _ _ _ _ _ _ _ _ _ _ _ _ _ _ 
 72
    65
 73
     2
 40
1.35
 49
0.75
 74
     0
 49
-0.6
 74
     0
  0
LTYPE
  5
67
330
5
100
AcDbSymbolTableRecord
100
AcDbLinetypeTableRecord
  2
JIS_02_1.0
 70
     0
  3
HIDDEN01 _ _ _ _ _ _ _ _ _ _ _ _ _ _ _ _ _ 
 72
    65
 73
     2
 40
2.0
 49
1.0
 74
     0
 49
-1.0
 74
     0
  0
LTYPE
  5
68
330
5
100
AcDbSymbolTableRecord
100
AcDbLinetypeTableRecord
  2
JIS_02_1.2
 70
     0
  3
HIDDEN01.25  _ _ _ _ _ _ _ _ _ _ _ _ _ _ _ _ _ 
 72
    65
 73
     2
 40
2.5
 49
1.25
 74
     0
 49
-1.25
 74
     0
  0
LTYPE
  5
69
330
5
100
AcDbSymbolTableRecord
100
AcDbLinetypeTableRecord
  2
JIS_02_2.0
 70
     0
  3
HIDDEN02 __ __ __ __ __ __ __ __ __ __ __ 
 72
    65
 73
     2
 40
3.0
 49
2.0
 74
     0
 49
-1.0
 74
     0
  0
LTYPE
  5
6A
330
5
100
AcDbSymbolTableRecord
100
AcDbLinetypeTableRecord
  2
JIS_02_4.0
 70
     0
  3
HIDDEN04 ____ ____ ____ ____ ____ ____ ____ 
 72
    65
 73
     2
 40
5.5
 49
4.0
 74
     0
 49
-1.5
 74
     0
  0
LTYPE
  5
6B
330
5
100
AcDbSymbolTableRecord
100
AcDbLinetypeTableRecord
  2
JIS_08_11
 70
     0
  3
1SASEN11 ___ _ ___ _ ___ _ ___ _ ___ _ ___
 72
    65
 73
     4
 40
12.8
 49
11.0
 74
     0
 49
-0.6
 74
     0
 49
0.6
 74
     0
 49
-0.6
 74
     0
  0
LTYPE
  5
6C
330
5
100
AcDbSymbolTableRecord
100
AcDbLinetypeTableRecord
  2
JIS_08_15
 70
     0
  3
1SASEN15 ____ _ ____ _ ____ _ ____ _ ____ 
 72
    65
 73
     4
 40
17.25
 49
15.0
 74
     0
 49
-0.75
 74
     0
 49
0.75
 74
     0
 49
-0.75
 74
     0
  0
LTYPE
  5
6D
330
5
100
AcDbSymbolTableRecord
100
AcDbLinetypeTableRecord
  2
JIS_08_25
 70
     0
  3
1SASEN25 ________  __  ________  __  _____
 72
    65
 73
     4
 40
28.0
 49
25.0
 74
     0
 49
-1.125
 74
     0
 49
0.75
 74
     0
 49
-1.125
 74
     0
  0
LTYPE
  5
6E
330
5
100
AcDbSymbolTableRecord
100
AcDbLinetypeTableRecord
  2
JIS_08_37
 70
     0
  3
1SASEN37 ________  __  ________  __  _____
 72
    65
 73
     4
 40
40.5
 49
37.5
 74
     0
 49
-1.125
 74
     0
 49
0.75
 74
     0
 49
-1.125
 74
     0
  0
LTYPE
  5
6F
330
5
100
AcDbSymbolTableRecord
100
AcDbLinetypeTableRecord
  2
JIS_08_50
 70
     0
  3
1SASEN50 _______________  __  ____________
 72
    65
 73
     4
 40
53.0
 49
50.0
 74
     0
 49
-1.125
 74
     0
 49
0.75
 74
     0
 49
-1.125
 74
     0
  0
LTYPE
  5
70
330
5
100
AcDbSymbolTableRecord
100
AcDbLinetypeTableRecord
  2
JIS_09_08
 70
     0
  3
2SASEN8 __ _ _ __ _ _ __ _ _ __ _ _ __ _ _ 
 72
    65
 73
     6
 40
10.75
 49
8.0
 74
     0
 49
-0.55
 74
     0
 49
0.55
 74
     0
 49
-0.55
 74
     0
 49
0.55
 74
     0
 49
-0.55
 74
     0
  0
LTYPE
  5
71
330
5
100
AcDbSymbolTableRecord
100
AcDbLinetypeTableRecord
  2
JIS_09_15
 70
     0
  3
2SASEN15 ___ _ _ ___ _ _ ___ _ _ ___ _ _ ___ 
 72
    65
 73
     6
 40
18.9
 49
15.0
 74
     0
 49
-0.9
 74
     0
 49
0.6
 74
     0
 49
-0.9
 74
     0
 49
0.6
 74
     0
 49
-0.9
 74
     0
  0
LTYPE
  5
72
330
5
100
AcDbSymbolTableRecord
100
AcDbLinetypeTableRecord
  2
JIS_09_29
 70
     0
  3
2SASEN29 ______　__  __  ______　__  __  ___
 72
    65
 73
     6
 40
34.0
 49
29.0
 74
     0
 49
-1.2
 74
     0
 49
0.7
 74
     0
 49
-1.2
 74
     0
 49
0.7
 74
     0
 49
-1.2
 74
     0
  0
LTYPE
  5
73
330
5
100
AcDbSymbolTableRecord
100
AcDbLinetypeTableRecord
  2
JIS_09_50
 70
     0
  3
2SASEN50 ____________　__  __  _____________
 72
    65
 73
     6
 40
55.0
 49
50.0
 74
     0
 49
-1.2
 74
     0
 49
0.7
 74
     0
 49
-1.2
 74
     0
 49
0.7
 74
     0
 49
-1.2
 74
     0
  0
ENDTAB
  0
TABLE
  2
LAYER
  5
2
330
0
100
AcDbSymbolTable
 70
     1
  0
LAYER
  5
10
330
2
100
AcDbSymbolTableRecord
100
AcDbLayerTableRecord
  2
0
 70
     0
 62
     7
  6
Continuous
370
    -3
390
F
  0
ENDTAB
  0
TABLE
  2
STYLE
  5
3
330
0
100
AcDbSymbolTable
 70
     2
  0
STYLE
  5
11
330
3
100
AcDbSymbolTableRecord
100
AcDbTextStyleTableRecord
  2
Standard
 70
     0
 40
0.0
 41
1.0
 50
0.0
 71
     0
 42
0.2
  3
txt.shx
  4
bigfont.shx
  0
STYLE
  5
90
330
3
100
AcDbSymbolTableRecord
100
AcDbTextStyleTableRecord
  2
dcStyle0
 70
     0
 40
0.0
 41
0.9999999999999999
 50
0.0
 71
     0
 42
0.2
  3
HGRSMP.TTF
  4

1001
ACAD
1000
HG丸ｺﾞｼｯｸM-PRO
1071
    32802
  0
ENDTAB
  0
TABLE
  2
VIEW
  5
6
330
0
100
AcDbSymbolTable
 70
     0
  0
ENDTAB
  0
TABLE
  2
UCS
  5
7
330
0
100
AcDbSymbolTable
 70
     0
  0
ENDTAB
  0
TABLE
  2
APPID
  5
9
330
0
100
AcDbSymbolTable
 70
     3
  0
APPID
  5
12
330
9
100
AcDbSymbolTableRecord
100
AcDbRegAppTableRecord
  2
ACAD
 70
     0
  0
APPID
  5
3F
330
9
100
AcDbSymbolTableRecord
100
AcDbRegAppTableRecord
  2
DaFusionOut
 70
     0
  0
APPID
  5
1E6
330
9
100
AcDbSymbolTableRecord
100
AcDbRegAppTableRecord
  2
ACAD_DSTYLE_DIMARC_LENGTH_SYMBOL
 70
     0
  0
ENDTAB
  0
TABLE
  2
DIMSTYLE
  5
A
330
0
100
AcDbSymbolTable
 70
     2
100
AcDbDimStyleTable
  0
DIMSTYLE
105
27
330
A
100
AcDbSymbolTableRecord
100
AcDbDimStyleTableRecord
  2
Standard
 70
     0
340
11
  0
DIMSTYLE
105
138
102
{ACAD_REACTORS
330
137
330
139
330
13A
330
13B
102
}
330
A
100
AcDbSymbolTableRecord
100
AcDbDimStyleTableRecord
  2
dc_Rotated
 70
     0
 41
3.000001882570243
 42
1.0
 44
1.0
 73
     0
 74
     0
 77
     3
 78
     8
 79
     2
140
3.0
147
1.0
172
     1
173
     1
176
     4
177
     4
178
     2
271
     2
274
     4
283
     0
284
     8
288
     1
340
90
343
115
344
115
1001
ACAD_DSTYLE_DIMARC_LENGTH_SYMBOL
1070
   379
1070
     1
  0
ENDTAB
  0
TABLE
  2
BLOCK_RECORD
  5
1
330
0
100
AcDbSymbolTable
 70
    11
  0
BLOCK_RECORD
  5
1F
330
1
100
AcDbSymbolTableRecord
100
AcDbBlockTableRecord
  2
*Model_Space
340
22
  0
BLOCK_RECORD
  5
1B
330
1
100
AcDbSymbolTableRecord
100
AcDbBlockTableRecord
  2
*Paper_Space
340
1E
  0
BLOCK_RECORD
  5
23
330
1
100
AcDbSymbolTableRecord
100
AcDbBlockTableRecord
  2
*Paper_Space0
340
26
  0
BLOCK_RECORD
  5
75
330
1
100
AcDbSymbolTableRecord
100
AcDbBlockTableRecord
  2
DC_GROUP_KL500MIWA SL80取替仕様_1
340
0
102
{BLKREFS
331
132
102
}
  0
BLOCK_RECORD
  5
78
330
1
100
AcDbSymbolTableRecord
100
AcDbBlockTableRecord
  2
DC_GROUP_KL500MIWA SL80取替仕様_2
340
0
102
{BLKREFS
331
133
102
}
  0
BLOCK_RECORD
  5
7B
330
1
100
AcDbSymbolTableRecord
100
AcDbBlockTableRecord
  2
DC_GROUP_KL500MIWA SL80取替仕様_3
340
0
102
{BLKREFS
331
134
102
}
  0
BLOCK_RECORD
  5
7E
330
1
100
AcDbSymbolTableRecord
100
AcDbBlockTableRecord
  2
DC_GROUP_KL500MIWA SL80取替仕様_4
340
0
102
{BLKREFS
331
135
102
}
  0
BLOCK_RECORD
  5
81
330
1
100
AcDbSymbolTableRecord
100
AcDbBlockTableRecord
  2
DC_GROUP_KL500MIWA SL80取替仕様_5
340
0
102
{BLKREFS
331
136
102
}
  0
BLOCK_RECORD
  5
84
330
1
100
AcDbSymbolTableRecord
100
AcDbBlockTableRecord
  2
*D6
340
0
  0
BLOCK_RECORD
  5
87
330
1
100
AcDbSymbolTableRecord
100
AcDbBlockTableRecord
  2
*D7
340
0
  0
BLOCK_RECORD
  5
8A
330
1
100
AcDbSymbolTableRecord
100
AcDbBlockTableRecord
  2
*D8
340
0
  0
BLOCK_RECORD
  5
8D
330
1
100
AcDbSymbolTableRecord
100
AcDbBlockTableRecord
  2
*D9
340
0
  0
BLOCK_RECORD
  5
115
330
1
100
AcDbSymbolTableRecord
100
AcDbBlockTableRecord
  2
_OPEN30
340
0
102
{BLKREFS
331
11B
331
11C
331
121
331
122
331
127
331
128
331
12D
331
12E
102
}
  0
ENDTAB
  0
ENDSEC
  0
SECTION
  2
BLOCKS
  0
BLOCK
  5
20
330
1F
100
AcDbEntity
  8
0
100
AcDbBlockBegin
  2
*Model_Space
 70
     0
 10
0.0
 20
0.0
 30
0.0
  3
*Model_Space
  1

  0
ENDBLK
  5
21
330
1F
100
AcDbEntity
  8
0
100
AcDbBlockEnd
  0
BLOCK
  5
1C
330
1B
100
AcDbEntity
 67
     1
  8
0
100
AcDbBlockBegin
  2
*Paper_Space
 70
     0
 10
0.0
 20
0.0
 30
0.0
  3
*Paper_Space
  1

  0
ENDBLK
  5
1D
330
1B
100
AcDbEntity
 67
     1
  8
0
100
AcDbBlockEnd
  0
BLOCK
  5
24
330
23
100
AcDbEntity
  8
0
100
AcDbBlockBegin
  2
*Paper_Space0
 70
     0
 10
0.0
 20
0.0
 30
0.0
  3
*Paper_Space0
  1

  0
ENDBLK
  5
25
330
23
100
AcDbEntity
  8
0
100
AcDbBlockEnd
  0
BLOCK
  5
76
330
75
100
AcDbEntity
  8
0
100
AcDbBlockBegin
  2
DC_GROUP_KL500MIWA SL80取替仕様_1
 70
     0
 10
0.0
 20
0.0
 30
0.0
  3
DC_GROUP_KL500MIWA SL80取替仕様_1
  1

  0
TEXT
  5
91
330
75
100
AcDbEntity
  8
0
 62
     2
100
AcDbText
 10
-87.0
 20
126.0
 30
0.0
 40
5.0
  1
適用品番　KL22271
 41
0.7149772845758545
  7
dcStyle0
 72
     5
 11
-39.0
 21
126.0
 31
0.0
100
AcDbText
  0
ENDBLK
  5
77
330
75
100
AcDbEntity
  8
0
100
AcDbBlockEnd
  0
BLOCK
  5
79
330
78
100
AcDbEntity
  8
0
100
AcDbBlockBegin
  2
DC_GROUP_KL500MIWA SL80取替仕様_2
 70
     0
 10
0.0
 20
0.0
 30
0.0
  3
DC_GROUP_KL500MIWA SL80取替仕様_2
  1

  0
LINE
  5
B4
330
78
100
AcDbEntity
  8
0
  6
Continuous
 62
     9
370
    13
100
AcDbLine
 10
1.957567053273451
 20
98.4446667536662
 30
0.0
 11
3.993100959206217
 21
100.4802006595989
 31
0.0
  0
LINE
  5
B5
330
78
100
AcDbEntity
  8
0
  6
Continuous
 62
     9
370
    13
100
AcDbLine
 10
6.993100959206188
 20
103.4802006595989
 30
0.0
 11
9.028634865138926
 21
105.5157345655317
 31
0.0
  0
LINE
  5
B6
330
78
100
AcDbEntity
  8
0
  6
Continuous
 62
     9
370
    13
100
AcDbLine
 10
1.321892562881871
 20
99.22320582564772
 30
0.0
 11
2.57888739683311
 21
100.4802006595989
 31
0.0
  0
LINE
  5
B7
330
78
100
AcDbEntity
  8
0
  6
Continuous
 62
     9
370
    13
100
AcDbLine
 10
5.578887396833082
 20
103.4802006595989
 30
0.0
 11
8.2500957931574
 21
106.1514090559232
 31
0.0
  0
LINE
  5
B8
330
78
100
AcDbEntity
  8
0
  6
Continuous
 62
     9
370
    13
100
AcDbLine
 10
0.8385170476291677
 20
100.1540438727681
 30
0.0
 11
1.164673834460004
 21
100.4802006595989
 31
0.0
  0
LINE
  5
B9
330
78
100
AcDbEntity
  8
0
  6
Continuous
 62
     9
370
    13
100
AcDbLine
 10
4.164673834459975
 20
103.4802006595989
 30
0.0
 11
7.319257746036996
 21
106.634784571176
 31
0.0
  0
LINE
  5
BA
330
78
100
AcDbEntity
  8
0
  6
Continuous
 62
     9
370
    13
100
AcDbLine
 10
0.5433534909003441
 20
101.2730938784124
 30
0.0
 11
0.9931009592061883
 21
101.7228413467182
 31
0.0
  0
LINE
  5
BB
330
78
100
AcDbEntity
  8
0
  6
Continuous
 62
     9
370
    13
100
AcDbLine
 10
2.750460272086869
 20
103.4802006595989
 30
0.0
 11
6.200207740392713
 21
106.9299481279048
 31
0.0
  0
LINE
  5
BC
330
78
100
AcDbEntity
  8
0
  6
Continuous
 62
     9
370
    13
100
AcDbLine
 10
0.5433534909003441
 20
102.6873074407855
 30
0.0
 11
0.9931009592061883
 21
103.1370549090913
 31
0.0
  0
LINE
  5
BD
330
78
100
AcDbEntity
  8
0
  6
Continuous
 62
     9
370
    13
100
AcDbLine
 10
1.336246709713762
 20
103.4802006595989
 30
0.0
 11
4.785994178019607
 21
106.9299481279048
 31
0.0
  0
LINE
  5
BE
330
78
100
AcDbEntity
  8
0
  6
Continuous
 62
     9
370
    13
100
AcDbLine
 10
2.736106125254977
 20
97.80899226327462
 30
0.0
 11
5.407314521579323
 21
100.4802006595989
 31
0.0
  0
LINE
  5
BF
330
78
100
AcDbEntity
  8
0
  6
Continuous
 62
     9
370
    13
100
AcDbLine
 10
8.407314521579295
 20
103.4802006595989
 30
0.0
 11
9.664309355530506
 21
104.7371954935501
 31
0.0
  0
LINE
  5
C0
330
78
100
AcDbEntity
  8
0
  6
Continuous
 62
     9
370
    13
100
AcDbLine
 10
3.666944172375381
 20
97.32561674802189
 30
0.0
 11
6.82152808395243
 21
100.4802006595989
 31
0.0
  0
LINE
  5
C1
330
78
100
AcDbEntity
  8
0
  6
Continuous
 62
     9
370
    13
100
AcDbLine
 10
9.821528083952401
 20
103.4802006595989
 30
0.0
 11
10.14768487078321
 21
103.8063574464297
 31
0.0
  0
LINE
  5
C2
330
78
100
AcDbEntity
  8
0
  6
Continuous
 62
     9
370
    13
100
AcDbLine
 10
4.785994178019664
 20
97.03045319129309
 30
0.0
 11
8.235741646325536
 21
100.4802006595989
 31
0.0
  0
LINE
  5
C3
330
78
100
AcDbEntity
  8
0
  6
Continuous
 62
     9
370
    13
100
AcDbLine
 10
9.993100959206188
 20
102.2375599724796
 30
0.0
 11
10.44284842751203
 21
102.6873074407854
 31
0.0
  0
LINE
  5
C4
330
78
100
AcDbEntity
  8
0
  6
Continuous
 62
     9
370
    13
100
AcDbLine
 10
6.200207740392798
 20
97.0304531912931
 30
0.0
 11
9.649955208698643
 21
100.4802006595989
 31
0.0
  0
LINE
  5
C5
330
78
100
AcDbEntity
  8
0
  6
Continuous
 62
     9
370
    13
100
AcDbLine
 10
9.993100959206188
 20
100.8233464101065
 30
0.0
 11
10.442848427512
 21
101.2730938784123
 31
0.0
  0
ENDBLK
  5
7A
330
78
100
AcDbEntity
  8
0
100
AcDbBlockEnd
  0
BLOCK
  5
7C
330
7B
100
AcDbEntity
  8
0
100
AcDbBlockBegin
  2
DC_GROUP_KL500MIWA SL80取替仕様_3
 70
     0
 10
0.0
 20
0.0
 30
0.0
  3
DC_GROUP_KL500MIWA SL80取替仕様_3
  1

  0
LINE
  5
C6
330
7B
100
AcDbEntity
  8
0
  6
Continuous
 62
     9
370
    13
100
AcDbLine
 10
-4.461255098111664
 20
79.0254503199378
 30
0.0
 11
6.447457016524041
 21
89.93416243457354
 31
0.0
  0
LINE
  5
C7
330
7B
100
AcDbEntity
  8
0
  6
Continuous
 62
     9
370
    13
100
AcDbLine
 10
-4.497941332553339
 20
80.40297764786925
 30
0.0
 11
5.069929688592609
 21
89.97084866901518
 31
0.0
  0
LINE
  5
C8
330
7B
100
AcDbEntity
  8
0
  6
Continuous
 62
     9
370
    13
100
AcDbLine
 10
-4.296945150974167
 20
82.01818739182151
 30
0.0
 11
3.45471994464036
 21
89.76985248743604
 31
0.0
  0
LINE
  5
C9
330
7B
100
AcDbEntity
  8
0
  6
Continuous
 62
     9
370
    13
100
AcDbLine
 10
-3.609774724853267
 20
84.11957138031549
 30
0.0
 11
1.353335956146381
 21
89.08268206131514
 31
0.0
  0
LINE
  5
CA
330
7B
100
AcDbEntity
  8
0
  6
Continuous
 62
     9
370
    13
100
AcDbLine
 10
-4.267535638027525
 20
77.80495621764885
 30
0.0
 11
7.667951118813008
 21
89.74044297448938
 31
0.0
  0
LINE
  5
CB
330
7B
100
AcDbEntity
  8
0
  6
Continuous
 62
     9
370
    13
100
AcDbLine
 10
-3.954911665955834
 20
76.70336662734744
 30
0.0
 11
-0.5068990407938117
 21
80.15137925250947
 31
0.0
  0
LINE
  5
CC
330
7B
100
AcDbEntity
  8
0
  6
Continuous
 62
     9
370
    13
100
AcDbLine
 10
0.8215280839523729
 20
81.47980637725567
 30
0.0
 11
8.769540709114423
 21
89.4278190024177
 31
0.0
  0
LINE
  5
CD
330
7B
100
AcDbEntity
  8
0
  6
Continuous
 62
     9
370
    13
100
AcDbLine
 10
-3.54454881971084
 20
75.69951591121936
 30
0.0
 11
-0.5068990407938117
 21
78.73716569013637
 31
0.0
  0
LINE
  5
CE
330
7B
100
AcDbEntity
  8
0
  6
Continuous
 62
     9
370
    13
100
AcDbLine
 10
2.235741646325479
 20
81.47980637725567
 30
0.0
 11
9.77339142524248
 21
89.01745615617268
 31
0.0
  0
LINE
  5
CF
330
7B
100
AcDbEntity
  8
0
  6
Continuous
 62
     9
370
    13
100
AcDbLine
 10
-3.049122840284397
 20
74.78072832827269
 30
0.0
 11
0.6499552086985858
 21
78.47980637725567
 31
0.0
  0
LINE
  5
D0
330
7B
100
AcDbEntity
  8
0
  6
Continuous
 62
     9
370
    13
100
AcDbLine
 10
3.649955208698586
 20
81.47980637725567
 30
0.0
 11
10.69217900818917
 21
88.52203017674626
 31
0.0
  0
LINE
  5
D1
330
7B
100
AcDbEntity
  8
0
  6
Continuous
 62
     9
370
    13
100
AcDbLine
 10
-2.47634944272319
 20
73.93928816346079
 30
0.0
 11
2.064168771071692
 21
78.47980637725567
 31
0.0
  0
LINE
  5
D2
330
7B
100
AcDbEntity
  8
0
  6
Continuous
 62
     9
370
    13
100
AcDbLine
 10
5.064168771071692
 20
81.47980637725567
 30
0.0
 11
11.53361917300107
 21
87.94925677918505
 31
0.0
  0
LINE
  5
D3
330
7B
100
AcDbEntity
  8
0
  6
Continuous
 62
     9
370
    13
100
AcDbLine
 10
-1.830641175463441
 20
73.17078286834744
 30
0.0
 11
3.478382333444799
 21
78.47980637725567
 31
0.0
  0
LINE
  5
D4
330
7B
100
AcDbEntity
  8
0
  6
Continuous
 62
     9
370
    13
100
AcDbLine
 10
6.478382333444799
 20
81.47980637725567
 30
0.0
 11
12.3021244681144
 21
87.30354851192529
 31
0.0
  0
LINE
  5
D5
330
7B
100
AcDbEntity
  8
0
  6
Continuous
 62
     9
370
    13
100
AcDbLine
 10
-1.113902043827622
 20
72.47330843761016
 30
0.0
 11
4.892595895817877
 21
78.47980637725567
 31
0.0
  0
LINE
  5
D6
330
7B
100
AcDbEntity
  8
0
  6
Continuous
 62
     9
370
    13
100
AcDbLine
 10
7.892595895817877
 20
81.47980637725567
 30
0.0
 11
12.99959889885169
 21
86.58680938028948
 31
0.0
  0
LINE
  5
D7
330
7B
100
AcDbEntity
  8
0
  6
Continuous
 62
     9
370
    13
100
AcDbLine
 10
-0.3258378104090838
 20
71.84715910865559
 30
0.0
 11
6.306809458190983
 21
78.47980637725567
 31
0.0
  0
LINE
  5
D8
330
7B
100
AcDbEntity
  8
0
  6
Continuous
 62
     9
370
    13
100
AcDbLine
 10
9.306809458190983
 20
81.47980637725567
 30
0.0
 11
13.62574822780626
 21
85.79874514687096
 31
0.0
  0
LINE
  5
D9
330
7B
100
AcDbEntity
  8
0
  6
Continuous
 62
     9
370
    13
100
AcDbLine
 10
0.5360907044954928
 20
71.29487406118706
 30
0.0
 11
7.72102302056409
 21
78.47980637725567
 31
0.0
  0
LINE
  5
DA
330
7B
100
AcDbEntity
  8
0
  6
Continuous
 62
     9
370
    13
100
AcDbLine
 10
10.72102302056409
 20
81.47980637725567
 30
0.0
 11
14.17803327527479
 21
84.93681663196638
 31
0.0
  0
LINE
  5
DB
330
7B
100
AcDbEntity
  8
0
  6
Continuous
 62
     9
370
    13
100
AcDbLine
 10
1.477089728978044
 20
70.82165952329653
 30
0.0
 11
9.135236582937168
 21
78.47980637725567
 31
0.0
  0
LINE
  5
DC
330
7B
100
AcDbEntity
  8
0
  6
Continuous
 62
     9
370
    13
100
AcDbLine
 10
11.49310095920619
 20
80.83767075352468
 30
0.0
 11
14.65124781316534
 21
83.9958176074838
 31
0.0
  0
LINE
  5
DD
330
7B
100
AcDbEntity
  8
0
  6
Continuous
 62
     9
370
    13
100
AcDbLine
 10
2.506008491911317
 20
70.4363647238567
 30
0.0
 11
10.54945014531027
 21
78.47980637725567
 31
0.0
  0
LINE
  5
DE
330
7B
100
AcDbEntity
  8
0
  6
Continuous
 62
     9
370
    13
100
AcDbLine
 10
11.49310095920619
 20
79.42345719115157
 30
0.0
 11
15.03654261260515
 21
82.96689884455053
 31
0.0
  0
LINE
  5
DF
330
7B
100
AcDbEntity
  8
0
  6
Continuous
 62
     9
370
    13
100
AcDbLine
 10
3.637360815923486
 20
70.15350348549576
 30
0.0
 11
15.31940385096611
 21
81.83554652053839
 31
0.0
  0
LINE
  5
E0
330
7B
100
AcDbEntity
  8
0
  6
Continuous
 62
     9
370
    13
100
AcDbLine
 10
4.895735490990077
 20
69.99766459818927
 30
0.0
 11
15.4752427382726
 21
80.57717184547177
 31
0.0
  0
LINE
  5
E1
330
7B
100
AcDbEntity
  8
0
  6
Continuous
 62
     9
370
    13
100
AcDbLine
 10
6.326913643459008
 20
70.01462918828511
 30
0.0
 11
15.45827814817675
 21
79.14599369300284
 31
0.0
  0
LINE
  5
E2
330
7B
100
AcDbEntity
  8
0
  6
Continuous
 62
     9
370
    13
100
AcDbLine
 10
8.034675964596303
 20
70.30817794704929
 30
0.0
 11
15.16472938941256
 21
77.43823137186557
 31
0.0
  0
LINE
  5
E3
330
7B
100
AcDbEntity
  8
0
  6
Continuous
 62
     9
370
    13
100
AcDbLine
 10
10.41647179235919
 20
71.2757602124391
 30
0.0
 11
14.19714712402278
 21
75.05643554410265
 31
0.0
  0
ENDBLK
  5
7D
330
7B
100
AcDbEntity
  8
0
100
AcDbBlockEnd
  0
BLOCK
  5
7F
330
7E
100
AcDbEntity
  8
0
100
AcDbBlockBegin
  2
DC_GROUP_KL500MIWA SL80取替仕様_4
 70
     0
 10
0.0
 20
0.0
 30
0.0
  3
DC_GROUP_KL500MIWA SL80取替仕様_4
  1

  0
LINE
  5
E4
330
7E
100
AcDbEntity
  8
0
  6
Continuous
 62
     9
370
    13
100
AcDbLine
 10
-4.461255098111664
 20
-59.97304764610291
 30
0.0
 11
6.447457016524041
 21
-49.06433553146719
 31
0.0
  0
LINE
  5
E5
330
7E
100
AcDbEntity
  8
0
  6
Continuous
 62
     9
370
    13
100
AcDbLine
 10
-4.497941332553339
 20
-58.59552031817147
 30
0.0
 11
5.069929688592609
 21
-49.02764929702553
 31
0.0
  0
LINE
  5
E6
330
7E
100
AcDbEntity
  8
0
  6
Continuous
 62
     9
370
    13
100
AcDbLine
 10
-4.296945150974167
 20
-56.98031057421921
 30
0.0
 11
3.45471994464036
 21
-49.22864547860468
 31
0.0
  0
LINE
  5
E7
330
7E
100
AcDbEntity
  8
0
  6
Continuous
 62
     9
370
    13
100
AcDbLine
 10
-3.609774724853267
 20
-54.87892658572522
 30
0.0
 11
1.353335956146381
 21
-49.91581590472558
 31
0.0
  0
LINE
  5
E8
330
7E
100
AcDbEntity
  8
0
  6
Continuous
 62
     9
370
    13
100
AcDbLine
 10
-4.267535638027525
 20
-61.19354174839187
 30
0.0
 11
7.667951118813008
 21
-49.25805499155133
 31
0.0
  0
LINE
  5
E9
330
7E
100
AcDbEntity
  8
0
  6
Continuous
 62
     9
370
    13
100
AcDbLine
 10
-3.954911665955834
 20
-62.29513133869328
 30
0.0
 11
-0.5068990407938117
 21
-58.84711871353124
 31
0.0
  0
LINE
  5
EA
330
7E
100
AcDbEntity
  8
0
  6
Continuous
 62
     9
370
    13
100
AcDbLine
 10
0.8215280839523729
 20
-57.51869158878505
 30
0.0
 11
8.769540709114423
 21
-49.57067896362301
 31
0.0
  0
LINE
  5
EB
330
7E
100
AcDbEntity
  8
0
  6
Continuous
 62
     9
370
    13
100
AcDbLine
 10
-3.54454881971084
 20
-63.29898205482135
 30
0.0
 11
-0.5068990407938117
 21
-60.26133227590434
 31
0.0
  0
LINE
  5
EC
330
7E
100
AcDbEntity
  8
0
  6
Continuous
 62
     9
370
    13
100
AcDbLine
 10
2.235741646325479
 20
-57.51869158878505
 30
0.0
 11
9.77339142524248
 21
-49.98104180986803
 31
0.0
  0
LINE
  5
ED
330
7E
100
AcDbEntity
  8
0
  6
Continuous
 62
     9
370
    13
100
AcDbLine
 10
-3.049122840284397
 20
-64.21776963776803
 30
0.0
 11
0.6499552086985858
 21
-60.51869158878505
 31
0.0
  0
LINE
  5
EE
330
7E
100
AcDbEntity
  8
0
  6
Continuous
 62
     9
370
    13
100
AcDbLine
 10
3.649955208698586
 20
-57.51869158878505
 30
0.0
 11
10.69217900818917
 21
-50.47646778929446
 31
0.0
  0
LINE
  5
EF
330
7E
100
AcDbEntity
  8
0
  6
Continuous
 62
     9
370
    13
100
AcDbLine
 10
-2.47634944272319
 20
-65.05920980257993
 30
0.0
 11
2.064168771071692
 21
-60.51869158878505
 31
0.0
  0
LINE
  5
F0
330
7E
100
AcDbEntity
  8
0
  6
Continuous
 62
     9
370
    13
100
AcDbLine
 10
5.064168771071692
 20
-57.51869158878505
 30
0.0
 11
11.53361917300107
 21
-51.04924118685567
 31
0.0
  0
LINE
  5
F1
330
7E
100
AcDbEntity
  8
0
  6
Continuous
 62
     9
370
    13
100
AcDbLine
 10
-1.830641175463441
 20
-65.82771509769327
 30
0.0
 11
3.478382333444799
 21
-60.51869158878505
 31
0.0
  0
LINE
  5
F2
330
7E
100
AcDbEntity
  8
0
  6
Continuous
 62
     9
370
    13
100
AcDbLine
 10
6.478382333444799
 20
-57.51869158878505
 30
0.0
 11
12.3021244681144
 21
-51.69494945411542
 31
0.0
  0
LINE
  5
F3
330
7E
100
AcDbEntity
  8
0
  6
Continuous
 62
     9
370
    13
100
AcDbLine
 10
-1.113902043827622
 20
-66.52518952843056
 30
0.0
 11
4.892595895817877
 21
-60.51869158878505
 31
0.0
  0
LINE
  5
F4
330
7E
100
AcDbEntity
  8
0
  6
Continuous
 62
     9
370
    13
100
AcDbLine
 10
7.892595895817877
 20
-57.51869158878505
 30
0.0
 11
12.99959889885169
 21
-52.41168858575124
 31
0.0
  0
LINE
  5
F5
330
7E
100
AcDbEntity
  8
0
  6
Continuous
 62
     9
370
    13
100
AcDbLine
 10
-0.3258378104090838
 20
-67.15133885738513
 30
0.0
 11
6.306809458190983
 21
-60.51869158878505
 31
0.0
  0
LINE
  5
F6
330
7E
100
AcDbEntity
  8
0
  6
Continuous
 62
     9
370
    13
100
AcDbLine
 10
9.306809458190983
 20
-57.51869158878505
 30
0.0
 11
13.62574822780626
 21
-53.19975281916977
 31
0.0
  0
LINE
  5
F7
330
7E
100
AcDbEntity
  8
0
  6
Continuous
 62
     9
370
    13
100
AcDbLine
 10
0.5360907044954928
 20
-67.70362390485366
 30
0.0
 11
7.72102302056409
 21
-60.51869158878505
 31
0.0
  0
LINE
  5
F8
330
7E
100
AcDbEntity
  8
0
  6
Continuous
 62
     9
370
    13
100
AcDbLine
 10
10.72102302056409
 20
-57.51869158878505
 30
0.0
 11
14.17803327527479
 21
-54.06168133407434
 31
0.0
  0
LINE
  5
F9
330
7E
100
AcDbEntity
  8
0
  6
Continuous
 62
     9
370
    13
100
AcDbLine
 10
1.477089728978044
 20
-68.17683844274418
 30
0.0
 11
9.135236582937168
 21
-60.51869158878505
 31
0.0
  0
LINE
  5
FA
330
7E
100
AcDbEntity
  8
0
  6
Continuous
 62
     9
370
    13
100
AcDbLine
 10
11.49310095920619
 20
-58.16082721251604
 30
0.0
 11
14.65124781316534
 21
-55.00268035855691
 31
0.0
  0
LINE
  5
FB
330
7E
100
AcDbEntity
  8
0
  6
Continuous
 62
     9
370
    13
100
AcDbLine
 10
2.506008491911317
 20
-68.56213324218402
 30
0.0
 11
10.54945014531027
 21
-60.51869158878505
 31
0.0
  0
LINE
  5
FC
330
7E
100
AcDbEntity
  8
0
  6
Continuous
 62
     9
370
    13
100
AcDbLine
 10
11.49310095920619
 20
-59.57504077488914
 30
0.0
 11
15.03654261260515
 21
-56.03159912149018
 31
0.0
  0
LINE
  5
FD
330
7E
100
AcDbEntity
  8
0
  6
Continuous
 62
     9
370
    13
100
AcDbLine
 10
3.637360815923486
 20
-68.84499448054495
 30
0.0
 11
15.31940385096611
 21
-57.16295144550234
 31
0.0
  0
LINE
  5
FE
330
7E
100
AcDbEntity
  8
0
  6
Continuous
 62
     9
370
    13
100
AcDbLine
 10
4.895735490990077
 20
-69.00083336785144
 30
0.0
 11
15.4752427382726
 21
-58.42132612056894
 31
0.0
  0
LINE
  5
FF
330
7E
100
AcDbEntity
  8
0
  6
Continuous
 62
     9
370
    13
100
AcDbLine
 10
6.326913643459008
 20
-68.9838687777556
 30
0.0
 11
15.45827814817675
 21
-59.85250427303788
 31
0.0
  0
LINE
  5
100
330
7E
100
AcDbEntity
  8
0
  6
Continuous
 62
     9
370
    13
100
AcDbLine
 10
8.034675964596303
 20
-68.69032001899143
 30
0.0
 11
15.16472938941256
 21
-61.56026659417515
 31
0.0
  0
LINE
  5
101
330
7E
100
AcDbEntity
  8
0
  6
Continuous
 62
     9
370
    13
100
AcDbLine
 10
10.41647179235919
 20
-67.72273775360162
 30
0.0
 11
14.19714712402278
 21
-63.94206242193805
 31
0.0
  0
ENDBLK
  5
80
330
7E
100
AcDbEntity
  8
0
100
AcDbBlockEnd
  0
BLOCK
  5
82
330
81
100
AcDbEntity
  8
0
100
AcDbBlockBegin
  2
DC_GROUP_KL500MIWA SL80取替仕様_5
 70
     0
 10
0.0
 20
0.0
 30
0.0
  3
DC_GROUP_KL500MIWA SL80取替仕様_5
  1

  0
LINE
  5
102
330
81
100
AcDbEntity
  8
0
  6
Continuous
 62
     9
370
    13
100
AcDbLine
 10
1.957567053273451
 20
-84.55422549471778
 30
0.0
 11
3.993100959206217
 21
-82.51869158878505
 31
0.0
  0
LINE
  5
103
330
81
100
AcDbEntity
  8
0
  6
Continuous
 62
     9
370
    13
100
AcDbLine
 10
6.993100959206188
 20
-79.51869158878506
 30
0.0
 11
9.028634865138926
 21
-77.4831576828523
 31
0.0
  0
LINE
  5
104
330
81
100
AcDbEntity
  8
0
  6
Continuous
 62
     9
370
    13
100
AcDbLine
 10
1.321892562881871
 20
-83.77568642273626
 30
0.0
 11
2.57888739683311
 21
-82.51869158878505
 31
0.0
  0
LINE
  5
105
330
81
100
AcDbEntity
  8
0
  6
Continuous
 62
     9
370
    13
100
AcDbLine
 10
5.578887396833082
 20
-79.51869158878506
 30
0.0
 11
8.2500957931574
 21
-76.84748319246074
 31
0.0
  0
LINE
  5
106
330
81
100
AcDbEntity
  8
0
  6
Continuous
 62
     9
370
    13
100
AcDbLine
 10
0.8385170476291677
 20
-82.84484837561588
 30
0.0
 11
1.164673834460004
 21
-82.51869158878505
 31
0.0
  0
LINE
  5
107
330
81
100
AcDbEntity
  8
0
  6
Continuous
 62
     9
370
    13
100
AcDbLine
 10
4.164673834459975
 20
-79.51869158878506
 30
0.0
 11
7.319257746036996
 21
-76.36410767720801
 31
0.0
  0
LINE
  5
108
330
81
100
AcDbEntity
  8
0
  6
Continuous
 62
     9
370
    13
100
AcDbLine
 10
0.5433534909003441
 20
-81.72579836997159
 30
0.0
 11
0.9931009592061883
 21
-81.27605090166574
 31
0.0
  0
LINE
  5
109
330
81
100
AcDbEntity
  8
0
  6
Continuous
 62
     9
370
    13
100
AcDbLine
 10
2.750460272086869
 20
-79.51869158878506
 30
0.0
 11
6.200207740392713
 21
-76.06894412047922
 31
0.0
  0
LINE
  5
10A
330
81
100
AcDbEntity
  8
0
  6
Continuous
 62
     9
370
    13
100
AcDbLine
 10
0.5433534909003441
 20
-80.31158480759846
 30
0.0
 11
0.9931009592061883
 21
-79.86183733929263
 31
0.0
  0
LINE
  5
10B
330
81
100
AcDbEntity
  8
0
  6
Continuous
 62
     9
370
    13
100
AcDbLine
 10
1.336246709713762
 20
-79.51869158878506
 30
0.0
 11
4.785994178019607
 21
-76.06894412047922
 31
0.0
  0
LINE
  5
10C
330
81
100
AcDbEntity
  8
0
  6
Continuous
 62
     9
370
    13
100
AcDbLine
 10
2.736106125254977
 20
-85.18989998510936
 30
0.0
 11
5.407314521579323
 21
-82.51869158878505
 31
0.0
  0
LINE
  5
10D
330
81
100
AcDbEntity
  8
0
  6
Continuous
 62
     9
370
    13
100
AcDbLine
 10
8.407314521579295
 20
-79.51869158878506
 30
0.0
 11
9.664309355530506
 21
-78.26169675483386
 31
0.0
  0
LINE
  5
10E
330
81
100
AcDbEntity
  8
0
  6
Continuous
 62
     9
370
    13
100
AcDbLine
 10
3.666944172375381
 20
-85.6732755003621
 30
0.0
 11
6.82152808395243
 21
-82.51869158878505
 31
0.0
  0
LINE
  5
10F
330
81
100
AcDbEntity
  8
0
  6
Continuous
 62
     9
370
    13
100
AcDbLine
 10
9.821528083952401
 20
-79.51869158878506
 30
0.0
 11
10.14768487078321
 21
-79.19253480195424
 31
0.0
  0
LINE
  5
110
330
81
100
AcDbEntity
  8
0
  6
Continuous
 62
     9
370
    13
100
AcDbLine
 10
4.785994178019664
 20
-85.96843905709089
 30
0.0
 11
8.235741646325536
 21
-82.51869158878505
 31
0.0
  0
LINE
  5
111
330
81
100
AcDbEntity
  8
0
  6
Continuous
 62
     9
370
    13
100
AcDbLine
 10
9.993100959206188
 20
-80.76133227590438
 30
0.0
 11
10.44284842751203
 21
-80.31158480759855
 31
0.0
  0
LINE
  5
112
330
81
100
AcDbEntity
  8
0
  6
Continuous
 62
     9
370
    13
100
AcDbLine
 10
6.200207740392798
 20
-85.96843905709088
 30
0.0
 11
9.649955208698643
 21
-82.51869158878505
 31
0.0
  0
LINE
  5
113
330
81
100
AcDbEntity
  8
0
  6
Continuous
 62
     9
370
    13
100
AcDbLine
 10
9.993100959206188
 20
-82.17554583827749
 30
0.0
 11
10.442848427512
 21
-81.72579836997167
 31
0.0
  0
ENDBLK
  5
83
330
81
100
AcDbEntity
  8
0
100
AcDbBlockEnd
  0
BLOCK
  5
85
330
84
100
AcDbEntity
  8
0
100
AcDbBlockBegin
  2
*D6
 70
     1
 10
0.0
 20
0.0
 30
0.0
  3
*D6
  1

  0
LINE
  5
114
330
84
100
AcDbEntity
  8
0
  6
Continuous
 62
     4
370
    13
100
AcDbLine
 10
40.4931009592062
 20
-59.01869158878505
 30
0.0
 11
40.4931009592062
 21
79.97980637725567
 31
0.0
  0
INSERT
  5
11B
330
84
100
AcDbEntity
  8
0
 62
     4
100
AcDbBlockReference
  2
_OPEN30
 10
40.4931009592062
 20
-59.01869158878505
 30
0.0
 41
3.000002787824364
 42
2.999989273978464
 50
270.0
  0
INSERT
  5
11C
330
84
100
AcDbEntity
  8
0
 62
     4
100
AcDbBlockReference
  2
_OPEN30
 10
40.4931009592062
 20
79.97980637725567
 30
0.0
 41
3.000002787824364
 42
2.999989273978464
 50
90.0
  0
LINE
  5
11D
330
84
100
AcDbEntity
  8
0
  6
Continuous
 62
     4
370
    13
100
AcDbLine
 10
23.4931009592062
 20
-59.01869158878505
 30
0.0
 11
41.4931009592062
 21
-59.01869158878505
 31
0.0
  0
LINE
  5
11E
330
84
100
AcDbEntity
  8
0
  6
Continuous
 62
     4
370
    13
100
AcDbLine
 10
23.4931009592062
 20
79.97980637725567
 30
0.0
 11
41.4931009592062
 21
79.97980637725567
 31
0.0
  0
MTEXT
  5
11F
330
84
100
AcDbEntity
  8
0
 62
     2
100
AcDbMText
 10
39.4931009592062
 20
10.48055739423531
 30
0.0
 40
3.0
 41
18.75
 71
     8
 72
     1
  1
\T1.00;139mm
  7
dcStyle0
 11
6.123031769111886E-17
 21
1.0
 31
0.0
 73
     1
 44
1.0
  0
ENDBLK
  5
86
330
84
100
AcDbEntity
  8
0
100
AcDbBlockEnd
  0
BLOCK
  5
88
330
87
100
AcDbEntity
  8
0
100
AcDbBlockBegin
  2
*D7
 70
     1
 10
0.0
 20
0.0
 30
0.0
  3
*D7
  1

  0
LINE
  5
120
330
87
100
AcDbEntity
  8
0
  6
Continuous
 62
     4
370
    13
100
AcDbLine
 10
48.4931009592062
 20
-81.01869158878505
 30
0.0
 11
48.4931009592062
 21
-59.01869158878505
 31
0.0
  0
INSERT
  5
121
330
87
100
AcDbEntity
  8
0
 62
     4
100
AcDbBlockReference
  2
_OPEN30
 10
48.4931009592062
 20
-81.01869158878505
 30
0.0
 41
3.000002787824364
 42
2.999989273978464
 50
270.0
  0
INSERT
  5
122
330
87
100
AcDbEntity
  8
0
 62
     4
100
AcDbBlockReference
  2
_OPEN30
 10
48.4931009592062
 20
-59.01869158878505
 30
0.0
 41
3.000002787824364
 42
2.999989273978464
 50
90.0
  0
LINE
  5
123
330
87
100
AcDbEntity
  8
0
  6
Continuous
 62
     4
370
    13
100
AcDbLine
 10
16.4931009592062
 20
-81.01869158878505
 30
0.0
 11
49.4931009592062
 21
-81.01869158878505
 31
0.0
  0
LINE
  5
124
330
87
100
AcDbEntity
  8
0
  6
Continuous
 62
     4
370
    13
100
AcDbLine
 10
23.4931009592062
 20
-59.01869158878505
 30
0.0
 11
49.4931009592062
 21
-59.01869158878505
 31
0.0
  0
MTEXT
  5
125
330
87
100
AcDbEntity
  8
0
 62
     2
100
AcDbMText
 10
47.4931009592062
 20
-70.01869158878505
 30
0.0
 40
3.0
 41
15.74999999999999
 71
     8
 72
     1
  1
\T1.00;22mm
  7
dcStyle0
 11
6.123031769111886E-17
 21
1.0
 31
0.0
 73
     1
 44
1.0
  0
ENDBLK
  5
89
330
87
100
AcDbEntity
  8
0
100
AcDbBlockEnd
  0
BLOCK
  5
8B
330
8A
100
AcDbEntity
  8
0
100
AcDbBlockBegin
  2
*D8
 70
     1
 10
0.0
 20
0.0
 30
0.0
  3
*D8
  1

  0
LINE
  5
126
330
8A
100
AcDbEntity
  8
0
  6
Continuous
 62
     4
370
    13
100
AcDbLine
 10
48.4931009592062
 20
-59.01869158878505
 30
0.0
 11
48.4931009592062
 21
101.9802006595989
 31
0.0
  0
INSERT
  5
127
330
8A
100
AcDbEntity
  8
0
 62
     4
100
AcDbBlockReference
  2
_OPEN30
 10
48.4931009592062
 20
-59.01869158878505
 30
0.0
 41
3.000002787824364
 42
2.999989273978464
 50
270.0
  0
INSERT
  5
128
330
8A
100
AcDbEntity
  8
0
 62
     4
100
AcDbBlockReference
  2
_OPEN30
 10
48.4931009592062
 20
101.9802006595989
 30
0.0
 41
3.000002787824364
 42
2.999989273978464
 50
90.0
  0
LINE
  5
129
330
8A
100
AcDbEntity
  8
0
  6
Continuous
 62
     4
370
    13
100
AcDbLine
 10
23.4931009592062
 20
-59.01869158878505
 30
0.0
 11
49.4931009592062
 21
-59.01869158878505
 31
0.0
  0
LINE
  5
12A
330
8A
100
AcDbEntity
  8
0
  6
Continuous
 62
     4
370
    13
100
AcDbLine
 10
16.4931009592062
 20
101.9802006595989
 30
0.0
 11
49.4931009592062
 21
101.9802006595989
 31
0.0
  0
MTEXT
  5
12B
330
8A
100
AcDbEntity
  8
0
 62
     2
100
AcDbMText
 10
47.4931009592062
 20
21.48075453540694
 30
0.0
 40
3.0
 41
18.75
 71
     8
 72
     1
  1
\T1.00;161mm
  7
dcStyle0
 11
6.123031769111886E-17
 21
1.0
 31
0.0
 73
     1
 44
1.0
  0
ENDBLK
  5
8C
330
8A
100
AcDbEntity
  8
0
100
AcDbBlockEnd
  0
BLOCK
  5
8E
330
8D
100
AcDbEntity
  8
0
100
AcDbBlockBegin
  2
*D9
 70
     1
 10
0.0
 20
0.0
 30
0.0
  3
*D9
  1

  0
LINE
  5
12C
330
8D
100
AcDbEntity
  8
0
  6
Continuous
 62
     4
370
    13
100
AcDbLine
 10
-32.50689904079381
 20
-130.518691588785
 30
0.0
 11
5.493100959206217
 21
-130.518691588785
 31
0.0
  0
INSERT
  5
12D
330
8D
100
AcDbEntity
  8
0
 62
     4
100
AcDbBlockReference
  2
_OPEN30
 10
-32.50689904079381
 20
-130.518691588785
 30
0.0
 41
3.000002787824364
 42
2.999989273978464
 50
180.0
  0
INSERT
  5
12E
330
8D
100
AcDbEntity
  8
0
 62
     4
100
AcDbBlockReference
  2
_OPEN30
 10
5.493100959206217
 20
-130.518691588785
 30
0.0
 41
3.000002787824364
 42
2.999989273978464
 50
360.0
  0
LINE
  5
12F
330
8D
100
AcDbEntity
  8
0
  6
Continuous
 62
     4
370
    13
100
AcDbLine
 10
-32.50689904079381
 20
-126.518691588785
 30
0.0
 11
-32.50689904079381
 21
-131.518691588785
 31
0.0
  0
LINE
  5
130
330
8D
100
AcDbEntity
  8
0
  6
Continuous
 62
     4
370
    13
100
AcDbLine
 10
5.493100959206217
 20
-105.018691588785
 30
0.0
 11
5.493100959206217
 21
-131.518691588785
 31
0.0
  0
MTEXT
  5
131
330
8D
100
AcDbEntity
  8
0
 62
     2
100
AcDbMText
 10
-13.5068990407938
 20
-129.518691588785
 30
0.0
 40
4.0
 41
37.0
 71
     8
 72
     1
  1
\T1.00;バックセット38
  7
dcStyle0
 73
     1
 44
1.0
  0
ENDBLK
  5
8F
330
8D
100
AcDbEntity
  8
0
100
AcDbBlockEnd
  0
BLOCK
  5
116
330
115
100
AcDbEntity
  8
0
100
AcDbBlockBegin
  2
_OPEN30
 70
     0
 10
0.0
 20
0.0
 30
0.0
  3
_OPEN30
  1

  0
LINE
  5
118
330
115
100
AcDbEntity
  8
0
  6
ByBlock
 62
     0
370
    -2
100
AcDbLine
 10
-1.0
 20
0.267949
 30
0.0
 11
0.0
 21
0.0
 31
0.0
  0
LINE
  5
119
330
115
100
AcDbEntity
  8
0
  6
ByBlock
 62
     0
370
    -2
100
AcDbLine
 10
0.0
 20
0.0
 30
0.0
 11
-1.0
 21
-0.267949
 31
0.0
  0
LINE
  5
11A
330
115
100
AcDbEntity
  8
0
  6
ByBlock
 62
     0
370
    -2
100
AcDbLine
 10
0.0
 20
0.0
 30
0.0
 11
-1.0
 21
0.0
 31
0.0
  0
ENDBLK
  5
117
330
115
100
AcDbEntity
  8
0
100
AcDbBlockEnd
  0
ENDSEC
  0
SECTION
  2
ENTITIES
  0
INSERT
  5
132
330
1F
100
AcDbEntity
  8
0
  6
Continuous
100
AcDbBlockReference
  2
DC_GROUP_KL500MIWA SL80取替仕様_1
 10
0.0
 20
0.0
 30
0.0
  0
INSERT
  5
133
330
1F
100
AcDbEntity
  8
0
  6
Continuous
100
AcDbBlockReference
  2
DC_GROUP_KL500MIWA SL80取替仕様_2
 10
0.0
 20
0.0
 30
0.0
  0
INSERT
  5
134
330
1F
100
AcDbEntity
  8
0
  6
Continuous
100
AcDbBlockReference
  2
DC_GROUP_KL500MIWA SL80取替仕様_3
 10
0.0
 20
0.0
 30
0.0
  0
INSERT
  5
135
330
1F
100
AcDbEntity
  8
0
  6
Continuous
100
AcDbBlockReference
  2
DC_GROUP_KL500MIWA SL80取替仕様_4
 10
0.0
 20
0.0
 30
0.0
  0
INSERT
  5
136
330
1F
100
AcDbEntity
  8
0
  6
Continuous
100
AcDbBlockReference
  2
DC_GROUP_KL500MIWA SL80取替仕様_5
 10
0.0
 20
0.0
 30
0.0
  0
DIMENSION
  5
137
330
1F
100
AcDbEntity
  8
0
  6
Continuous
370
    13
100
AcDbDimension
  2
*D6
 10
40.4931009592062
 20
79.97980637725567
 30
0.0
 11
40.4931009592062
 21
10.48055739423531
 31
0.0
 70
   160
  1
<>mm
 71
     8
 42
-1.0
  3
dc_Rotated
100
AcDbAlignedDimension
 13
22.4931009592062
 23
-59.01869158878505
 33
0.0
 14
22.4931009592062
 24
79.97980637725567
 34
0.0
 50
90.0
100
AcDbRotatedDimension
1001
ACAD
1000
DSTYLE
1002
{
1070
   274
1070
     4
1070
    41
1040
3.000001882570243
1070
    79
1070
     2
1070
   343
1005
115
1070
   344
1005
115
1070
   176
1070
     4
1070
   177
1070
     4
1070
   178
1070
     2
1070
   271
1070
     2
1070
    44
1040
1.0
1070
    42
1040
1.0
1070
   147
1040
1.0
1070
   173
1070
     1
1070
    77
1070
     3
1070
    73
1070
     0
1070
   172
1070
     1
1070
    74
1070
     0
1070
   283
1070
     0
1070
   340
1005
90
1070
   140
1040
3.0
1070
   284
1070
     8
1070
   288
1070
     1
1070
    78
1070
     8
1070
    90
1070
     1
1002
}
  0
DIMENSION
  5
139
330
1F
100
AcDbEntity
  8
0
  6
Continuous
370
    13
100
AcDbDimension
  2
*D7
 10
48.4931009592062
 20
-59.01869158878505
 30
0.0
 11
48.4931009592062
 21
-70.01869158878505
 31
0.0
 70
   160
  1
<>mm
 71
     8
 42
-1.0
  3
dc_Rotated
100
AcDbAlignedDimension
 13
15.4931009592062
 23
-81.01869158878505
 33
0.0
 14
22.4931009592062
 24
-59.01869158878505
 34
0.0
 50
90.0
100
AcDbRotatedDimension
1001
ACAD
1000
DSTYLE
1002
{
1070
   274
1070
     4
1070
    41
1040
3.000001882570243
1070
    79
1070
     2
1070
   343
1005
115
1070
   344
1005
115
1070
   176
1070
     4
1070
   177
1070
     4
1070
   178
1070
     2
1070
   271
1070
     2
1070
    44
1040
1.0
1070
    42
1040
1.0
1070
   147
1040
1.0
1070
   173
1070
     1
1070
    77
1070
     3
1070
    73
1070
     0
1070
   172
1070
     1
1070
    74
1070
     0
1070
   283
1070
     0
1070
   340
1005
90
1070
   140
1040
3.0
1070
   284
1070
     8
1070
   288
1070
     1
1070
    78
1070
     8
1070
    90
1070
     1
1002
}
  0
DIMENSION
  5
13A
330
1F
100
AcDbEntity
  8
0
  6
Continuous
370
    13
100
AcDbDimension
  2
*D8
 10
48.4931009592062
 20
101.9802006595989
 30
0.0
 11
48.4931009592062
 21
21.48075453540694
 31
0.0
 70
   160
  1
<>mm
 71
     8
 42
-1.0
  3
dc_Rotated
100
AcDbAlignedDimension
 13
22.4931009592062
 23
-59.01869158878505
 33
0.0
 14
15.4931009592062
 24
101.9802006595989
 34
0.0
 50
90.0
100
AcDbRotatedDimension
1001
ACAD
1000
DSTYLE
1002
{
1070
   274
1070
     4
1070
    41
1040
3.000001882570243
1070
    79
1070
     2
1070
   343
1005
115
1070
   344
1005
115
1070
   176
1070
     4
1070
   177
1070
     4
1070
   178
1070
     2
1070
   271
1070
     2
1070
    44
1040
1.0
1070
    42
1040
1.0
1070
   147
1040
1.0
1070
   173
1070
     1
1070
    77
1070
     3
1070
    73
1070
     0
1070
   172
1070
     1
1070
    74
1070
     0
1070
   283
1070
     0
1070
   340
1005
90
1070
   140
1040
3.0
1070
   284
1070
     8
1070
   288
1070
     1
1070
    78
1070
     8
1070
    90
1070
     1
1002
}
  0
DIMENSION
  5
13B
330
1F
100
AcDbEntity
  8
0
  6
Continuous
370
    13
100
AcDbDimension
  2
*D9
 10
5.493100959206217
 20
-130.518691588785
 30
0.0
 11
-13.5068990407938
 21
-130.518691588785
 31
0.0
 70
   160
  1
バックセット<>
 71
     8
 42
-1.0
  3
dc_Rotated
100
AcDbAlignedDimension
 13
-32.50689904079381
 23
-125.518691588785
 33
0.0
 14
5.493100959206217
 24
-104.018691588785
 34
0.0
100
AcDbRotatedDimension
1001
ACAD
1000
DSTYLE
1002
{
1070
   274
1070
     4
1070
    41
1040
3.000001882570243
1070
    79
1070
     2
1070
   343
1005
115
1070
   344
1005
115
1070
   176
1070
     4
1070
   177
1070
     4
1070
   178
1070
     2
1070
   271
1070
     2
1070
    44
1040
1.0
1070
    42
1040
1.0
1070
   147
1040
1.0
1070
   173
1070
     1
1070
    77
1070
     3
1070
    73
1070
     0
1070
   172
1070
     1
1070
    74
1070
     0
1070
   283
1070
     0
1070
   340
1005
90
1070
   140
1040
4.0
1070
   284
1070
     8
1070
   288
1070
     1
1070
    78
1070
     8
1070
    90
1070
     1
1002
}
  0
LINE
  5
13C
330
1F
100
AcDbEntity
  8
0
  6
DIVIDE
 62
     4
370
    13
100
AcDbLine
 10
-38.30672111632229
 20
-46.51849888379685
 30
0.0
 11
-32.50689904079381
 21
-46.51849888379685
 31
0.0
  0
LINE
  5
13D
330
1F
100
AcDbEntity
  8
0
  6
DIVIDE
 62
     4
370
    13
100
AcDbLine
 10
-38.30672111632229
 20
-44.51827512552435
 30
0.0
 11
-32.50689904079381
 21
-44.51827512552435
 31
0.0
  0
LINE
  5
13E
330
1F
100
AcDbEntity
  8
0
  6
DIVIDE
 62
     4
370
    13
100
AcDbLine
 10
-38.30706562609809
 20
-52.25596468990625
 30
0.0
 11
-38.30672111632229
 21
-44.51827512552435
 31
0.0
  0
LINE
  5
13F
330
1F
100
AcDbEntity
  8
0
  6
DIVIDE
 62
     4
370
    13
100
AcDbLine
 10
-47.5068546789589
 20
-32.01877144008775
 30
0.0
 11
-47.5068546789589
 21
-25.01833279590956
 31
0.0
  0
LINE
  5
140
330
1F
100
AcDbEntity
  8
0
  6
DIVIDE
 62
     4
370
    13
100
AcDbLine
 10
-47.5068546789589
 20
-32.01877144008775
 30
0.0
 11
-32.50689904079381
 21
-32.01877144008775
 31
0.0
  0
LINE
  5
141
330
1F
100
AcDbEntity
  8
0
  6
DIVIDE
 62
     4
370
    13
100
AcDbLine
 10
-47.5068546789589
 20
-25.01833279590956
 30
0.0
 11
-32.50689904079381
 21
-25.01833279590956
 31
0.0
  0
LINE
  5
142
330
1F
100
AcDbEntity
  8
0
  6
DIVIDE
 62
     4
370
    13
100
AcDbLine
 10
-36.50665753778729
 20
-16.01853166789836
 30
0.0
 11
-36.50665753778729
 21
-6.018446405862946
 31
0.0
  0
LINE
  5
143
330
1F
100
AcDbEntity
  8
0
  6
DIVIDE
 62
     4
370
    13
100
AcDbLine
 10
-28.50689904079381
 20
54.48130841121495
 30
0.0
 11
-32.50689904079381
 21
54.48130841121495
 31
0.0
  0
LINE
  5
144
330
1F
100
AcDbEntity
  8
0
  6
DIVIDE
 62
     4
370
    13
100
AcDbLine
 10
22.99310095920619
 20
31.98130841121495
 30
0.0
 11
-28.50689904079381
 21
31.98130841121495
 31
0.0
  0
LINE
  5
145
330
1F
100
AcDbEntity
  8
0
  6
DIVIDE
 62
     4
370
    13
100
AcDbLine
 10
-36.64480595788159
 20
-69.9258710904918
 30
0.0
 11
-37.3093653153923
 21
-60.29199972012775
 31
0.0
  0
LINE
  5
146
330
1F
100
AcDbEntity
  8
0
  6
DIVIDE
 62
     4
370
    13
100
AcDbLine
 10
-28.50689904079381
 20
-115.518691588785
 30
0.0
 11
-32.50689904079381
 21
-115.518691588785
 31
0.0
  0
LINE
  5
147
330
1F
100
AcDbEntity
  8
0
  6
DIVIDE
 62
     4
370
    13
100
AcDbLine
 10
-36.64480595788159
 20
-69.9258710904918
 30
0.0
 11
-36.63404721902957
 21
-70.03697859377405
 31
0.0
  0
LINE
  5
148
330
1F
100
AcDbEntity
  8
0
  6
DIVIDE
 62
     4
370
    13
100
AcDbLine
 10
-36.63404721902957
 20
-70.03697859377405
 30
0.0
 11
-36.61726481287506
 21
-70.14651306542001
 31
0.0
  0
LINE
  5
149
330
1F
100
AcDbEntity
  8
0
  6
DIVIDE
 62
     4
370
    13
100
AcDbLine
 10
-36.61726481287506
 20
-70.14651306542001
 30
0.0
 11
-36.59460007455378
 21
-70.25427606779881
 31
0.0
  0
LINE
  5
14A
330
1F
100
AcDbEntity
  8
0
  6
DIVIDE
 62
     4
370
    13
100
AcDbLine
 10
-36.59460007455378
 20
-70.25427606779881
 30
0.0
 11
-36.56619433920126
 21
-70.36006916327965
 31
0.0
  0
LINE
  5
14B
330
1F
100
AcDbEntity
  8
0
  6
DIVIDE
 62
     4
370
    13
100
AcDbLine
 10
-36.56619433920126
 20
-70.36006916327965
 30
0.0
 11
-36.53218894195292
 21
-70.46369391423158
 31
0.0
  0
LINE
  5
14C
330
1F
100
AcDbEntity
  8
0
  6
DIVIDE
 62
     4
370
    13
100
AcDbLine
 10
-36.53218894195292
 20
-70.46369391423158
 30
0.0
 11
-36.49272521794431
 21
-70.56495188302384
 31
0.0
  0
LINE
  5
14D
330
1F
100
AcDbEntity
  8
0
  6
DIVIDE
 62
     4
370
    13
100
AcDbLine
 10
-36.49272521794431
 20
-70.56495188302384
 30
0.0
 11
-36.44794450231096
 21
-70.66364463202548
 31
0.0
  0
LINE
  5
14E
330
1F
100
AcDbEntity
  8
0
  6
DIVIDE
 62
     4
370
    13
100
AcDbLine
 10
-36.44794450231096
 20
-70.66364463202548
 30
0.0
 11
-36.39798813018835
 21
-70.75957372360571
 31
0.0
  0
LINE
  5
14F
330
1F
100
AcDbEntity
  8
0
  6
DIVIDE
 62
     4
370
    13
100
AcDbLine
 10
-36.39798813018835
 20
-70.75957372360571
 30
0.0
 11
-36.34299743671214
 21
-70.85254072013363
 31
0.0
  0
LINE
  5
150
330
1F
100
AcDbEntity
  8
0
  6
DIVIDE
 62
     4
370
    13
100
AcDbLine
 10
-36.34299743671214
 20
-70.85254072013363
 30
0.0
 11
-36.28311375701757
 21
-70.94234718397838
 31
0.0
  0
LINE
  5
151
330
1F
100
AcDbEntity
  8
0
  6
DIVIDE
 62
     4
370
    13
100
AcDbLine
 10
-36.28311375701757
 20
-70.94234718397838
 30
0.0
 11
-36.21847842624042
 21
-71.02879467750914
 31
0.0
  0
LINE
  5
152
330
1F
100
AcDbEntity
  8
0
  6
DIVIDE
 62
     4
370
    13
100
AcDbLine
 10
-36.21847842624042
 20
-71.02879467750914
 30
0.0
 11
-36.14923277951611
 21
-71.11168476309503
 31
0.0
  0
LINE
  5
153
330
1F
100
AcDbEntity
  8
0
  6
DIVIDE
 62
     4
370
    13
100
AcDbLine
 10
-36.14923277951611
 20
-71.11168476309503
 30
0.0
 11
-36.07551815198018
 21
-71.1908190031052
 31
0.0
  0
LINE
  5
154
330
1F
100
AcDbEntity
  8
0
  6
DIVIDE
 62
     4
370
    13
100
AcDbLine
 10
-36.07551815198018
 20
-71.1908190031052
 30
0.0
 11
-35.99747587876804
 21
-71.26599895990874
 31
0.0
  0
LINE
  5
155
330
1F
100
AcDbEntity
  8
0
  6
DIVIDE
 62
     4
370
    13
100
AcDbLine
 10
-35.99747587876804
 20
-71.26599895990874
 30
0.0
 11
-35.91524729501548
 21
-71.33702619587486
 31
0.0
  0
LINE
  5
156
330
1F
100
AcDbEntity
  8
0
  6
DIVIDE
 62
     4
370
    13
100
AcDbLine
 10
-35.91524729501548
 20
-71.33702619587486
 30
0.0
 11
-35.82897373585779
 21
-71.4037022733727
 31
0.0
  0
LINE
  5
157
330
1F
100
AcDbEntity
  8
0
  6
DIVIDE
 62
     4
370
    13
100
AcDbLine
 10
-35.82897373585779
 20
-71.4037022733727
 30
0.0
 11
-35.73879653643051
 21
-71.46582875477132
 31
0.0
  0
LINE
  5
158
330
1F
100
AcDbEntity
  8
0
  6
DIVIDE
 62
     4
370
    13
100
AcDbLine
 10
-35.73879653643051
 20
-71.46582875477132
 30
0.0
 11
-35.64485703186925
 21
-71.52320720243996
 31
0.0
  0
LINE
  5
159
330
1F
100
AcDbEntity
  8
0
  6
DIVIDE
 62
     4
370
    13
100
AcDbLine
 10
-35.64485703186925
 20
-71.52320720243996
 30
0.0
 11
-35.54729655730948
 21
-71.57563917874772
 31
0.0
  0
LINE
  5
15A
330
1F
100
AcDbEntity
  8
0
  6
DIVIDE
 62
     4
370
    13
100
AcDbLine
 10
-35.54729655730948
 20
-71.57563917874772
 30
0.0
 11
-35.44625644788668
 21
-71.62292624606371
 31
0.0
  0
LINE
  5
15B
330
1F
100
AcDbEntity
  8
0
  6
DIVIDE
 62
     4
370
    13
100
AcDbLine
 10
-35.44625644788668
 20
-71.62292624606371
 30
0.0
 11
-35.30173584578817
 21
-71.68533074685146
 31
0.0
  0
LINE
  5
15C
330
1F
100
AcDbEntity
  8
0
  6
DIVIDE
 62
     4
370
    13
100
AcDbLine
 10
-35.30173584578817
 20
-71.68533074685146
 30
0.0
 11
-35.15694368385884
 21
-71.74707378886963
 31
0.0
  0
LINE
  5
15D
330
1F
100
AcDbEntity
  8
0
  6
DIVIDE
 62
     4
370
    13
100
AcDbLine
 10
-35.15694368385884
 20
-71.74707378886963
 30
0.0
 11
-35.01188228753965
 21
-71.80815537211826
 31
0.0
  0
LINE
  5
15E
330
1F
100
AcDbEntity
  8
0
  6
DIVIDE
 62
     4
370
    13
100
AcDbLine
 10
-35.01188228753965
 20
-71.80815537211826
 30
0.0
 11
-34.86655398227178
 21
-71.8685754965974
 31
0.0
  0
LINE
  5
15F
330
1F
100
AcDbEntity
  8
0
  6
DIVIDE
 62
     4
370
    13
100
AcDbLine
 10
-34.86655398227178
 20
-71.8685754965974
 30
0.0
 11
-34.72096109349603
 21
-71.92833416230701
 31
0.0
  0
LINE
  5
160
330
1F
100
AcDbEntity
  8
0
  6
DIVIDE
 62
     4
370
    13
100
AcDbLine
 10
-34.72096109349603
 20
-71.92833416230701
 30
0.0
 11
-34.57510594665352
 21
-71.98743136924709
 31
0.0
  0
LINE
  5
161
330
1F
100
AcDbEntity
  8
0
  6
DIVIDE
 62
     4
370
    13
100
AcDbLine
 10
-34.57510594665352
 20
-71.98743136924709
 30
0.0
 11
-34.42899086718516
 21
-72.04586711741767
 31
0.0
  0
LINE
  5
162
330
1F
100
AcDbEntity
  8
0
  6
DIVIDE
 62
     4
370
    13
100
AcDbLine
 10
-34.42899086718516
 20
-72.04586711741767
 30
0.0
 11
-34.28261818053191
 21
-72.10364140681865
 31
0.0
  0
LINE
  5
163
330
1F
100
AcDbEntity
  8
0
  6
DIVIDE
 62
     4
370
    13
100
AcDbLine
 10
-34.28261818053191
 20
-72.10364140681865
 30
0.0
 11
-34.13599021213479
 21
-72.16075423745015
 31
0.0
  0
LINE
  5
164
330
1F
100
AcDbEntity
  8
0
  6
DIVIDE
 62
     4
370
    13
100
AcDbLine
 10
-34.13599021213479
 20
-72.16075423745015
 30
0.0
 11
-33.9891092874348
 21
-72.21720560931212
 31
0.0
  0
LINE
  5
165
330
1F
100
AcDbEntity
  8
0
  6
DIVIDE
 62
     4
370
    13
100
AcDbLine
 10
-33.9891092874348
 20
-72.21720560931212
 30
0.0
 11
-33.84197773187297
 21
-72.27299552240453
 31
0.0
  0
LINE
  5
166
330
1F
100
AcDbEntity
  8
0
  6
DIVIDE
 62
     4
370
    13
100
AcDbLine
 10
-33.84197773187297
 20
-72.27299552240453
 30
0.0
 11
-33.69459787089015
 21
-72.32812397672744
 31
0.0
  0
LINE
  5
167
330
1F
100
AcDbEntity
  8
0
  6
DIVIDE
 62
     4
370
    13
100
AcDbLine
 10
-33.69459787089015
 20
-72.32812397672744
 30
0.0
 11
-33.54697202992752
 21
-72.38259097228082
 31
0.0
  0
LINE
  5
168
330
1F
100
AcDbEntity
  8
0
  6
DIVIDE
 62
     4
370
    13
100
AcDbLine
 10
-33.54697202992752
 20
-72.38259097228082
 30
0.0
 11
-33.39910253442581
 21
-72.43639650906465
 31
0.0
  0
LINE
  5
169
330
1F
100
AcDbEntity
  8
0
  6
DIVIDE
 62
     4
370
    13
100
AcDbLine
 10
-33.39910253442581
 20
-72.43639650906465
 30
0.0
 11
-33.25099170982627
 21
-72.48954058707899
 31
0.0
  0
LINE
  5
16A
330
1F
100
AcDbEntity
  8
0
  6
DIVIDE
 62
     4
370
    13
100
AcDbLine
 10
-33.25099170982627
 20
-72.48954058707899
 30
0.0
 11
-33.10264188156974
 21
-72.54202320632378
 31
0.0
  0
LINE
  5
16B
330
1F
100
AcDbEntity
  8
0
  6
DIVIDE
 62
     4
370
    13
100
AcDbLine
 10
-33.10264188156974
 20
-72.54202320632378
 30
0.0
 11
-32.95405537509724
 21
-72.59384436679902
 31
0.0
  0
LINE
  5
16C
330
1F
100
AcDbEntity
  8
0
  6
DIVIDE
 62
     4
370
    13
100
AcDbLine
 10
-32.95405537509724
 20
-72.59384436679902
 30
0.0
 11
-32.80523451584979
 21
-72.64500406850476
 31
0.0
  0
LINE
  5
16D
330
1F
100
AcDbEntity
  8
0
  6
DIVIDE
 62
     4
370
    13
100
AcDbLine
 10
-32.80523451584979
 20
-72.64500406850476
 30
0.0
 11
-32.65618162926829
 21
-72.69550231144096
 31
0.0
  0
LINE
  5
16E
330
1F
100
AcDbEntity
  8
0
  6
DIVIDE
 62
     4
370
    13
100
AcDbLine
 10
-32.65618162926829
 20
-72.69550231144096
 30
0.0
 11
-32.50689904079381
 21
-72.74533909560763
 31
0.0
  0
LINE
  5
16F
330
1F
100
AcDbEntity
  8
0
  6
DIVIDE
 62
     4
370
    13
100
AcDbLine
 10
-34.38309927977973
 20
-58.18566695090995
 30
0.0
 11
-34.53901045165917
 21
-58.13426592010627
 31
0.0
  0
LINE
  5
170
330
1F
100
AcDbEntity
  8
0
  6
DIVIDE
 62
     4
370
    13
100
AcDbLine
 10
-34.53901045165917
 20
-58.13426592010627
 30
0.0
 11
-34.69603680168284
 21
-58.09623772526969
 31
0.0
  0
LINE
  5
171
330
1F
100
AcDbEntity
  8
0
  6
DIVIDE
 62
     4
370
    13
100
AcDbLine
 10
-34.69603680168284
 20
-58.09623772526969
 30
0.0
 11
-34.85351583755185
 21
-58.07128160936588
 31
0.0
  0
LINE
  5
172
330
1F
100
AcDbEntity
  8
0
  6
DIVIDE
 62
     4
370
    13
100
AcDbLine
 10
-34.85351583755185
 20
-58.07128160936588
 30
0.0
 11
-35.01078506696744
 21
-58.05909681536063
 31
0.0
  0
LINE
  5
173
330
1F
100
AcDbEntity
  8
0
  6
DIVIDE
 62
     4
370
    13
100
AcDbLine
 10
-35.01078506696744
 20
-58.05909681536063
 30
0.0
 11
-35.16718199763083
 21
-58.05938258621967
 31
0.0
  0
LINE
  5
174
330
1F
100
AcDbEntity
  8
0
  6
DIVIDE
 62
     4
370
    13
100
AcDbLine
 10
-35.16718199763083
 20
-58.05938258621967
 30
0.0
 11
-35.32204413724297
 21
-58.07183816490868
 31
0.0
  0
LINE
  5
175
330
1F
100
AcDbEntity
  8
0
  6
DIVIDE
 62
     4
370
    13
100
AcDbLine
 10
-35.32204413724297
 20
-58.07183816490868
 30
0.0
 11
-35.47470899350502
 21
-58.09616279439344
 31
0.0
  0
LINE
  5
176
330
1F
100
AcDbEntity
  8
0
  6
DIVIDE
 62
     4
370
    13
100
AcDbLine
 10
-35.47470899350502
 20
-58.09616279439344
 30
0.0
 11
-35.62451407411827
 21
-58.13205571763966
 31
0.0
  0
LINE
  5
177
330
1F
100
AcDbEntity
  8
0
  6
DIVIDE
 62
     4
370
    13
100
AcDbLine
 10
-35.62451407411827
 20
-58.13205571763966
 30
0.0
 11
-35.77079688678371
 21
-58.17921617761306
 31
0.0
  0
LINE
  5
178
330
1F
100
AcDbEntity
  8
0
  6
DIVIDE
 62
     4
370
    13
100
AcDbLine
 10
-35.77079688678371
 20
-58.17921617761306
 30
0.0
 11
-35.91289493920264
 21
-58.23734341727936
 31
0.0
  0
LINE
  5
179
330
1F
100
AcDbEntity
  8
0
  6
DIVIDE
 62
     4
370
    13
100
AcDbLine
 10
-35.91289493920264
 20
-58.23734341727936
 30
0.0
 11
-36.05014573907606
 21
-58.30613667960434
 31
0.0
  0
LINE
  5
17A
330
1F
100
AcDbEntity
  8
0
  6
DIVIDE
 62
     4
370
    13
100
AcDbLine
 10
-36.05014573907606
 20
-58.30613667960434
 30
0.0
 11
-36.18188679410518
 21
-58.38529520755371
 31
0.0
  0
LINE
  5
17B
330
1F
100
AcDbEntity
  8
0
  6
DIVIDE
 62
     4
370
    13
100
AcDbLine
 10
-36.18188679410518
 20
-58.38529520755371
 30
0.0
 11
-36.30745561199113
 21
-58.47451824409318
 31
0.0
  0
LINE
  5
17C
330
1F
100
AcDbEntity
  8
0
  6
DIVIDE
 62
     4
370
    13
100
AcDbLine
 10
-36.30745561199113
 20
-58.47451824409318
 30
0.0
 11
-36.42618970043502
 21
-58.57350503218844
 31
0.0
  0
LINE
  5
17D
330
1F
100
AcDbEntity
  8
0
  6
DIVIDE
 62
     4
370
    13
100
AcDbLine
 10
-36.42618970043502
 20
-58.57350503218844
 30
0.0
 11
-36.53742656713813
 21
-58.68195481480531
 31
0.0
  0
LINE
  5
17E
330
1F
100
AcDbEntity
  8
0
  6
DIVIDE
 62
     4
370
    13
100
AcDbLine
 10
-36.53742656713813
 20
-58.68195481480531
 30
0.0
 11
-36.64050371980146
 21
-58.7995668349095
 31
0.0
  0
LINE
  5
17F
330
1F
100
AcDbEntity
  8
0
  6
DIVIDE
 62
     4
370
    13
100
AcDbLine
 10
-36.64050371980146
 20
-58.7995668349095
 30
0.0
 11
-36.73475866612613
 21
-58.92604033546668
 31
0.0
  0
LINE
  5
180
330
1F
100
AcDbEntity
  8
0
  6
DIVIDE
 62
     4
370
    13
100
AcDbLine
 10
-36.73475866612613
 20
-58.92604033546668
 30
0.0
 11
-36.81952891381347
 21
-59.06107455944264
 31
0.0
  0
LINE
  5
181
330
1F
100
AcDbEntity
  8
0
  6
DIVIDE
 62
     4
370
    13
100
AcDbLine
 10
-36.81952891381347
 20
-59.06107455944264
 30
0.0
 11
-36.89415197056449
 21
-59.20436874980309
 31
0.0
  0
LINE
  5
182
330
1F
100
AcDbEntity
  8
0
  6
DIVIDE
 62
     4
370
    13
100
AcDbLine
 10
-36.89415197056449
 20
-59.20436874980309
 30
0.0
 11
-36.95796534408031
 21
-59.35562214951375
 31
0.0
  0
LINE
  5
183
330
1F
100
AcDbEntity
  8
0
  6
DIVIDE
 62
     4
370
    13
100
AcDbLine
 10
-36.77744222156313
 20
-55.85540282742465
 30
0.0
 11
-36.58244292745819
 21
-56.04016453984092
 31
0.0
  0
LINE
  5
184
330
1F
100
AcDbEntity
  8
0
  6
DIVIDE
 62
     4
370
    13
100
AcDbLine
 10
-36.58244292745819
 20
-56.04016453984092
 30
0.0
 11
-36.38534634396557
 21
-56.22036477057073
 31
0.0
  0
LINE
  5
185
330
1F
100
AcDbEntity
  8
0
  6
DIVIDE
 62
     4
370
    13
100
AcDbLine
 10
-36.38534634396557
 20
-56.22036477057073
 30
0.0
 11
-36.18617908446548
 21
-56.39608258460765
 31
0.0
  0
LINE
  5
186
330
1F
100
AcDbEntity
  8
0
  6
DIVIDE
 62
     4
370
    13
100
AcDbLine
 10
-36.18617908446548
 20
-56.39608258460765
 30
0.0
 11
-35.98496776233826
 21
-56.56739704694527
 31
0.0
  0
LINE
  5
187
330
1F
100
AcDbEntity
  8
0
  6
DIVIDE
 62
     4
370
    13
100
AcDbLine
 10
-35.98496776233826
 20
-56.56739704694527
 30
0.0
 11
-35.781738990964
 21
-56.73438722257708
 31
0.0
  0
LINE
  5
188
330
1F
100
AcDbEntity
  8
0
  6
DIVIDE
 62
     4
370
    13
100
AcDbLine
 10
-35.781738990964
 20
-56.73438722257708
 30
0.0
 11
-35.57651938372281
 21
-56.89713217649664
 31
0.0
  0
LINE
  5
189
330
1F
100
AcDbEntity
  8
0
  6
DIVIDE
 62
     4
370
    13
100
AcDbLine
 10
-35.57651938372281
 20
-56.89713217649664
 30
0.0
 11
-35.36933555399496
 21
-57.05571097369751
 31
0.0
  0
LINE
  5
18A
330
1F
100
AcDbEntity
  8
0
  6
DIVIDE
 62
     4
370
    13
100
AcDbLine
 10
-35.36933555399496
 20
-57.05571097369751
 30
0.0
 11
-35.16021411516049
 21
-57.21020267917322
 31
0.0
  0
LINE
  5
18B
330
1F
100
AcDbEntity
  8
0
  6
DIVIDE
 62
     4
370
    13
100
AcDbLine
 10
-35.16021411516049
 20
-57.21020267917322
 30
0.0
 11
-34.94918168059978
 21
-57.3606863579173
 31
0.0
  0
LINE
  5
18C
330
1F
100
AcDbEntity
  8
0
  6
DIVIDE
 62
     4
370
    13
100
AcDbLine
 10
-34.94918168059978
 20
-57.3606863579173
 30
0.0
 11
-34.73626486369282
 21
-57.50724107492333
 31
0.0
  0
LINE
  5
18D
330
1F
100
AcDbEntity
  8
0
  6
DIVIDE
 62
     4
370
    13
100
AcDbLine
 10
-34.73626486369282
 20
-57.50724107492333
 30
0.0
 11
-34.52149027781989
 21
-57.64994589518483
 31
0.0
  0
LINE
  5
18E
330
1F
100
AcDbEntity
  8
0
  6
DIVIDE
 62
     4
370
    13
100
AcDbLine
 10
-34.52149027781989
 20
-57.64994589518483
 30
0.0
 11
-34.30488453636114
 21
-57.78887988369534
 31
0.0
  0
LINE
  5
18F
330
1F
100
AcDbEntity
  8
0
  6
DIVIDE
 62
     4
370
    13
100
AcDbLine
 10
-34.30488453636114
 20
-57.78887988369534
 30
0.0
 11
-34.08647425269685
 21
-57.92412210544846
 31
0.0
  0
LINE
  5
190
330
1F
100
AcDbEntity
  8
0
  6
DIVIDE
 62
     4
370
    13
100
AcDbLine
 10
-34.08647425269685
 20
-57.92412210544846
 30
0.0
 11
-33.86628604020704
 21
-58.05575162543765
 31
0.0
  0
LINE
  5
191
330
1F
100
AcDbEntity
  8
0
  6
DIVIDE
 62
     4
370
    13
100
AcDbLine
 10
-33.86628604020704
 20
-58.05575162543765
 30
0.0
 11
-33.64434651227201
 21
-58.18384750865651
 31
0.0
  0
LINE
  5
192
330
1F
100
AcDbEntity
  8
0
  6
DIVIDE
 62
     4
370
    13
100
AcDbLine
 10
-33.64434651227201
 20
-58.18384750865651
 30
0.0
 11
-33.42068228227195
 21
-58.3084888200986
 31
0.0
  0
LINE
  5
193
330
1F
100
AcDbEntity
  8
0
  6
DIVIDE
 62
     4
370
    13
100
AcDbLine
 10
-33.42068228227195
 20
-58.3084888200986
 30
0.0
 11
-33.19531996358693
 21
-58.42975462475742
 31
0.0
  0
LINE
  5
194
330
1F
100
AcDbEntity
  8
0
  6
DIVIDE
 62
     4
370
    13
100
AcDbLine
 10
-33.19531996358693
 20
-58.42975462475742
 30
0.0
 11
-32.96828616959719
 21
-58.54772398762655
 31
0.0
  0
LINE
  5
195
330
1F
100
AcDbEntity
  8
0
  6
DIVIDE
 62
     4
370
    13
100
AcDbLine
 10
-32.96828616959719
 20
-58.54772398762655
 30
0.0
 11
-32.73960751368297
 21
-58.6624759736995
 31
0.0
  0
LINE
  5
196
330
1F
100
AcDbEntity
  8
0
  6
DIVIDE
 62
     4
370
    13
100
AcDbLine
 10
-32.73960751368297
 20
-58.6624759736995
 30
0.0
 11
-32.5093106092243
 21
-58.77408964796984
 31
0.0
  0
LINE
  5
197
330
1F
100
AcDbEntity
  8
0
  6
DIVIDE
 62
     4
370
    13
100
AcDbLine
 10
-38.30706562609809
 20
-52.25596468990625
 30
0.0
 11
-38.3029421024642
 21
-52.45919178179543
 31
0.0
  0
LINE
  5
198
330
1F
100
AcDbEntity
  8
0
  6
DIVIDE
 62
     4
370
    13
100
AcDbLine
 10
-38.3029421024642
 20
-52.45919178179543
 30
0.0
 11
-38.29063457685122
 21
-52.66130731289297
 31
0.0
  0
LINE
  5
199
330
1F
100
AcDbEntity
  8
0
  6
DIVIDE
 62
     4
370
    13
100
AcDbLine
 10
-38.29063457685122
 20
-52.66130731289297
 30
0.0
 11
-38.27023761719293
 21
-52.86208855762885
 31
0.0
  0
LINE
  5
19A
330
1F
100
AcDbEntity
  8
0
  6
DIVIDE
 62
     4
370
    13
100
AcDbLine
 10
-38.27023761719293
 20
-52.86208855762885
 30
0.0
 11
-38.24184579142256
 21
-53.06131279043304
 31
0.0
  0
LINE
  5
19B
330
1F
100
AcDbEntity
  8
0
  6
DIVIDE
 62
     4
370
    13
100
AcDbLine
 10
-38.24184579142256
 20
-53.06131279043304
 30
0.0
 11
-38.20555366747367
 21
-53.25875728573546
 31
0.0
  0
LINE
  5
19C
330
1F
100
AcDbEntity
  8
0
  6
DIVIDE
 62
     4
370
    13
100
AcDbLine
 10
-38.20555366747367
 20
-53.25875728573546
 30
0.0
 11
-38.16145581327957
 21
-53.45419931796607
 31
0.0
  0
LINE
  5
19D
330
1F
100
AcDbEntity
  8
0
  6
DIVIDE
 62
     4
370
    13
100
AcDbLine
 10
-38.16145581327957
 20
-53.45419931796607
 30
0.0
 11
-38.10964679677402
 21
-53.6474161615548
 31
0.0
  0
LINE
  5
19E
330
1F
100
AcDbEntity
  8
0
  6
DIVIDE
 62
     4
370
    13
100
AcDbLine
 10
-38.10964679677402
 20
-53.6474161615548
 30
0.0
 11
-38.05022118589009
 21
-53.83818509093162
 31
0.0
  0
LINE
  5
19F
330
1F
100
AcDbEntity
  8
0
  6
DIVIDE
 62
     4
370
    13
100
AcDbLine
 10
-38.05022118589009
 20
-53.83818509093162
 30
0.0
 11
-37.98327354856154
 21
-54.02628338052645
 31
0.0
  0
LINE
  5
1A0
330
1F
100
AcDbEntity
  8
0
  6
DIVIDE
 62
     4
370
    13
100
AcDbLine
 10
-37.98327354856154
 20
-54.02628338052645
 30
0.0
 11
-37.90889845272169
 21
-54.21148830476928
 31
0.0
  0
LINE
  5
1A1
330
1F
100
AcDbEntity
  8
0
  6
DIVIDE
 62
     4
370
    13
100
AcDbLine
 10
-37.90889845272169
 20
-54.21148830476928
 30
0.0
 11
-37.82719046630392
 21
-54.39357713809002
 31
0.0
  0
LINE
  5
1A2
330
1F
100
AcDbEntity
  8
0
  6
DIVIDE
 62
     4
370
    13
100
AcDbLine
 10
-37.82719046630392
 20
-54.39357713809002
 30
0.0
 11
-37.73824415724197
 21
-54.57232715491864
 31
0.0
  0
LINE
  5
1A3
330
1F
100
AcDbEntity
  8
0
  6
DIVIDE
 62
     4
370
    13
100
AcDbLine
 10
-37.73824415724197
 20
-54.57232715491864
 30
0.0
 11
-37.64215409346899
 21
-54.74751562968507
 31
0.0
  0
LINE
  5
1A4
330
1F
100
AcDbEntity
  8
0
  6
DIVIDE
 62
     4
370
    13
100
AcDbLine
 10
-37.64215409346899
 20
-54.74751562968507
 30
0.0
 11
-37.53901484291855
 21
-54.91891983681927
 31
0.0
  0
LINE
  5
1A5
330
1F
100
AcDbEntity
  8
0
  6
DIVIDE
 62
     4
370
    13
100
AcDbLine
 10
-37.53901484291855
 20
-54.91891983681927
 30
0.0
 11
-37.42892097352414
 21
-55.08631705075119
 31
0.0
  0
LINE
  5
1A6
330
1F
100
AcDbEntity
  8
0
  6
DIVIDE
 62
     4
370
    13
100
AcDbLine
 10
-37.42892097352414
 20
-55.08631705075119
 30
0.0
 11
-37.31196705321928
 21
-55.24948454591076
 31
0.0
  0
LINE
  5
1A7
330
1F
100
AcDbEntity
  8
0
  6
DIVIDE
 62
     4
370
    13
100
AcDbLine
 10
-37.31196705321928
 20
-55.24948454591076
 30
0.0
 11
-37.18824764993711
 21
-55.40819959672795
 31
0.0
  0
LINE
  5
1A8
330
1F
100
AcDbEntity
  8
0
  6
DIVIDE
 62
     4
370
    13
100
AcDbLine
 10
-37.18824764993711
 20
-55.40819959672795
 30
0.0
 11
-37.05785733161154
 21
-55.5622394776327
 31
0.0
  0
LINE
  5
1A9
330
1F
100
AcDbEntity
  8
0
  6
DIVIDE
 62
     4
370
    13
100
AcDbLine
 10
-37.05785733161154
 20
-55.5622394776327
 30
0.0
 11
-36.92089066617568
 21
-55.71138146305495
 31
0.0
  0
LINE
  5
1AA
330
1F
100
AcDbEntity
  8
0
  6
DIVIDE
 62
     4
370
    13
100
AcDbLine
 10
-36.92089066617568
 20
-55.71138146305495
 30
0.0
 11
-36.77744222156313
 21
-55.85540282742465
 31
0.0
  0
LINE
  5
1AB
330
1F
100
AcDbEntity
  8
0
  6
DIVIDE
 62
     4
370
    13
100
AcDbLine
 10
-32.50689904079381
 20
-58.88915591308574
 30
0.0
 11
-34.38309927977973
 21
-58.18566695090995
 31
0.0
  0
LINE
  5
1AC
330
1F
100
AcDbEntity
  8
0
  6
DIVIDE
 62
     4
370
    13
100
AcDbLine
 10
-37.3093653153923
 20
-60.29199972012775
 30
0.0
 11
-36.95796534408031
 21
-59.35562214951375
 31
0.0
  0
LINE
  5
1AD
330
1F
100
AcDbEntity
  8
0
  6
DIVIDE
 62
     4
370
    13
100
AcDbLine
 10
22.99310095920619
 20
-93.01869158878505
 30
0.0
 11
-28.50689904079381
 21
-93.01869158878505
 31
0.0
  0
LINE
  5
1AE
330
1F
100
AcDbEntity
  8
0
  6
DIVIDE
 62
     4
370
    13
100
AcDbLine
 10
-32.50689904079381
 20
-125.518691588785
 30
0.0
 11
-32.50689904079381
 21
64.48130841121495
 31
0.0
  0
LINE
  5
1AF
330
1F
100
AcDbEntity
  8
0
  6
DIVIDE
 62
     4
370
    13
100
AcDbLine
 10
-28.50689904079381
 20
-115.518691588785
 30
0.0
 11
-28.50689904079381
 21
54.48130841121495
 31
0.0
  0
LINE
  5
1B0
330
1F
100
AcDbEntity
  8
0
  6
DIVIDE
 62
     4
370
    13
100
AcDbLine
 10
22.99310095920619
 20
-93.01869158878505
 30
0.0
 11
22.99310095920619
 21
31.98130841121495
 31
0.0
  0
LINE
  5
1B1
330
1F
100
AcDbEntity
  8
0
  6
DIVIDE
 62
     4
370
    13
100
AcDbLine
 10
-36.50665753778729
 20
-6.018446405862946
 30
0.0
 11
-32.50689904079381
 21
-6.018446405862946
 31
0.0
  0
LINE
  5
1B2
330
1F
100
AcDbEntity
  8
0
  6
DIVIDE
 62
     4
370
    13
100
AcDbLine
 10
-36.50665753778729
 20
-16.01853166789836
 30
0.0
 11
-32.50689904079381
 21
-16.01853166789836
 31
0.0
  0
LINE
  5
1B3
330
1F
100
AcDbEntity
  8
0
  6
DIVIDE
 62
     4
370
    13
100
AcDbLine
 10
-14.50689904079378
 20
93.98130841121498
 30
0.0
 11
-14.50689904079378
 21
-76.01869158878503
 31
0.0
  0
ARC
  5
1B4
330
1F
100
AcDbEntity
  8
0
  6
DIVIDE
 62
     4
370
    13
100
AcDbCircle
 10
5.493100959206217
 20
93.98130841121498
 30
0.0
 40
20.0
100
AcDbArc
 50
0.0
 51
180.0
  0
LINE
  5
1B5
330
1F
100
AcDbEntity
  8
0
  6
DIVIDE
 62
     4
370
    13
100
AcDbLine
 10
25.4931009592062
 20
93.98130841121498
 30
0.0
 11
25.4931009592062
 21
-76.01869158878505
 31
0.0
  0
ARC
  5
1B6
330
1F
100
AcDbEntity
  8
0
  6
DIVIDE
 62
     4
370
    13
100
AcDbCircle
 10
5.493100959206217
 20
-76.01869158878505
 30
0.0
 40
20.0
100
AcDbArc
 50
180.0
 51
0.0
  0
LINE
  5
1B7
330
1F
100
AcDbEntity
  8
0
  6
Continuous
 62
     4
370
    13
100
AcDbLine
 10
0.9931009592061883
 20
103.4802006595989
 30
0.0
 11
9.993100959206188
 21
103.4802006595989
 31
0.0
  0
LINE
  5
1B8
330
1F
100
AcDbEntity
  8
0
  6
Continuous
 62
     4
370
    13
100
AcDbLine
 10
0.9931009592061883
 20
100.4802006595989
 30
0.0
 11
9.993100959206188
 21
100.4802006595989
 31
0.0
  0
LINE
  5
1B9
330
1F
100
AcDbEntity
  8
0
  6
Continuous
 62
     4
370
    13
100
AcDbLine
 10
9.993100959206188
 20
103.4802006595989
 30
0.0
 11
9.993100959206188
 21
100.4802006595989
 31
0.0
  0
LINE
  5
1BA
330
1F
100
AcDbEntity
  8
0
  6
Continuous
 62
     4
370
    13
100
AcDbLine
 10
0.9931009592061883
 20
103.4802006595989
 30
0.0
 11
0.9931009592061883
 21
100.4802006595989
 31
0.0
  0
LINE
  5
1BB
330
1F
100
AcDbEntity
  8
0
  6
Continuous
 62
     4
370
    13
100
AcDbLine
 10
-0.5068990407938117
 20
81.47980637725567
 30
0.0
 11
-0.5068990407938117
 21
78.47980637725567
 31
0.0
  0
LINE
  5
1BC
330
1F
100
AcDbEntity
  8
0
  6
Continuous
 62
     4
370
    13
100
AcDbLine
 10
11.49310095920619
 20
81.47980637725567
 30
0.0
 11
11.49310095920619
 21
78.47980637725567
 31
0.0
  0
LINE
  5
1BD
330
1F
100
AcDbEntity
  8
0
  6
Continuous
 62
     4
370
    13
100
AcDbLine
 10
-0.5068990407938117
 20
81.47980637725567
 30
0.0
 11
11.49310095920619
 21
81.47980637725567
 31
0.0
  0
LINE
  5
1BE
330
1F
100
AcDbEntity
  8
0
  6
Continuous
 62
     4
370
    13
100
AcDbLine
 10
-0.5068990407938117
 20
78.47980637725567
 30
0.0
 11
11.49310095920619
 21
78.47980637725567
 31
0.0
  0
LINE
  5
1BF
330
1F
100
AcDbEntity
  8
0
  6
Continuous
 62
     4
370
    13
100
AcDbLine
 10
-0.5068990407938117
 20
-57.51869158878505
 30
0.0
 11
-0.5068990407938117
 21
-60.51869158878505
 31
0.0
  0
LINE
  5
1C0
330
1F
100
AcDbEntity
  8
0
  6
Continuous
 62
     4
370
    13
100
AcDbLine
 10
-0.5068990407938117
 20
-57.51869158878505
 30
0.0
 11
11.49310095920619
 21
-57.51869158878505
 31
0.0
  0
LINE
  5
1C1
330
1F
100
AcDbEntity
  8
0
  6
Continuous
 62
     4
370
    13
100
AcDbLine
 10
-0.5068990407938117
 20
-60.51869158878505
 30
0.0
 11
11.49310095920619
 21
-60.51869158878505
 31
0.0
  0
LINE
  5
1C2
330
1F
100
AcDbEntity
  8
0
  6
Continuous
 62
     4
370
    13
100
AcDbLine
 10
11.49310095920619
 20
-57.51869158878505
 30
0.0
 11
11.49310095920619
 21
-60.51869158878505
 31
0.0
  0
LINE
  5
1C3
330
1F
100
AcDbEntity
  8
0
  6
Continuous
 62
     4
370
    13
100
AcDbLine
 10
0.9931009592061883
 20
-79.51869158878506
 30
0.0
 11
9.993100959206188
 21
-79.51869158878506
 31
0.0
  0
LINE
  5
1C4
330
1F
100
AcDbEntity
  8
0
  6
Continuous
 62
     4
370
    13
100
AcDbLine
 10
0.9931009592061883
 20
-79.51869158878506
 30
0.0
 11
0.9931009592061883
 21
-82.51869158878505
 31
0.0
  0
LINE
  5
1C5
330
1F
100
AcDbEntity
  8
0
  6
Continuous
 62
     4
370
    13
100
AcDbLine
 10
0.9931009592061883
 20
-82.51869158878505
 30
0.0
 11
9.993100959206188
 21
-82.51869158878505
 31
0.0
  0
LINE
  5
1C6
330
1F
100
AcDbEntity
  8
0
  6
Continuous
 62
     4
370
    13
100
AcDbLine
 10
9.993100959206188
 20
-79.51869158878506
 30
0.0
 11
9.993100959206188
 21
-82.51869158878505
 31
0.0
  0
LINE
  5
1C7
330
1F
100
AcDbEntity
  8
0
  6
CENTER
 62
     4
370
    13
100
AcDbLine
 10
-4.506899040793812
 20
101.9802006595989
 30
0.0
 11
0.9931009592061883
 21
101.9802006595989
 31
0.0
  0
LINE
  5
1C8
330
1F
100
AcDbEntity
  8
0
  6
CENTER
 62
     4
370
    13
100
AcDbLine
 10
9.993100959206188
 20
101.9802006595989
 30
0.0
 11
15.49310095920619
 21
101.9802006595989
 31
0.0
  0
LINE
  5
1C9
330
1F
100
AcDbEntity
  8
0
  6
CENTER
 62
     4
370
    13
100
AcDbLine
 10
5.493100959206217
 20
121.981308411215
 30
0.0
 11
5.493100959206188
 21
103.4802006595989
 31
0.0
  0
LINE
  5
1CA
330
1F
100
AcDbEntity
  8
0
  6
CENTER
 62
     4
370
    13
100
AcDbLine
 10
-11.50689904079381
 20
79.97980637725567
 30
0.0
 11
-0.5068990407938117
 21
79.97980637725567
 31
0.0
  0
LINE
  5
1CB
330
1F
100
AcDbEntity
  8
0
  6
CENTER
 62
     4
370
    13
100
AcDbLine
 10
11.49310095920619
 20
79.97980637725567
 30
0.0
 11
22.4931009592062
 21
79.97980637725567
 31
0.0
  0
LINE
  5
1CC
330
1F
100
AcDbEntity
  8
0
  6
CENTER
 62
     4
370
    13
100
AcDbLine
 10
5.493100959206188
 20
100.4802006595989
 30
0.0
 11
5.493100959206188
 21
81.47980637725567
 31
0.0
  0
LINE
  5
1CD
330
1F
100
AcDbEntity
  8
0
  6
CENTER
 62
     4
370
    13
100
AcDbLine
 10
-4.506899040793812
 20
-81.01869158878505
 30
0.0
 11
0.9931009592061883
 21
-81.01869158878505
 31
0.0
  0
LINE
  5
1CE
330
1F
100
AcDbEntity
  8
0
  6
CENTER
 62
     4
370
    13
100
AcDbLine
 10
9.993100959206188
 20
-81.01869158878505
 30
0.0
 11
15.49310095920619
 21
-81.01869158878505
 31
0.0
  0
LINE
  5
1CF
330
1F
100
AcDbEntity
  8
0
  6
CENTER
 62
     4
370
    13
100
AcDbLine
 10
-11.50689904079381
 20
-59.01869158878505
 30
0.0
 11
-0.5068990407938117
 21
-59.01869158878505
 31
0.0
  0
LINE
  5
1D0
330
1F
100
AcDbEntity
  8
0
  6
CENTER
 62
     4
370
    13
100
AcDbLine
 10
11.49310095920619
 20
-59.01869158878505
 30
0.0
 11
22.4931009592062
 21
-59.01869158878505
 31
0.0
  0
LINE
  5
1D1
330
1F
100
AcDbEntity
  8
0
  6
CENTER
 62
     4
370
    13
100
AcDbLine
 10
5.493100959206188
 20
78.47980637725567
 30
0.0
 11
5.493100959206188
 21
-57.51869158878505
 31
0.0
  0
LINE
  5
1D2
330
1F
100
AcDbEntity
  8
0
  6
CENTER
 62
     4
370
    13
100
AcDbLine
 10
5.493100959206188
 20
-60.51869158878505
 30
0.0
 11
5.493100959206188
 21
-79.51869158878506
 31
0.0
  0
LINE
  5
1D3
330
1F
100
AcDbEntity
  8
0
  6
CENTER
 62
     4
370
    13
100
AcDbLine
 10
5.493100959206188
 20
-82.51869158878505
 30
0.0
 11
5.493100959206217
 21
-104.018691588785
 31
0.0
  0
CIRCLE
  5
1D4
330
1F
100
AcDbEntity
  8
0
  6
DASHED2
 62
     4
370
    13
100
AcDbCircle
 10
5.493100959206188
 20
5.981308411214954
 30
0.0
 40
10.0
  0
CIRCLE
  5
1D5
330
1F
100
AcDbEntity
  8
0
  6
DASHED2
 62
     4
370
    13
100
AcDbCircle
 10
5.493100959206188
 20
-59.01869158878505
 30
0.0
 40
10.0
  0
TEXT
  5
1D6
330
1F
100
AcDbEntity
  8
0
 62
     2
100
AcDbText
 10
0.9931009592061883
 20
100.4802006595989
 30
0.0
 40
3.0
  1
φ10mm
 41
0.5236515971373712
  7
dcStyle0
 72
     5
 11
9.993100959206188
 21
100.4802006595989
 31
0.0
100
AcDbText
  0
TEXT
  5
1D7
330
1F
100
AcDbEntity
  8
0
 62
     2
100
AcDbText
 10
-0.5068990407938117
 20
78.47980637725567
 30
0.0
 40
3.0
  1
φ20mm
 41
0.698202129516495
  7
dcStyle0
 72
     5
 11
11.49310095920619
 21
78.47980637725567
 31
0.0
100
AcDbText
  0
TEXT
  5
1D8
330
1F
100
AcDbEntity
  8
0
 62
     2
100
AcDbText
 10
-0.5068990407938117
 20
-60.51869158878505
 30
0.0
 40
3.0
  1
φ20mm
 41
0.698202129516495
  7
dcStyle0
 72
     5
 11
11.49310095920619
 21
-60.51869158878505
 31
0.0
100
AcDbText
  0
TEXT
  5
1D9
330
1F
100
AcDbEntity
  8
0
 62
     2
100
AcDbText
 10
0.9931009592061883
 20
-82.51869158878505
 30
0.0
 40
3.0
  1
φ10mm
 41
0.5236515971373712
  7
dcStyle0
 72
     5
 11
9.993100959206188
 21
-82.51869158878505
 31
0.0
100
AcDbText
  0
TEXT
  5
1DA
330
1F
100
AcDbEntity
  8
0
 62
     2
100
AcDbText
 10
10.29310095920619
 20
95.48020065959894
 30
0.0
 40
3.0
  1
追加穴加工
 41
0.6065200909780136
  7
dcStyle0
 72
     5
 11
22.29310095920619
 21
95.48020065959894
 31
0.0
100
AcDbText
  0
TEXT
  5
1DB
330
1F
100
AcDbEntity
  8
0
 62
     2
100
AcDbText
 10
12.29310095920619
 20
68.47980637725567
 30
0.0
 40
3.0
  1
追加穴加工
 41
0.6065200909780136
  7
dcStyle0
 72
     5
 11
24.29310095920619
 21
68.47980637725567
 31
0.0
100
AcDbText
  0
TEXT
  5
1DC
330
1F
100
AcDbEntity
  8
0
 62
     2
100
AcDbText
 10
9.793100959206189
 20
-87.51869158878505
 30
0.0
 40
3.0
  1
追加穴加工
 41
0.6065200909780136
  7
dcStyle0
 72
     5
 11
21.79310095920619
 21
-87.51869158878505
 31
0.0
100
AcDbText
  0
CIRCLE
  5
1DD
330
1F
100
AcDbEntity
  8
0
  6
Continuous
 62
     3
370
    50
100
AcDbCircle
 10
5.493100959206188
 20
101.9802006595989
 30
0.0
 40
5.0
  0
CIRCLE
  5
1DE
330
1F
100
AcDbEntity
  8
0
  6
Continuous
 62
     3
370
    50
100
AcDbCircle
 10
5.493100959206188
 20
79.97980637725567
 30
0.0
 40
10.0
  0
CIRCLE
  5
1DF
330
1F
100
AcDbEntity
  8
0
  6
Continuous
 62
     3
370
    50
100
AcDbCircle
 10
5.493100959206188
 20
-81.01869158878505
 30
0.0
 40
5.0
  0
VIEWPORT
  5
74
330
1B
100
AcDbEntity
 67
     1
  8
0
100
AcDbViewport
 10
-18.7534495203969
 20
0.2593457943925159
 30
0.0
 40
409.4793028776186
 41
787.5560747663551
 68
     1
 69
     1
 12
-18.7534495203969
 22
0.2593457943925159
 13
0.0
 23
0.0
 14
0.5
 24
0.5
 15
0.0
 25
0.0
 16
0.0
 26
0.0
 36
1.0
 17
0.0
 27
0.0
 37
0.0
 42
50.0
 43
0.0
 44
0.0
 45
787.5560747663551
 50
0.0
 51
0.0
 72
   100
 90
   557152
  1

281
     0
 71
     1
 74
     0
110
0.0
120
0.0
130
0.0
111
1.0
121
0.0
131
0.0
112
0.0
122
1.0
132
0.0
 79
     0
146
0.0
  0
ENDSEC
  0
SECTION
  2
OBJECTS
  0
DICTIONARY
  5
C
330
0
100
AcDbDictionary
281
     1
  3
ACAD_GROUP
350
D
  3
ACAD_LAYOUT
350
1A
  3
ACAD_MATERIAL
350
3B
  3
ACAD_MLEADERSTYLE
350
1E2
  3
ACAD_MLINESTYLE
350
17
  3
ACAD_PLOTSETTINGS
350
19
  3
ACAD_PLOTSTYLENAME
350
E
  3
ACAD_SCALELIST
350
92
  3
ACAD_VISUALSTYLE
350
2A
  3
AcDbVariableDictionary
350
1E0
  0
DICTIONARY
  5
D
102
{ACAD_REACTORS
330
C
102
}
330
C
100
AcDbDictionary
281
     1
  0
DICTIONARY
  5
1A
102
{ACAD_REACTORS
330
C
102
}
330
C
100
AcDbDictionary
281
     1
  3
Layout1
350
1E
  3
Layout2
350
26
  3
Model
350
22
  0
DICTIONARY
  5
3B
102
{ACAD_REACTORS
330
C
102
}
330
C
100
AcDbDictionary
281
     1
  3
ByBlock
350
3D
  3
ByLayer
350
3C
  3
Global
350
3E
  0
DICTIONARY
  5
1E2
102
{ACAD_REACTORS
330
C
102
}
330
C
100
AcDbDictionary
281
     1
  0
DICTIONARY
  5
17
102
{ACAD_REACTORS
330
C
102
}
330
C
100
AcDbDictionary
281
     1
  3
Standard
350
18
  0
DICTIONARY
  5
19
102
{ACAD_REACTORS
330
C
102
}
330
C
100
AcDbDictionary
281
     1
  0
ACDBDICTIONARYWDFLT
  5
E
102
{ACAD_REACTORS
330
C
102
}
330
C
100
AcDbDictionary
281
     1
  3
Normal
350
F
100
AcDbDictionaryWithDefault
340
F
  0
DICTIONARY
  5
92
102
{ACAD_REACTORS
330
C
102
}
330
C
100
AcDbDictionary
281
     1
  3
A0
350
93
  3
A1
350
94
  3
A2
350
95
  3
A3
350
96
  3
A4
350
97
  3
A5
350
98
  3
A6
350
99
  3
A7
350
9A
  3
A8
350
9B
  3
A9
350
9C
  3
B0
350
9D
  3
B1
350
9E
  3
B2
350
9F
  3
B3
350
A0
  3
B4
350
A1
  3
B5
350
A2
  3
B6
350
A3
  3
B7
350
A4
  3
B8
350
A5
  3
B9
350
A6
  3
C0
350
A7
  3
C1
350
A8
  3
C2
350
A9
  3
C3
350
AA
  3
C4
350
AB
  3
C5
350
AC
  3
C6
350
AD
  3
C7
350
AE
  3
C8
350
AF
  3
C9
350
B0
  3
D0
350
B1
  3
D1
350
B2
  3
D2
350
B3
  0
DICTIONARY
  5
2A
102
{ACAD_REACTORS
330
C
102
}
330
C
100
AcDbDictionary
281
     1
  3
2dWireframe
350
2F
  3
3D Hidden
350
31
  3
3dWireframe
350
30
  3
Basic
350
32
  3
Brighten
350
36
  3
ColorChange
350
3A
  3
Conceptual
350
34
  3
Dim
350
35
  3
Facepattern
350
39
  3
Flat
350
2B
  3
FlatWithEdges
350
2C
  3
Gouraud
350
2D
  3
GouraudWithEdges
350
2E
  3
Linepattern
350
38
  3
Realistic
350
33
  3
Thicken
350
37
  0
DICTIONARY
  5
1E0
102
{ACAD_REACTORS
330
C
102
}
330
C
100
AcDbDictionary
281
     1
  3
CANNOSCALE
350
1E3
  3
DIMASSOC
350
1E4
  3
HIDETEXT
350
1E5
  0
LAYOUT
  5
1E
102
{ACAD_REACTORS
330
1A
102
}
330
1A
100
AcDbPlotSettings
  1

  2
none_device
  4

  6

 40
0.0
 41
0.0
 42
0.0
 43
0.0
 44
0.0
 45
0.0
 46
0.0
 47
0.0
 48
0.0
 49
0.0
140
0.0
141
0.0
142
1.0
143
1.0
 70
   688
 72
     0
 73
     0
 74
     5
  7

 75
    16
147
1.0
148
0.0
149
0.0
100
AcDbLayout
  1
Layout1
 70
     0
 71
     1
 10
0.0
 20
0.0
 11
12.0
 21
9.0
 12
0.0
 22
0.0
 32
0.0
 14
1.000000000000000E+20
 24
1.000000000000000E+20
 34
1.000000000000000E+20
 15
-1.000000000000000E+20
 25
-1.000000000000000E+20
 35
-1.000000000000000E+20
146
0.0
 13
0.0
 23
0.0
 33
0.0
 16
1.0
 26
0.0
 36
0.0
 17
0.0
 27
1.0
 37
0.0
 76
     0
330
1B
331
74
  0
LAYOUT
  5
26
102
{ACAD_REACTORS
330
1A
102
}
330
1A
100
AcDbPlotSettings
  1

  2
none_device
  4

  6

 40
0.0
 41
0.0
 42
0.0
 43
0.0
 44
0.0
 45
0.0
 46
0.0
 47
0.0
 48
0.0
 49
0.0
140
0.0
141
0.0
142
1.0
143
1.0
 70
   688
 72
     0
 73
     0
 74
     5
  7

 75
    16
147
1.0
148
0.0
149
0.0
100
AcDbLayout
  1
Layout2
 70
     1
 71
     2
 10
0.0
 20
0.0
 11
0.0
 21
0.0
 12
0.0
 22
0.0
 32
0.0
 14
0.0
 24
0.0
 34
0.0
 15
0.0
 25
0.0
 35
0.0
146
0.0
 13
0.0
 23
0.0
 33
0.0
 16
1.0
 26
0.0
 36
0.0
 17
0.0
 27
1.0
 37
0.0
 76
     0
330
23
  0
LAYOUT
  5
22
102
{ACAD_REACTORS
330
1A
102
}
330
1A
100
AcDbPlotSettings
  1

  2
none_device
  4

  6

 40
0.0
 41
0.0
 42
0.0
 43
0.0
 44
0.0
 45
0.0
 46
0.0
 47
0.0
 48
0.0
 49
0.0
140
0.0
141
0.0
142
1.0
143
1.0
 70
  1712
 72
     0
 73
     0
 74
     0
  7

 75
     0
147
1.0
148
0.0
149
0.0
100
AcDbLayout
  1
Model
 70
     1
 71
     0
 10
-105.0
 20
-148.5
 11
105.0
 21
148.5
 12
0.0
 22
0.0
 32
0.0
 14
-223.4931009592062
 24
-393.518691588785
 34
0.0
 15
185.9862019184124
 25
394.0373831775701
 35
0.0
146
0.0
 13
0.0
 23
0.0
 33
0.0
 16
1.0
 26
0.0
 36
0.0
 17
0.0
 27
1.0
 37
0.0
 76
     0
330
1F
331
29
  0
MATERIAL
  5
3D
102
{ACAD_REACTORS
330
3B
102
}
102
{ACAD_XDICTIONARY
360
209
102
}
330
3B
100
AcDbMaterial
  1
ByBlock
  0
MATERIAL
  5
3C
102
{ACAD_REACTORS
330
3B
102
}
102
{ACAD_XDICTIONARY
360
207
102
}
330
3B
100
AcDbMaterial
  1
ByLayer
  0
MATERIAL
  5
3E
102
{ACAD_REACTORS
330
3B
102
}
102
{ACAD_XDICTIONARY
360
20B
102
}
330
3B
100
AcDbMaterial
  1
Global
  0
MLINESTYLE
  5
18
102
{ACAD_REACTORS
330
17
102
}
330
17
100
AcDbMlineStyle
  2
Standard
 70
     0
  3

 62
   256
 51
90.0
 52
90.0
 71
     2
 49
0.5
 62
   256
  6
BYLAYER
 49
-0.5
 62
   256
  6
BYLAYER
  0
ACDBPLACEHOLDER
  5
F
102
{ACAD_REACTORS
330
E
102
}
330
E
  0
SCALE
  5
93
102
{ACAD_REACTORS
330
92
102
}
330
92
100
AcDbScale
 70
     0
300
1:1
140
1.0
141
1.0
290
     1
  0
SCALE
  5
94
102
{ACAD_REACTORS
330
92
102
}
330
92
100
AcDbScale
 70
     0
300
1:2
140
1.0
141
2.0
290
     0
  0
SCALE
  5
95
102
{ACAD_REACTORS
330
92
102
}
330
92
100
AcDbScale
 70
     0
300
1:4
140
1.0
141
4.0
290
     0
  0
SCALE
  5
96
102
{ACAD_REACTORS
330
92
102
}
330
92
100
AcDbScale
 70
     0
300
1:5
140
1.0
141
5.0
290
     0
  0
SCALE
  5
97
102
{ACAD_REACTORS
330
92
102
}
330
92
100
AcDbScale
 70
     0
300
1:8
140
1.0
141
8.0
290
     0
  0
SCALE
  5
98
102
{ACAD_REACTORS
330
92
102
}
330
92
100
AcDbScale
 70
     0
300
1:10
140
1.0
141
10.0
290
     0
  0
SCALE
  5
99
102
{ACAD_REACTORS
330
92
102
}
330
92
100
AcDbScale
 70
     0
300
1:16
140
1.0
141
16.0
290
     0
  0
SCALE
  5
9A
102
{ACAD_REACTORS
330
92
102
}
330
92
100
AcDbScale
 70
     0
300
1:20
140
1.0
141
20.0
290
     0
  0
SCALE
  5
9B
102
{ACAD_REACTORS
330
92
102
}
330
92
100
AcDbScale
 70
     0
300
1:30
140
1.0
141
30.0
290
     0
  0
SCALE
  5
9C
102
{ACAD_REACTORS
330
92
102
}
330
92
100
AcDbScale
 70
     0
300
1:40
140
1.0
141
40.0
290
     0
  0
SCALE
  5
9D
102
{ACAD_REACTORS
330
92
102
}
330
92
100
AcDbScale
 70
     0
300
1:50
140
1.0
141
50.0
290
     0
  0
SCALE
  5
9E
102
{ACAD_REACTORS
330
92
102
}
330
92
100
AcDbScale
 70
     0
300
1:100
140
1.0
141
100.0
290
     0
  0
SCALE
  5
9F
102
{ACAD_REACTORS
330
92
102
}
330
92
100
AcDbScale
 70
     0
300
2:1
140
2.0
141
1.0
290
     0
  0
SCALE
  5
A0
102
{ACAD_REACTORS
330
92
102
}
330
92
100
AcDbScale
 70
     0
300
4:1
140
4.0
141
1.0
290
     0
  0
SCALE
  5
A1
102
{ACAD_REACTORS
330
92
102
}
330
92
100
AcDbScale
 70
     0
300
8:1
140
8.0
141
1.0
290
     0
  0
SCALE
  5
A2
102
{ACAD_REACTORS
330
92
102
}
330
92
100
AcDbScale
 70
     0
300
10:1
140
10.0
141
1.0
290
     0
  0
SCALE
  5
A3
102
{ACAD_REACTORS
330
92
102
}
330
92
100
AcDbScale
 70
     0
300
100:1
140
100.0
141
1.0
290
     0
  0
SCALE
  5
A4
102
{ACAD_REACTORS
330
92
102
}
330
92
100
AcDbScale
 70
     0
300
1/128" = 1'-0"
140
0.0078125
141
12.0
290
     0
  0
SCALE
  5
A5
102
{ACAD_REACTORS
330
92
102
}
330
92
100
AcDbScale
 70
     0
300
1/64" = 1'-0"
140
0.015625
141
12.0
290
     0
  0
SCALE
  5
A6
102
{ACAD_REACTORS
330
92
102
}
330
92
100
AcDbScale
 70
     0
300
1/32" = 1'-0"
140
0.03125
141
12.0
290
     0
  0
SCALE
  5
A7
102
{ACAD_REACTORS
330
92
102
}
330
92
100
AcDbScale
 70
     0
300
1/16" = 1'-0"
140
0.0625
141
12.0
290
     0
  0
SCALE
  5
A8
102
{ACAD_REACTORS
330
92
102
}
330
92
100
AcDbScale
 70
     0
300
3/32" = 1'-0"
140
0.09375
141
12.0
290
     0
  0
SCALE
  5
A9
102
{ACAD_REACTORS
330
92
102
}
330
92
100
AcDbScale
 70
     0
300
1/8" = 1'-0"
140
0.125
141
12.0
290
     0
  0
SCALE
  5
AA
102
{ACAD_REACTORS
330
92
102
}
330
92
100
AcDbScale
 70
     0
300
3/16" = 1'-0"
140
0.1875
141
12.0
290
     0
  0
SCALE
  5
AB
102
{ACAD_REACTORS
330
92
102
}
330
92
100
AcDbScale
 70
     0
300
1/4" = 1'-0"
140
0.25
141
12.0
290
     0
  0
SCALE
  5
AC
102
{ACAD_REACTORS
330
92
102
}
330
92
100
AcDbScale
 70
     0
300
3/8" = 1'-0"
140
0.375
141
12.0
290
     0
  0
SCALE
  5
AD
102
{ACAD_REACTORS
330
92
102
}
330
92
100
AcDbScale
 70
     0
300
1/2" = 1'-0"
140
0.5
141
12.0
290
     0
  0
SCALE
  5
AE
102
{ACAD_REACTORS
330
92
102
}
330
92
100
AcDbScale
 70
     0
300
3/4" = 1'-0"
140
0.75
141
12.0
290
     0
  0
SCALE
  5
AF
102
{ACAD_REACTORS
330
92
102
}
330
92
100
AcDbScale
 70
     0
300
1" = 1'-0"
140
1.0
141
12.0
290
     0
  0
SCALE
  5
B0
102
{ACAD_REACTORS
330
92
102
}
330
92
100
AcDbScale
 70
     0
300
1-1/2" = 1'-0"
140
1.5
141
12.0
290
     0
  0
SCALE
  5
B1
102
{ACAD_REACTORS
330
92
102
}
330
92
100
AcDbScale
 70
     0
300
3" = 1'-0"
140
3.0
141
12.0
290
     0
  0
SCALE
  5
B2
102
{ACAD_REACTORS
330
92
102
}
330
92
100
AcDbScale
 70
     0
300
6" = 1'-0"
140
6.0
141
12.0
290
     0
  0
SCALE
  5
B3
102
{ACAD_REACTORS
330
92
102
}
330
92
100
AcDbScale
 70
     0
300
1'-0" = 1'-0"
140
12.0
141
12.0
290
     0
  0
VISUALSTYLE
  5
2F
102
{ACAD_REACTORS
330
2A
102
}
102
{ACAD_XDICTIONARY
360
1EF
102
}
330
2A
100
AcDbVisualStyle
  2
2dWireframe
 70
     4
 71
     0
 72
     2
 73
     0
 90
        0
 40
-0.6
 41
-30.0
 62
     5
 63
     7
 74
     1
 91
        4
 64
     7
 65
   257
 75
     1
175
     1
 42
1.0
 92
        0
 66
   257
 43
1.0
 76
     1
 77
     6
 78
     2
 67
     7
 79
     5
170
     0
171
     0
290
     0
174
     0
 93
        1
 44
0.0
173
     0
291
     0
 45
0.0
1001
ACAD
1000
AcDbSavedByObjectVersion
1070
     0
  0
VISUALSTYLE
  5
31
102
{ACAD_REACTORS
330
2A
102
}
102
{ACAD_XDICTIONARY
360
1F3
102
}
330
2A
100
AcDbVisualStyle
  2
3D Hidden
 70
     6
 71
     1
 72
     2
 73
     2
 90
        0
 40
-0.6
 41
-30.0
 62
     5
 63
     7
 74
     2
 91
        2
 64
     7
 65
   257
 75
     2
175
     1
 42
40.0
 92
        0
 66
   257
 43
1.0
 76
     1
 77
     6
 78
     2
 67
     7
 79
     3
170
     0
171
     0
290
     0
174
     0
 93
        1
 44
0.0
173
     0
291
     0
 45
0.0
1001
ACAD
1000
AcDbSavedByObjectVersion
1070
     0
  0
VISUALSTYLE
  5
30
102
{ACAD_REACTORS
330
2A
102
}
102
{ACAD_XDICTIONARY
360
1F1
102
}
330
2A
100
AcDbVisualStyle
  2
3dWireframe
 70
     5
 71
     0
 72
     2
 73
     0
 90
        0
 40
-0.6
 41
-30.0
 62
     5
 63
     7
 74
     1
 91
        4
 64
     7
 65
   257
 75
     1
175
     1
 42
1.0
 92
        0
 66
   257
 43
1.0
 76
     1
 77
     6
 78
     2
 67
     7
 79
     5
170
     0
171
     0
290
     0
174
     0
 93
        1
 44
0.0
173
     0
291
     0
 45
0.0
1001
ACAD
1000
AcDbSavedByObjectVersion
1070
     0
  0
VISUALSTYLE
  5
32
102
{ACAD_REACTORS
330
2A
102
}
102
{ACAD_XDICTIONARY
360
1F5
102
}
330
2A
100
AcDbVisualStyle
  2
Basic
 70
     7
 71
     1
 72
     0
 73
     1
 90
        0
 40
-0.6
 41
-30.0
 62
     5
 63
     7
 74
     0
 91
        4
 64
     7
 65
   257
 75
     1
175
     1
 42
1.0
 92
        8
 66
     7
 43
1.0
 76
     1
 77
     6
 78
     2
 67
     7
 79
     5
170
     0
171
     0
290
     0
174
     0
 93
        1
 44
0.0
173
     0
291
     1
 45
0.0
1001
ACAD
1000
AcDbSavedByObjectVersion
1070
     0
  0
VISUALSTYLE
  5
36
102
{ACAD_REACTORS
330
2A
102
}
102
{ACAD_XDICTIONARY
360
1FD
102
}
330
2A
100
AcDbVisualStyle
  2
Brighten
 70
    12
 71
     2
 72
     2
 73
     0
 90
        0
 40
-0.6
 41
-30.0
 62
     5
 63
     7
 74
     1
 91
        4
 64
     7
 65
   257
 75
     1
175
     1
 42
1.0
 92
        8
 66
     7
 43
1.0
 76
     1
 77
     6
 78
     2
 67
     7
 79
     5
170
     0
171
     0
290
     0
174
     0
 93
        1
 44
50.0
173
     0
291
     1
 45
0.0
1001
ACAD
1000
AcDbSavedByObjectVersion
1070
     0
  0
VISUALSTYLE
  5
3A
102
{ACAD_REACTORS
330
2A
102
}
102
{ACAD_XDICTIONARY
360
205
102
}
330
2A
100
AcDbVisualStyle
  2
ColorChange
 70
    16
 71
     2
 72
     2
 73
     3
 90
        0
 40
-0.6
 41
-30.0
 62
     5
 63
     8
 74
     1
 91
        4
 64
     7
 65
   257
 75
     1
175
     1
 42
1.0
 92
        8
 66
     8
 43
1.0
 76
     1
 77
     6
 78
     2
 67
     7
 79
     5
170
     0
171
     0
290
     0
174
     0
 93
        1
 44
0.0
173
     0
291
     1
 45
0.0
1001
ACAD
1000
AcDbSavedByObjectVersion
1070
     0
  0
VISUALSTYLE
  5
34
102
{ACAD_REACTORS
330
2A
102
}
102
{ACAD_XDICTIONARY
360
1F9
102
}
330
2A
100
AcDbVisualStyle
  2
Conceptual
 70
     9
 71
     3
 72
     2
 73
     0
 90
        0
 40
-0.6
 41
-30.0
 62
     5
 63
     7
 74
     2
 91
        2
 64
     7
 65
   257
 75
     1
175
     1
 42
40.0
 92
        8
 66
     7
 43
1.0
 76
     1
 77
     6
 78
     2
 67
     7
 79
     3
170
     0
171
     0
290
     0
174
     0
 93
        1
 44
0.0
173
     0
291
     0
 45
0.0
1001
ACAD
1000
AcDbSavedByObjectVersion
1070
     0
  0
VISUALSTYLE
  5
35
102
{ACAD_REACTORS
330
2A
102
}
102
{ACAD_XDICTIONARY
360
1FB
102
}
330
2A
100
AcDbVisualStyle
  2
Dim
 70
    11
 71
     2
 72
     2
 73
     0
 90
        0
 40
-0.6
 41
-30.0
 62
     5
 63
     7
 74
     1
 91
        4
 64
     7
 65
   257
 75
     1
175
     1
 42
1.0
 92
        8
 66
     7
 43
1.0
 76
     1
 77
     6
 78
     2
 67
     7
 79
     5
170
     0
171
     0
290
     0
174
     0
 93
        1
 44
-50.0
173
     0
291
     1
 45
0.0
1001
ACAD
1000
AcDbSavedByObjectVersion
1070
     0
  0
VISUALSTYLE
  5
39
102
{ACAD_REACTORS
330
2A
102
}
102
{ACAD_XDICTIONARY
360
203
102
}
330
2A
100
AcDbVisualStyle
  2
Facepattern
 70
    15
 71
     2
 72
     2
 73
     0
 90
        0
 40
-0.6
 41
-30.0
 62
     5
 63
     7
 74
     1
 91
        4
 64
     7
 65
   257
 75
     1
175
     1
 42
1.0
 92
        8
 66
     7
 43
1.0
 76
     1
 77
     6
 78
     2
 67
     7
 79
     5
170
     0
171
     0
290
     0
174
     0
 93
        1
 44
0.0
173
     0
291
     1
 45
0.0
1001
ACAD
1000
AcDbSavedByObjectVersion
1070
     0
  0
VISUALSTYLE
  5
2B
102
{ACAD_REACTORS
330
2A
102
}
102
{ACAD_XDICTIONARY
360
1E7
102
}
330
2A
100
AcDbVisualStyle
  2
Flat
 70
     0
 71
     2
 72
     1
 73
     1
 90
        2
 40
-0.6
 41
30.0
 62
     5
 63
     7
 74
     0
 91
        4
 64
     7
 65
   257
 75
     1
175
     1
 42
1.0
 92
        8
 66
     7
 43
1.0
 76
     1
 77
     6
 78
     2
 67
     7
 79
     5
170
     0
171
     0
290
     0
174
     0
 93
       13
 44
0.0
173
     0
291
     1
 45
0.0
1001
ACAD
1000
AcDbSavedByObjectVersion
1070
     0
  0
VISUALSTYLE
  5
2C
102
{ACAD_REACTORS
330
2A
102
}
102
{ACAD_XDICTIONARY
360
1E9
102
}
330
2A
100
AcDbVisualStyle
  2
FlatWithEdges
 70
     1
 71
     2
 72
     1
 73
     1
 90
        2
 40
-0.6
 41
30.0
 62
     5
 63
     7
 74
     1
 91
        4
 64
     7
 65
   257
 75
     1
175
     1
 42
1.0
 92
        0
 66
   257
 43
1.0
 76
     1
 77
     6
 78
     2
 67
     7
 79
     5
170
     0
171
     0
290
     0
174
     0
 93
       13
 44
0.0
173
     0
291
     1
 45
0.0
1001
ACAD
1000
AcDbSavedByObjectVersion
1070
     0
  0
VISUALSTYLE
  5
2D
102
{ACAD_REACTORS
330
2A
102
}
102
{ACAD_XDICTIONARY
360
1EB
102
}
330
2A
100
AcDbVisualStyle
  2
Gouraud
 70
     2
 71
     2
 72
     2
 73
     1
 90
        2
 40
-0.6
 41
30.0
 62
     5
 63
     7
 74
     0
 91
        4
 64
     7
 65
   257
 75
     1
175
     1
 42
1.0
 92
        0
 66
     7
 43
1.0
 76
     1
 77
     6
 78
     2
 67
     7
 79
     5
170
     0
171
     0
290
     0
174
     0
 93
       13
 44
0.0
173
     0
291
     1
 45
0.0
1001
ACAD
1000
AcDbSavedByObjectVersion
1070
     0
  0
VISUALSTYLE
  5
2E
102
{ACAD_REACTORS
330
2A
102
}
102
{ACAD_XDICTIONARY
360
1ED
102
}
330
2A
100
AcDbVisualStyle
  2
GouraudWithEdges
 70
     3
 71
     2
 72
     2
 73
     1
 90
        2
 40
-0.6
 41
30.0
 62
     5
 63
     7
 74
     1
 91
        4
 64
     7
 65
   257
 75
     1
175
     1
 42
1.0
 92
        0
 66
   257
 43
1.0
 76
     1
 77
     6
 78
     2
 67
     7
 79
     5
170
     0
171
     0
290
     0
174
     0
 93
       13
 44
0.0
173
     0
291
     1
 45
0.0
1001
ACAD
1000
AcDbSavedByObjectVersion
1070
     0
  0
VISUALSTYLE
  5
38
102
{ACAD_REACTORS
330
2A
102
}
102
{ACAD_XDICTIONARY
360
201
102
}
330
2A
100
AcDbVisualStyle
  2
Linepattern
 70
    14
 71
     2
 72
     2
 73
     0
 90
        0
 40
-0.6
 41
-30.0
 62
     5
 63
     7
 74
     1
 91
        4
 64
     7
 65
   257
 75
     7
175
     7
 42
1.0
 92
        8
 66
     7
 43
1.0
 76
     1
 77
     6
 78
     2
 67
     7
 79
     5
170
     0
171
     0
290
     0
174
     0
 93
        1
 44
0.0
173
     0
291
     1
 45
0.0
1001
ACAD
1000
AcDbSavedByObjectVersion
1070
     0
  0
VISUALSTYLE
  5
33
102
{ACAD_REACTORS
330
2A
102
}
102
{ACAD_XDICTIONARY
360
1F7
102
}
330
2A
100
AcDbVisualStyle
  2
Realistic
 70
     8
 71
     2
 72
     2
 73
     0
 90
        0
 40
-0.6
 41
-30.0
 62
     5
 63
     7
 74
     1
 91
        0
 64
     7
 65
   257
 75
     1
175
     1
 42
1.0
 92
        8
 66
     8
 43
1.0
 76
     1
 77
     6
 78
     2
 67
     7
 79
     5
170
     0
171
     0
290
     0
174
     0
 93
       13
 44
0.0
173
     0
291
     0
 45
0.0
1001
ACAD
1000
AcDbSavedByObjectVersion
1070
     0
  0
VISUALSTYLE
  5
37
102
{ACAD_REACTORS
330
2A
102
}
102
{ACAD_XDICTIONARY
360
1FF
102
}
330
2A
100
AcDbVisualStyle
  2
Thicken
 70
    13
 71
     2
 72
     2
 73
     0
 90
        0
 40
-0.6
 41
-30.0
 62
     5
 63
     7
 74
     1
 91
        4
 64
     7
 65
   257
 75
     1
175
     1
 42
1.0
 92
       12
 66
     7
 43
1.0
 76
     1
 77
     6
 78
     2
 67
     7
 79
     5
170
     0
171
     0
290
     0
174
     0
 93
        1
 44
0.0
173
     0
291
     1
 45
0.0
1001
ACAD
1000
AcDbSavedByObjectVersion
1070
     0
  0
DICTIONARYVAR
  5
1E3
102
{ACAD_REACTORS
330
1E0
102
}
330
1E0
100
DictionaryVariables
280
     0
  1
1:1
  0
DICTIONARYVAR
  5
1E4
102
{ACAD_REACTORS
330
1E0
102
}
330
1E0
100
DictionaryVariables
280
     0
  1
2
  0
DICTIONARYVAR
  5
1E5
102
{ACAD_REACTORS
330
1E0
102
}
330
1E0
100
DictionaryVariables
280
     0
  1
1
  0
DICTIONARY
  5
209
330
3D
100
AcDbDictionary
280
     1
281
     1
  3
ACAD_XREC_ROUNDTRIP
360
20A
  0
DICTIONARY
  5
207
330
3C
100
AcDbDictionary
280
     1
281
     1
  3
ACAD_XREC_ROUNDTRIP
360
208
  0
DICTIONARY
  5
20B
330
3E
100
AcDbDictionary
280
     1
281
     1
  3
ACAD_XREC_ROUNDTRIP
360
20C
  0
DICTIONARY
  5
1EF
330
2F
100
AcDbDictionary
280
     1
281
     1
  3
ACAD_XREC_ROUNDTRIP
360
1F0
  0
DICTIONARY
  5
1F3
330
31
100
AcDbDictionary
280
     1
281
     1
  3
ACAD_XREC_ROUNDTRIP
360
1F4
  0
DICTIONARY
  5
1F1
330
30
100
AcDbDictionary
280
     1
281
     1
  3
ACAD_XREC_ROUNDTRIP
360
1F2
  0
DICTIONARY
  5
1F5
330
32
100
AcDbDictionary
280
     1
281
     1
  3
ACAD_XREC_ROUNDTRIP
360
1F6
  0
DICTIONARY
  5
1FD
330
36
100
AcDbDictionary
280
     1
281
     1
  3
ACAD_XREC_ROUNDTRIP
360
1FE
  0
DICTIONARY
  5
205
330
3A
100
AcDbDictionary
280
     1
281
     1
  3
ACAD_XREC_ROUNDTRIP
360
206
  0
DICTIONARY
  5
1F9
330
34
100
AcDbDictionary
280
     1
281
     1
  3
ACAD_XREC_ROUNDTRIP
360
1FA
  0
DICTIONARY
  5
1FB
330
35
100
AcDbDictionary
280
     1
281
     1
  3
ACAD_XREC_ROUNDTRIP
360
1FC
  0
DICTIONARY
  5
203
330
39
100
AcDbDictionary
280
     1
281
     1
  3
ACAD_XREC_ROUNDTRIP
360
204
  0
DICTIONARY
  5
1E7
330
2B
100
AcDbDictionary
280
     1
281
     1
  3
ACAD_XREC_ROUNDTRIP
360
1E8
  0
DICTIONARY
  5
1E9
330
2C
100
AcDbDictionary
280
     1
281
     1
  3
ACAD_XREC_ROUNDTRIP
360
1EA
  0
DICTIONARY
  5
1EB
330
2D
100
AcDbDictionary
280
     1
281
     1
  3
ACAD_XREC_ROUNDTRIP
360
1EC
  0
DICTIONARY
  5
1ED
330
2E
100
AcDbDictionary
280
     1
281
     1
  3
ACAD_XREC_ROUNDTRIP
360
1EE
  0
DICTIONARY
  5
201
330
38
100
AcDbDictionary
280
     1
281
     1
  3
ACAD_XREC_ROUNDTRIP
360
202
  0
DICTIONARY
  5
1F7
330
33
100
AcDbDictionary
280
     1
281
     1
  3
ACAD_XREC_ROUNDTRIP
360
1F8
  0
DICTIONARY
  5
1FF
330
37
100
AcDbDictionary
280
     1
281
     1
  3
ACAD_XREC_ROUNDTRIP
360
200
  0
XRECORD
  5
20A
102
{ACAD_REACTORS
330
209
102
}
330
209
100
AcDbXrecord
280
     1
102
MATERIAL
148
0.0
149
0.0
149
0.0
 93
        0
 94
      127
282
     0
 72
     1
 77
     1
171
     1
175
     1
179
     1
273
     0
  0
XRECORD
  5
208
102
{ACAD_REACTORS
330
207
102
}
330
207
100
AcDbXrecord
280
     1
102
MATERIAL
148
0.0
149
0.0
149
0.0
 93
        0
 94
      127
282
     0
 72
     1
 77
     1
171
     1
175
     1
179
     1
273
     0
  0
XRECORD
  5
20C
102
{ACAD_REACTORS
330
20B
102
}
330
20B
100
AcDbXrecord
280
     1
102
MATERIAL
148
0.0
149
0.0
149
0.0
 93
        0
 94
      127
282
     0
 72
     1
 77
     1
171
     1
175
     1
179
     1
273
     0
  0
XRECORD
  5
1F0
102
{ACAD_REACTORS
330
1EF
102
}
330
1EF
100
AcDbXrecord
280
     1
102
RTVSPropertyOp0
 70
     1
102
RTVSPropertyOp1
 70
     1
102
RTVSPropertyOp2
 70
     1
102
RTVSPropertyOp3
 70
     1
102
RTVSPropertyOp4
 70
     1
102
RTVSPropertyOp5
 70
     1
102
RTVSPropertyOp6
 70
     1
102
RTVSPropertyOp7
 70
     1
102
RTVSPropertyOp8
 70
     1
102
RTVSPropertyOp9
 70
     1
102
RTVSPropertyOp10
 70
     1
102
RTVSPropertyOp11
 70
     1
102
RTVSPropertyOp12
 70
     1
102
RTVSPropertyOp13
 70
     1
102
RTVSPropertyOp14
 70
     1
102
RTVSPropertyOp15
 70
     1
102
RTVSPropertyOp16
 70
     1
102
RTVSPropertyOp17
 70
     1
102
RTVSPropertyOp18
 70
     1
102
RTVSPropertyOp19
 70
     1
102
RTVSPropertyOp20
 70
     1
102
RTVSPropertyOp21
 70
     1
102
RTVSPropertyOp22
 70
     1
102
RTVSPropertyOp23
 70
     1
102
RTVSPropertyOp24
 70
     1
102
RTVSPropertyOp25
 70
     1
102
RTVSPropertyOp26
 70
     1
102
RTVSPropertyOp27
 70
     1
  0
XRECORD
  5
1F4
102
{ACAD_REACTORS
330
1F3
102
}
330
1F3
100
AcDbXrecord
280
     1
102
RTVSPropertyOp0
 70
     1
102
RTVSPropertyOp1
 70
     1
102
RTVSPropertyOp2
 70
     1
102
RTVSPropertyOp3
 70
     1
102
RTVSPropertyOp4
 70
     1
102
RTVSPropertyOp5
 70
     1
102
RTVSPropertyOp6
 70
     1
102
RTVSPropertyOp7
 70
     1
102
RTVSPropertyOp8
 70
     1
102
RTVSPropertyOp9
 70
     1
102
RTVSPropertyOp10
 70
     1
102
RTVSPropertyOp11
 70
     1
102
RTVSPropertyOp12
 70
     1
102
RTVSPropertyOp13
 70
     1
102
RTVSPropertyOp14
 70
     1
102
RTVSPropertyOp15
 70
     1
102
RTVSPropertyOp16
 70
     1
102
RTVSPropertyOp17
 70
     1
102
RTVSPropertyOp18
 70
     1
102
RTVSPropertyOp19
 70
     1
102
RTVSPropertyOp20
 70
     1
102
RTVSPropertyOp21
 70
     1
102
RTVSPropertyOp22
 70
     1
102
RTVSPropertyOp23
 70
     1
102
RTVSPropertyOp24
 70
     1
102
RTVSPropertyOp25
 70
     1
102
RTVSPropertyOp26
 70
     1
102
RTVSPropertyOp27
 70
     1
  0
XRECORD
  5
1F2
102
{ACAD_REACTORS
330
1F1
102
}
330
1F1
100
AcDbXrecord
280
     1
102
RTVSPropertyOp0
 70
     1
102
RTVSPropertyOp1
 70
     1
102
RTVSPropertyOp2
 70
     1
102
RTVSPropertyOp3
 70
     1
102
RTVSPropertyOp4
 70
     1
102
RTVSPropertyOp5
 70
     1
102
RTVSPropertyOp6
 70
     1
102
RTVSPropertyOp7
 70
     1
102
RTVSPropertyOp8
 70
     1
102
RTVSPropertyOp9
 70
     1
102
RTVSPropertyOp10
 70
     1
102
RTVSPropertyOp11
 70
     1
102
RTVSPropertyOp12
 70
     1
102
RTVSPropertyOp13
 70
     1
102
RTVSPropertyOp14
 70
     1
102
RTVSPropertyOp15
 70
     1
102
RTVSPropertyOp16
 70
     1
102
RTVSPropertyOp17
 70
     1
102
RTVSPropertyOp18
 70
     1
102
RTVSPropertyOp19
 70
     1
102
RTVSPropertyOp20
 70
     1
102
RTVSPropertyOp21
 70
     1
102
RTVSPropertyOp22
 70
     1
102
RTVSPropertyOp23
 70
     1
102
RTVSPropertyOp24
 70
     1
102
RTVSPropertyOp25
 70
     1
102
RTVSPropertyOp26
 70
     1
102
RTVSPropertyOp27
 70
     1
  0
XRECORD
  5
1F6
102
{ACAD_REACTORS
330
1F5
102
}
330
1F5
100
AcDbXrecord
280
     1
102
RTVSPropertyOp0
 70
     1
102
RTVSPropertyOp1
 70
     1
102
RTVSPropertyOp2
 70
     1
102
RTVSPropertyOp3
 70
     1
102
RTVSPropertyOp4
 70
     1
102
RTVSPropertyOp5
 70
     1
102
RTVSPropertyOp6
 70
     1
102
RTVSPropertyOp7
 70
     1
102
RTVSPropertyOp8
 70
     1
102
RTVSPropertyOp9
 70
     1
102
RTVSPropertyOp10
 70
     1
102
RTVSPropertyOp11
 70
     1
102
RTVSPropertyOp12
 70
     1
102
RTVSPropertyOp13
 70
     1
102
RTVSPropertyOp14
 70
     1
102
RTVSPropertyOp15
 70
     1
102
RTVSPropertyOp16
 70
     1
102
RTVSPropertyOp17
 70
     1
102
RTVSPropertyOp18
 70
     1
102
RTVSPropertyOp19
 70
     1
102
RTVSPropertyOp20
 70
     1
102
RTVSPropertyOp21
 70
     1
102
RTVSPropertyOp22
 70
     1
102
RTVSPropertyOp23
 70
     1
102
RTVSPropertyOp24
 70
     1
102
RTVSPropertyOp25
 70
     1
102
RTVSPropertyOp26
 70
     1
102
RTVSPropertyOp27
 70
     1
  0
XRECORD
  5
1FE
102
{ACAD_REACTORS
330
1FD
102
}
330
1FD
100
AcDbXrecord
280
     1
102
RTVSPropertyOp0
 70
     1
102
RTVSPropertyOp1
 70
     1
102
RTVSPropertyOp2
 70
     1
102
RTVSPropertyOp3
 70
     1
102
RTVSPropertyOp4
 70
     1
102
RTVSPropertyOp5
 70
     1
102
RTVSPropertyOp6
 70
     1
102
RTVSPropertyOp7
 70
     1
102
RTVSPropertyOp8
 70
     1
102
RTVSPropertyOp9
 70
     1
102
RTVSPropertyOp10
 70
     1
102
RTVSPropertyOp11
 70
     1
102
RTVSPropertyOp12
 70
     1
102
RTVSPropertyOp13
 70
     1
102
RTVSPropertyOp14
 70
     1
102
RTVSPropertyOp15
 70
     1
102
RTVSPropertyOp16
 70
     1
102
RTVSPropertyOp17
 70
     1
102
RTVSPropertyOp18
 70
     1
102
RTVSPropertyOp19
 70
     1
102
RTVSPropertyOp20
 70
     1
102
RTVSPropertyOp21
 70
     1
102
RTVSPropertyOp22
 70
     1
102
RTVSPropertyOp23
 70
     1
102
RTVSPropertyOp24
 70
     1
102
RTVSPropertyOp25
 70
     1
102
RTVSPropertyOp26
 70
     1
102
RTVSPropertyOp27
 70
     1
  0
XRECORD
  5
206
102
{ACAD_REACTORS
330
205
102
}
330
205
100
AcDbXrecord
280
     1
102
RTVSPropertyOp0
 70
     1
102
RTVSPropertyOp1
 70
     1
102
RTVSPropertyOp2
 70
     1
102
RTVSPropertyOp3
 70
     1
102
RTVSPropertyOp4
 70
     1
102
RTVSPropertyOp5
 70
     1
102
RTVSPropertyOp6
 70
     1
102
RTVSPropertyOp7
 70
     1
102
RTVSPropertyOp8
 70
     1
102
RTVSPropertyOp9
 70
     1
102
RTVSPropertyOp10
 70
     1
102
RTVSPropertyOp11
 70
     1
102
RTVSPropertyOp12
 70
     1
102
RTVSPropertyOp13
 70
     1
102
RTVSPropertyOp14
 70
     1
102
RTVSPropertyOp15
 70
     1
102
RTVSPropertyOp16
 70
     1
102
RTVSPropertyOp17
 70
     1
102
RTVSPropertyOp18
 70
     1
102
RTVSPropertyOp19
 70
     1
102
RTVSPropertyOp20
 70
     1
102
RTVSPropertyOp21
 70
     1
102
RTVSPropertyOp22
 70
     1
102
RTVSPropertyOp23
 70
     1
102
RTVSPropertyOp24
 70
     1
102
RTVSPropertyOp25
 70
     1
102
RTVSPropertyOp26
 70
     1
102
RTVSPropertyOp27
 70
     1
  0
XRECORD
  5
1FA
102
{ACAD_REACTORS
330
1F9
102
}
330
1F9
100
AcDbXrecord
280
     1
102
RTVSPropertyOp0
 70
     1
102
RTVSPropertyOp1
 70
     1
102
RTVSPropertyOp2
 70
     1
102
RTVSPropertyOp3
 70
     1
102
RTVSPropertyOp4
 70
     1
102
RTVSPropertyOp5
 70
     1
102
RTVSPropertyOp6
 70
     1
102
RTVSPropertyOp7
 70
     1
102
RTVSPropertyOp8
 70
     1
102
RTVSPropertyOp9
 70
     1
102
RTVSPropertyOp10
 70
     1
102
RTVSPropertyOp11
 70
     1
102
RTVSPropertyOp12
 70
     1
102
RTVSPropertyOp13
 70
     1
102
RTVSPropertyOp14
 70
     1
102
RTVSPropertyOp15
 70
     1
102
RTVSPropertyOp16
 70
     1
102
RTVSPropertyOp17
 70
     1
102
RTVSPropertyOp18
 70
     1
102
RTVSPropertyOp19
 70
     1
102
RTVSPropertyOp20
 70
     1
102
RTVSPropertyOp21
 70
     1
102
RTVSPropertyOp22
 70
     1
102
RTVSPropertyOp23
 70
     1
102
RTVSPropertyOp24
 70
     1
102
RTVSPropertyOp25
 70
     1
102
RTVSPropertyOp26
 70
     1
102
RTVSPropertyOp27
 70
     1
  0
XRECORD
  5
1FC
102
{ACAD_REACTORS
330
1FB
102
}
330
1FB
100
AcDbXrecord
280
     1
102
RTVSPropertyOp0
 70
     1
102
RTVSPropertyOp1
 70
     1
102
RTVSPropertyOp2
 70
     1
102
RTVSPropertyOp3
 70
     1
102
RTVSPropertyOp4
 70
     1
102
RTVSPropertyOp5
 70
     1
102
RTVSPropertyOp6
 70
     1
102
RTVSPropertyOp7
 70
     1
102
RTVSPropertyOp8
 70
     1
102
RTVSPropertyOp9
 70
     1
102
RTVSPropertyOp10
 70
     1
102
RTVSPropertyOp11
 70
     1
102
RTVSPropertyOp12
 70
     1
102
RTVSPropertyOp13
 70
     1
102
RTVSPropertyOp14
 70
     1
102
RTVSPropertyOp15
 70
     1
102
RTVSPropertyOp16
 70
     1
102
RTVSPropertyOp17
 70
     1
102
RTVSPropertyOp18
 70
     1
102
RTVSPropertyOp19
 70
     1
102
RTVSPropertyOp20
 70
     1
102
RTVSPropertyOp21
 70
     1
102
RTVSPropertyOp22
 70
     1
102
RTVSPropertyOp23
 70
     1
102
RTVSPropertyOp24
 70
     1
102
RTVSPropertyOp25
 70
     1
102
RTVSPropertyOp26
 70
     1
102
RTVSPropertyOp27
 70
     1
  0
XRECORD
  5
204
102
{ACAD_REACTORS
330
203
102
}
330
203
100
AcDbXrecord
280
     1
102
RTVSPropertyOp0
 70
     1
102
RTVSPropertyOp1
 70
     1
102
RTVSPropertyOp2
 70
     1
102
RTVSPropertyOp3
 70
     1
102
RTVSPropertyOp4
 70
     1
102
RTVSPropertyOp5
 70
     1
102
RTVSPropertyOp6
 70
     1
102
RTVSPropertyOp7
 70
     1
102
RTVSPropertyOp8
 70
     1
102
RTVSPropertyOp9
 70
     1
102
RTVSPropertyOp10
 70
     1
102
RTVSPropertyOp11
 70
     1
102
RTVSPropertyOp12
 70
     1
102
RTVSPropertyOp13
 70
     1
102
RTVSPropertyOp14
 70
     1
102
RTVSPropertyOp15
 70
     1
102
RTVSPropertyOp16
 70
     1
102
RTVSPropertyOp17
 70
     1
102
RTVSPropertyOp18
 70
     1
102
RTVSPropertyOp19
 70
     1
102
RTVSPropertyOp20
 70
     1
102
RTVSPropertyOp21
 70
     1
102
RTVSPropertyOp22
 70
     1
102
RTVSPropertyOp23
 70
     1
102
RTVSPropertyOp24
 70
     1
102
RTVSPropertyOp25
 70
     1
102
RTVSPropertyOp26
 70
     1
102
RTVSPropertyOp27
 70
     1
  0
XRECORD
  5
1E8
102
{ACAD_REACTORS
330
1E7
102
}
330
1E7
100
AcDbXrecord
280
     1
102
RTVSPropertyOp0
 70
     1
102
RTVSPropertyOp1
 70
     1
102
RTVSPropertyOp2
 70
     1
102
RTVSPropertyOp3
 70
     1
102
RTVSPropertyOp4
 70
     1
102
RTVSPropertyOp5
 70
     1
102
RTVSPropertyOp6
 70
     1
102
RTVSPropertyOp7
 70
     1
102
RTVSPropertyOp8
 70
     1
102
RTVSPropertyOp9
 70
     1
102
RTVSPropertyOp10
 70
     1
102
RTVSPropertyOp11
 70
     1
102
RTVSPropertyOp12
 70
     1
102
RTVSPropertyOp13
 70
     1
102
RTVSPropertyOp14
 70
     1
102
RTVSPropertyOp15
 70
     1
102
RTVSPropertyOp16
 70
     1
102
RTVSPropertyOp17
 70
     1
102
RTVSPropertyOp18
 70
     1
102
RTVSPropertyOp19
 70
     1
102
RTVSPropertyOp20
 70
     1
102
RTVSPropertyOp21
 70
     1
102
RTVSPropertyOp22
 70
     1
102
RTVSPropertyOp23
 70
     1
102
RTVSPropertyOp24
 70
     1
102
RTVSPropertyOp25
 70
     1
102
RTVSPropertyOp26
 70
     1
102
RTVSPropertyOp27
 70
     1
  0
XRECORD
  5
1EA
102
{ACAD_REACTORS
330
1E9
102
}
330
1E9
100
AcDbXrecord
280
     1
102
RTVSPropertyOp0
 70
     1
102
RTVSPropertyOp1
 70
     1
102
RTVSPropertyOp2
 70
     1
102
RTVSPropertyOp3
 70
     1
102
RTVSPropertyOp4
 70
     1
102
RTVSPropertyOp5
 70
     1
102
RTVSPropertyOp6
 70
     1
102
RTVSPropertyOp7
 70
     1
102
RTVSPropertyOp8
 70
     1
102
RTVSPropertyOp9
 70
     1
102
RTVSPropertyOp10
 70
     1
102
RTVSPropertyOp11
 70
     1
102
RTVSPropertyOp12
 70
     1
102
RTVSPropertyOp13
 70
     1
102
RTVSPropertyOp14
 70
     1
102
RTVSPropertyOp15
 70
     1
102
RTVSPropertyOp16
 70
     1
102
RTVSPropertyOp17
 70
     1
102
RTVSPropertyOp18
 70
     1
102
RTVSPropertyOp19
 70
     1
102
RTVSPropertyOp20
 70
     1
102
RTVSPropertyOp21
 70
     1
102
RTVSPropertyOp22
 70
     1
102
RTVSPropertyOp23
 70
     1
102
RTVSPropertyOp24
 70
     1
102
RTVSPropertyOp25
 70
     1
102
RTVSPropertyOp26
 70
     1
102
RTVSPropertyOp27
 70
     1
  0
XRECORD
  5
1EC
102
{ACAD_REACTORS
330
1EB
102
}
330
1EB
100
AcDbXrecord
280
     1
102
RTVSPropertyOp0
 70
     1
102
RTVSPropertyOp1
 70
     1
102
RTVSPropertyOp2
 70
     1
102
RTVSPropertyOp3
 70
     1
102
RTVSPropertyOp4
 70
     1
102
RTVSPropertyOp5
 70
     1
102
RTVSPropertyOp6
 70
     1
102
RTVSPropertyOp7
 70
     1
102
RTVSPropertyOp8
 70
     1
102
RTVSPropertyOp9
 70
     1
102
RTVSPropertyOp10
 70
     1
102
RTVSPropertyOp11
 70
     1
102
RTVSPropertyOp12
 70
     1
102
RTVSPropertyOp13
 70
     1
102
RTVSPropertyOp14
 70
     1
102
RTVSPropertyOp15
 70
     1
102
RTVSPropertyOp16
 70
     1
102
RTVSPropertyOp17
 70
     1
102
RTVSPropertyOp18
 70
     1
102
RTVSPropertyOp19
 70
     1
102
RTVSPropertyOp20
 70
     1
102
RTVSPropertyOp21
 70
     1
102
RTVSPropertyOp22
 70
     1
102
RTVSPropertyOp23
 70
     1
102
RTVSPropertyOp24
 70
     1
102
RTVSPropertyOp25
 70
     1
102
RTVSPropertyOp26
 70
     1
102
RTVSPropertyOp27
 70
     1
  0
XRECORD
  5
1EE
102
{ACAD_REACTORS
330
1ED
102
}
330
1ED
100
AcDbXrecord
280
     1
102
RTVSPropertyOp0
 70
     1
102
RTVSPropertyOp1
 70
     1
102
RTVSPropertyOp2
 70
     1
102
RTVSPropertyOp3
 70
     1
102
RTVSPropertyOp4
 70
     1
102
RTVSPropertyOp5
 70
     1
102
RTVSPropertyOp6
 70
     1
102
RTVSPropertyOp7
 70
     1
102
RTVSPropertyOp8
 70
     1
102
RTVSPropertyOp9
 70
     1
102
RTVSPropertyOp10
 70
     1
102
RTVSPropertyOp11
 70
     1
102
RTVSPropertyOp12
 70
     1
102
RTVSPropertyOp13
 70
     1
102
RTVSPropertyOp14
 70
     1
102
RTVSPropertyOp15
 70
     1
102
RTVSPropertyOp16
 70
     1
102
RTVSPropertyOp17
 70
     1
102
RTVSPropertyOp18
 70
     1
102
RTVSPropertyOp19
 70
     1
102
RTVSPropertyOp20
 70
     1
102
RTVSPropertyOp21
 70
     1
102
RTVSPropertyOp22
 70
     1
102
RTVSPropertyOp23
 70
     1
102
RTVSPropertyOp24
 70
     1
102
RTVSPropertyOp25
 70
     1
102
RTVSPropertyOp26
 70
     1
102
RTVSPropertyOp27
 70
     1
  0
XRECORD
  5
202
102
{ACAD_REACTORS
330
201
102
}
330
201
100
AcDbXrecord
280
     1
102
RTVSPropertyOp0
 70
     1
102
RTVSPropertyOp1
 70
     1
102
RTVSPropertyOp2
 70
     1
102
RTVSPropertyOp3
 70
     1
102
RTVSPropertyOp4
 70
     1
102
RTVSPropertyOp5
 70
     1
102
RTVSPropertyOp6
 70
     1
102
RTVSPropertyOp7
 70
     1
102
RTVSPropertyOp8
 70
     1
102
RTVSPropertyOp9
 70
     1
102
RTVSPropertyOp10
 70
     1
102
RTVSPropertyOp11
 70
     1
102
RTVSPropertyOp12
 70
     1
102
RTVSPropertyOp13
 70
     1
102
RTVSPropertyOp14
 70
     1
102
RTVSPropertyOp15
 70
     1
102
RTVSPropertyOp16
 70
     1
102
RTVSPropertyOp17
 70
     1
102
RTVSPropertyOp18
 70
     1
102
RTVSPropertyOp19
 70
     1
102
RTVSPropertyOp20
 70
     1
102
RTVSPropertyOp21
 70
     1
102
RTVSPropertyOp22
 70
     1
102
RTVSPropertyOp23
 70
     1
102
RTVSPropertyOp24
 70
     1
102
RTVSPropertyOp25
 70
     1
102
RTVSPropertyOp26
 70
     1
102
RTVSPropertyOp27
 70
     1
  0
XRECORD
  5
1F8
102
{ACAD_REACTORS
330
1F7
102
}
330
1F7
100
AcDbXrecord
280
     1
102
RTVSPropertyOp0
 70
     1
102
RTVSPropertyOp1
 70
     1
102
RTVSPropertyOp2
 70
     1
102
RTVSPropertyOp3
 70
     1
102
RTVSPropertyOp4
 70
     1
102
RTVSPropertyOp5
 70
     1
102
RTVSPropertyOp6
 70
     1
102
RTVSPropertyOp7
 70
     1
102
RTVSPropertyOp8
 70
     1
102
RTVSPropertyOp9
 70
     1
102
RTVSPropertyOp10
 70
     1
102
RTVSPropertyOp11
 70
     1
102
RTVSPropertyOp12
 70
     1
102
RTVSPropertyOp13
 70
     1
102
RTVSPropertyOp14
 70
     1
102
RTVSPropertyOp15
 70
     1
102
RTVSPropertyOp16
 70
     1
102
RTVSPropertyOp17
 70
     1
102
RTVSPropertyOp18
 70
     1
102
RTVSPropertyOp19
 70
     1
102
RTVSPropertyOp20
 70
     1
102
RTVSPropertyOp21
 70
     1
102
RTVSPropertyOp22
 70
     1
102
RTVSPropertyOp23
 70
     1
102
RTVSPropertyOp24
 70
     1
102
RTVSPropertyOp25
 70
     1
102
RTVSPropertyOp26
 70
     1
102
RTVSPropertyOp27
 70
     1
  0
XRECORD
  5
200
102
{ACAD_REACTORS
330
1FF
102
}
330
1FF
100
AcDbXrecord
280
     1
102
RTVSPropertyOp0
 70
     1
102
RTVSPropertyOp1
 70
     1
102
RTVSPropertyOp2
 70
     1
102
RTVSPropertyOp3
 70
     1
102
RTVSPropertyOp4
 70
     1
102
RTVSPropertyOp5
 70
     1
102
RTVSPropertyOp6
 70
     1
102
RTVSPropertyOp7
 70
     1
102
RTVSPropertyOp8
 70
     1
102
RTVSPropertyOp9
 70
     1
102
RTVSPropertyOp10
 70
     1
102
RTVSPropertyOp11
 70
     1
102
RTVSPropertyOp12
 70
     1
102
RTVSPropertyOp13
 70
     1
102
RTVSPropertyOp14
 70
     1
102
RTVSPropertyOp15
 70
     1
102
RTVSPropertyOp16
 70
     1
102
RTVSPropertyOp17
 70
     1
102
RTVSPropertyOp18
 70
     1
102
RTVSPropertyOp19
 70
     1
102
RTVSPropertyOp20
 70
     1
102
RTVSPropertyOp21
 70
     1
102
RTVSPropertyOp22
 70
     1
102
RTVSPropertyOp23
 70
     1
102
RTVSPropertyOp24
 70
     1
102
RTVSPropertyOp25
 70
     1
102
RTVSPropertyOp26
 70
     1
102
RTVSPropertyOp27
 70
     1
  0
ENDSEC
  0
EOF
