  0
SECTION
  2
HEADER
  9
$ACADVER
  1
AC1015
  9
$ACADMAINTVER
 70
     6
  9
$DWGCODEPAGE
  3
ANSI_932
  9
$INSBASE
 10
0.0
 20
0.0
 30
0.0
  9
$EXTMIN
 10
-855.0
 20
-627.0
 30
0.0
  9
$EXTMAX
 10
817.5
 20
592.5
 30
0.0
  9
$LIMMIN
 10
-297.0
 20
-210.0
  9
$LIMMAX
 10
297.0
 20
210.0
  9
$ORTHOMODE
 70
     0
  9
$REGENMODE
 70
     1
  9
$FILLMODE
 70
     1
  9
$QTEXTMODE
 70
     0
  9
$MIRRTEXT
 70
     1
  9
$LTSCALE
 40
0.25
  9
$ATTMODE
 70
     1
  9
$TEXTSIZE
 40
0.2
  9
$TRACEWID
 40
0.05
  9
$TEXTSTYLE
  7
Standard
  9
$CLAYER
  8
0
  9
$CELTYPE
  6
ByLayer
  9
$CECOLOR
 62
   256
  9
$CELTSCALE
 40
1.0
  9
$DISPSILH
 70
     0
  9
$DIMSCALE
 40
1.0
  9
$DIMASZ
 40
3.000001882570243
  9
$DIMEXO
 40
1.0
  9
$DIMDLI
 40
10.0
  9
$DIMRND
 40
0.0
  9
$DIMDLE
 40
0.0
  9
$DIMEXE
 40
1.0
  9
$DIMTP
 40
0.0
  9
$DIMTM
 40
0.0
  9
$DIMTXT
 40
3.0
  9
$DIMCEN
 40
0.0
  9
$DIMTSZ
 40
0.0
  9
$DIMTOL
 70
     0
  9
$DIMLIM
 70
     0
  9
$DIMTIH
 70
     0
  9
$DIMTOH
 70
     0
  9
$DIMSE1
 70
     0
  9
$DIMSE2
 70
     0
  9
$DIMTAD
 70
     1
  9
$DIMZIN
 70
     8
  9
$DIMBLK
  1

  9
$DIMASO
 70
     1
  9
$DIMSHO
 70
     1
  9
$DIMPOST
  1

  9
$DIMAPOST
  1

  9
$DIMALT
 70
     0
  9
$DIMALTD
 70
     2
  9
$DIMALTF
 40
25.4
  9
$DIMLFAC
 40
1.0
  9
$DIMTOFL
 70
     0
  9
$DIMTVP
 40
0.0
  9
$DIMTIX
 70
     0
  9
$DIMSOXD
 70
     0
  9
$DIMSAH
 70
     0
  9
$DIMBLK1
  1

  9
$DIMBLK2
  1

  9
$DIMSTYLE
  2
Standard
  9
$DIMCLRD
 70
     0
  9
$DIMCLRE
 70
     0
  9
$DIMCLRT
 70
     0
  9
$DIMTFAC
 40
0.65
  9
$DIMGAP
 40
0.09
  9
$DIMJUST
 70
     0
  9
$DIMSD1
 70
     0
  9
$DIMSD2
 70
     0
  9
$DIMTOLJ
 70
     0
  9
$DIMTZIN
 70
     0
  9
$DIMALTZ
 70
     0
  9
$DIMALTTZ
 70
     0
  9
$DIMUPT
 70
     0
  9
$DIMDEC
 70
     2
  9
$DIMTDEC
 70
     2
  9
$DIMALTU
 70
     2
  9
$DIMALTTD
 70
     2
  9
$DIMTXSTY
  7
Standard
  9
$DIMAUNIT
 70
     0
  9
$DIMADEC
 70
     2
  9
$DIMALTRND
 40
0.0
  9
$DIMAZIN
 70
     2
  9
$DIMDSEP
 70
    46
  9
$DIMATFIT
 70
     3
  9
$DIMFRAC
 70
     0
  9
$DIMLDRBLK
  1

  9
$DIMLUNIT
 70
     2
  9
$DIMLWD
 70
    -2
  9
$DIMLWE
 70
    -2
  9
$DIMTMOVE
 70
     0
  9
$LUNITS
 70
     2
  9
$LUPREC
 70
     4
  9
$SKETCHINC
 40
0.1
  9
$FILLETRAD
 40
0.5
  9
$AUNITS
 70
     0
  9
$AUPREC
 70
     0
  9
$MENU
  1
.
  9
$ELEVATION
 40
0.0
  9
$PELEVATION
 40
0.0
  9
$THICKNESS
 40
0.0
  9
$LIMCHECK
 70
     0
  9
$CHAMFERA
 40
0.5
  9
$CHAMFERB
 40
0.5
  9
$CHAMFERC
 40
1.0
  9
$CHAMFERD
 40
0.0
  9
$SKPOLY
 70
     0
  9
$TDCREATE
 40
2455546.693266782
  9
$TDUCREATE
 40
2455546.318266782
  9
$TDUPDATE
 40
2455546.693266794
  9
$TDUUPDATE
 40
2455546.318266794
  9
$TDINDWG
 40
0.0000000116
  9
$TDUSRTIMER
 40
0.0000000116
  9
$USRTIMER
 70
     1
  9
$ANGBASE
 50
0.0
  9
$ANGDIR
 70
     0
  9
$PDMODE
 70
     0
  9
$PDSIZE
 40
1.0
  9
$PLINEWID
 40
0.0
  9
$SPLFRAME
 70
     0
  9
$SPLINETYPE
 70
     6
  9
$SPLINESEGS
 70
     8
  9
$HANDSEED
  5
49E
  9
$SURFTAB1
 70
     6
  9
$SURFTAB2
 70
     6
  9
$SURFTYPE
 70
     6
  9
$SURFU
 70
     6
  9
$SURFV
 70
     6
  9
$UCSBASE
  2

  9
$UCSNAME
  2

  9
$UCSORG
 10
0.0
 20
0.0
 30
0.0
  9
$UCSXDIR
 10
1.0
 20
0.0
 30
0.0
  9
$UCSYDIR
 10
0.0
 20
1.0
 30
0.0
  9
$UCSORTHOREF
  2

  9
$UCSORTHOVIEW
 70
     0
  9
$UCSORGTOP
 10
0.0
 20
0.0
 30
0.0
  9
$UCSORGBOTTOM
 10
0.0
 20
0.0
 30
0.0
  9
$UCSORGLEFT
 10
0.0
 20
0.0
 30
0.0
  9
$UCSORGRIGHT
 10
0.0
 20
0.0
 30
0.0
  9
$UCSORGFRONT
 10
0.0
 20
0.0
 30
0.0
  9
$UCSORGBACK
 10
0.0
 20
0.0
 30
0.0
  9
$PUCSBASE
  2

  9
$PUCSNAME
  2

  9
$PUCSORG
 10
0.0
 20
0.0
 30
0.0
  9
$PUCSXDIR
 10
1.0
 20
0.0
 30
0.0
  9
$PUCSYDIR
 10
0.0
 20
1.0
 30
0.0
  9
$PUCSORTHOREF
  2

  9
$PUCSORTHOVIEW
 70
     0
  9
$PUCSORGTOP
 10
0.0
 20
0.0
 30
0.0
  9
$PUCSORGBOTTOM
 10
0.0
 20
0.0
 30
0.0
  9
$PUCSORGLEFT
 10
0.0
 20
0.0
 30
0.0
  9
$PUCSORGRIGHT
 10
0.0
 20
0.0
 30
0.0
  9
$PUCSORGFRONT
 10
0.0
 20
0.0
 30
0.0
  9
$PUCSORGBACK
 10
0.0
 20
0.0
 30
0.0
  9
$USERI1
 70
     0
  9
$USERI2
 70
     0
  9
$USERI3
 70
     0
  9
$USERI4
 70
     0
  9
$USERI5
 70
     0
  9
$USERR1
 40
0.0
  9
$USERR2
 40
0.0
  9
$USERR3
 40
0.0
  9
$USERR4
 40
0.0
  9
$USERR5
 40
0.0
  9
$WORLDVIEW
 70
     1
  9
$SHADEDGE
 70
     3
  9
$SHADEDIF
 70
    70
  9
$TILEMODE
 70
     1
  9
$MAXACTVP
 70
    64
  9
$PINSBASE
 10
0.0
 20
0.0
 30
0.0
  9
$PLIMCHECK
 70
     0
  9
$PEXTMIN
 10
1.000000000000000E+20
 20
1.000000000000000E+20
 30
1.000000000000000E+20
  9
$PEXTMAX
 10
-1.000000000000000E+20
 20
-1.000000000000000E+20
 30
-1.000000000000000E+20
  9
$PLIMMIN
 10
0.0
 20
0.0
  9
$PLIMMAX
 10
12.0
 20
9.0
  9
$UNITMODE
 70
     0
  9
$VISRETAIN
 70
     0
  9
$PLINEGEN
 70
     1
  9
$PSLTSCALE
 70
     0
  9
$TREEDEPTH
 70
  3020
  9
$CMLSTYLE
  2
Standard
  9
$CMLJUST
 70
     0
  9
$CMLSCALE
 40
1.0
  9
$PROXYGRAPHICS
 70
     0
  9
$MEASUREMENT
 70
     1
  9
$CELWEIGHT
370
    -1
  9
$ENDCAPS
280
     0
  9
$JOINSTYLE
280
     0
  9
$LWDISPLAY
290
     1
  9
$INSUNITS
 70
     4
  9
$HYPERLINKBASE
  1

  9
$STYLESHEET
  1

  9
$XEDIT
290
     1
  9
$CEPSNTYPE
380
     0
  9
$PSTYLEMODE
290
     1
  9
$FINGERPRINTGUID
  2
{B9DC305E-579D-4949-855D-62D339AEA31A}
  9
$VERSIONGUID
  2
{FAEB1C32-E019-11D5-929B-00C0DF256EC4}
  9
$EXTNAMES
290
     1
  9
$PSVPSCALE
 40
0.0
  9
$OLESTARTUP
290
     0
  0
ENDSEC
  0
SECTION
  2
CLASSES
  0
CLASS
  1
ACDBDICTIONARYWDFLT
  2
AcDbDictionaryWithDefault
  3
ObjectDBX Classes
 90
        0
280
     0
281
     0
  0
CLASS
  1
VISUALSTYLE
  2
AcDbVisualStyle
  3
ObjectDBX Classes
 90
     4095
280
     0
281
     0
  0
CLASS
  1
MATERIAL
  2
AcDbMaterial
  3
ObjectDBX Classes
 90
     1153
280
     0
281
     0
  0
CLASS
  1
SCALE
  2
AcDbScale
  3
ObjectDBX Classes
 90
     1153
280
     0
281
     0
  0
CLASS
  1
DICTIONARYVAR
  2
AcDbDictionaryVar
  3
ObjectDBX Classes
 90
        0
280
     0
281
     0
  0
CLASS
  1
ACDBPLACEHOLDER
  2
AcDbPlaceHolder
  3
ObjectDBX Classes
 90
        0
280
     0
281
     0
  0
CLASS
  1
LAYOUT
  2
AcDbLayout
  3
ObjectDBX Classes
 90
        0
280
     0
281
     0
  0
ENDSEC
  0
SECTION
  2
TABLES
  0
TABLE
  2
VPORT
  5
8
330
0
100
AcDbSymbolTable
 70
     1
  0
VPORT
  5
29
330
8
100
AcDbSymbolTableRecord
100
AcDbViewportTableRecord
  2
*Active
 70
     0
 10
0.0
 20
0.0
 11
1.0
 21
1.0
 12
-18.5
 22
-24.15412305267063
 13
0.0
 23
0.0
 14
0.5
 24
0.5
 15
0.5
 25
0.5
 16
0.0
 26
0.0
 36
1.0
 17
0.0
 27
0.0
 37
0.0
 40
399.5255889725519
 41
1.422036574581039
 42
50.0
 43
0.0
 44
0.0
 50
0.0
 51
0.0
 71
     0
 72
  1000
 73
     1
 74
     1
 75
     0
 76
     0
 77
     0
 78
     0
281
     0
 65
     1
110
0.0
120
0.0
130
0.0
111
1.0
121
0.0
131
0.0
112
0.0
122
1.0
132
0.0
 79
     0
146
0.0
  0
ENDTAB
  0
TABLE
  2
LTYPE
  5
5
330
0
100
AcDbSymbolTable
 70
    53
  0
LTYPE
  5
14
330
5
100
AcDbSymbolTableRecord
100
AcDbLinetypeTableRecord
  2
ByBlock
 70
     0
  3

 72
    65
 73
     0
 40
0.0
  0
LTYPE
  5
15
330
5
100
AcDbSymbolTableRecord
100
AcDbLinetypeTableRecord
  2
ByLayer
 70
     0
  3

 72
    65
 73
     0
 40
0.0
  0
LTYPE
  5
16
330
5
100
AcDbSymbolTableRecord
100
AcDbLinetypeTableRecord
  2
Continuous
 70
     0
  3
Solid line
 72
    65
 73
     0
 40
0.0
  0
LTYPE
  5
40
330
5
100
AcDbSymbolTableRecord
100
AcDbLinetypeTableRecord
  2
HIDDENX2
 70
     0
  3
Hidden (2x) ____ ____ ____ ____ ____ ____ ____ 
 72
    65
 73
     2
 40
19.05
 49
12.7
 74
     0
 49
-6.35
 74
     0
  0
LTYPE
  5
41
330
5
100
AcDbSymbolTableRecord
100
AcDbLinetypeTableRecord
  2
HIDDEN
 70
     0
  3
Hidden __ __ __ __ __ __ __ __ __ __ __ __ __ __
 72
    65
 73
     2
 40
9.524999999999999
 49
6.35
 74
     0
 49
-3.175
 74
     0
  0
LTYPE
  5
42
330
5
100
AcDbSymbolTableRecord
100
AcDbLinetypeTableRecord
  2
HIDDEN2
 70
     0
  3
Hidden (.5x) _ _ _ _ _ _ _ _ _ _ _ _ _ _ _ _ _ 
 72
    65
 73
     2
 40
4.762499999999999
 49
3.175
 74
     0
 49
-1.5875
 74
     0
  0
LTYPE
  5
43
330
5
100
AcDbSymbolTableRecord
100
AcDbLinetypeTableRecord
  2
DASHED
 70
     0
  3
Dashed __ __ __ __ __ __ __ __ __ __ __ __ __ _
 72
    65
 73
     2
 40
19.05
 49
12.7
 74
     0
 49
-6.35
 74
     0
  0
LTYPE
  5
44
330
5
100
AcDbSymbolTableRecord
100
AcDbLinetypeTableRecord
  2
DASHED2
 70
     0
  3
Dashed (.5x) _ _ _ _ _ _ _ _ _ _ _ _ _ _ _ _ _ 
 72
    65
 73
     2
 40
9.524999999999999
 49
6.35
 74
     0
 49
-3.175
 74
     0
  0
LTYPE
  5
45
330
5
100
AcDbSymbolTableRecord
100
AcDbLinetypeTableRecord
  2
DASHEDX2
 70
     0
  3
Dashed (2x) ____  ____  ____  ____  ____  ___
 72
    65
 73
     2
 40
38.09999999999999
 49
25.4
 74
     0
 49
-12.7
 74
     0
  0
LTYPE
  5
46
330
5
100
AcDbSymbolTableRecord
100
AcDbLinetypeTableRecord
  2
DOTX2
 70
     0
  3
Dot (2x) .  .  .  .  .  .  .  .  .  .  .  .  .  .
 72
    65
 73
     2
 40
12.7
 49
0.0
 74
     0
 49
-12.7
 74
     0
  0
LTYPE
  5
47
330
5
100
AcDbSymbolTableRecord
100
AcDbLinetypeTableRecord
  2
DOT
 70
     0
  3
Dot . . . . . . . . . . . . . . . . . . . . . . . .
 72
    65
 73
     2
 40
6.35
 49
0.0
 74
     0
 49
-6.35
 74
     0
  0
LTYPE
  5
48
330
5
100
AcDbSymbolTableRecord
100
AcDbLinetypeTableRecord
  2
DOT2
 70
     0
  3
Dot (.5x) ........................................
 72
    65
 73
     2
 40
3.175
 49
0.0
 74
     0
 49
-3.175
 74
     0
  0
LTYPE
  5
49
330
5
100
AcDbSymbolTableRecord
100
AcDbLinetypeTableRecord
  2
CENTERX2
 70
     0
  3
Center (2x) ________  __  ________  __  _____
 72
    65
 73
     4
 40
101.6
 49
63.5
 74
     0
 49
-12.7
 74
     0
 49
12.7
 74
     0
 49
-12.7
 74
     0
  0
LTYPE
  5
4A
330
5
100
AcDbSymbolTableRecord
100
AcDbLinetypeTableRecord
  2
CENTER
 70
     0
  3
Center ____ _ ____ _ ____ _ ____ _ ____ _ ____
 72
    65
 73
     4
 40
50.8
 49
31.75
 74
     0
 49
-6.35
 74
     0
 49
6.35
 74
     0
 49
-6.35
 74
     0
  0
LTYPE
  5
4B
330
5
100
AcDbSymbolTableRecord
100
AcDbLinetypeTableRecord
  2
CENTER2
 70
     0
  3
Center (.5x) ___ _ ___ _ ___ _ ___ _ ___ _ ___
 72
    65
 73
     4
 40
28.575
 49
19.05
 74
     0
 49
-3.175
 74
     0
 49
3.175
 74
     0
 49
-3.175
 74
     0
  0
LTYPE
  5
4C
330
5
100
AcDbSymbolTableRecord
100
AcDbLinetypeTableRecord
  2
DASHDOTX2
 70
     0
  3
Dash dot (2x) ____  .  ____  .  ____  .  ___
 72
    65
 73
     4
 40
50.8
 49
25.4
 74
     0
 49
-12.7
 74
     0
 49
0.0
 74
     0
 49
-12.7
 74
     0
  0
LTYPE
  5
4D
330
5
100
AcDbSymbolTableRecord
100
AcDbLinetypeTableRecord
  2
DASHDOT
 70
     0
  3
Dash dot __ . __ . __ . __ . __ . __ . __ . __
 72
    65
 73
     4
 40
25.4
 49
12.7
 74
     0
 49
-6.35
 74
     0
 49
0.0
 74
     0
 49
-6.35
 74
     0
  0
LTYPE
  5
4E
330
5
100
AcDbSymbolTableRecord
100
AcDbLinetypeTableRecord
  2
DASHDOT2
 70
     0
  3
Dash dot (.5x) _._._._._._._._._._._._._._._.
 72
    65
 73
     4
 40
12.7
 49
6.35
 74
     0
 49
-3.175
 74
     0
 49
0.0
 74
     0
 49
-3.175
 74
     0
  0
LTYPE
  5
4F
330
5
100
AcDbSymbolTableRecord
100
AcDbLinetypeTableRecord
  2
DIVIDEX2
 70
     0
  3
Divide (2x) ________  .  .  ________  .  .  _
 72
    65
 73
     6
 40
63.5
 49
25.4
 74
     0
 49
-12.7
 74
     0
 49
0.0
 74
     0
 49
-12.7
 74
     0
 49
0.0
 74
     0
 49
-12.7
 74
     0
  0
LTYPE
  5
50
330
5
100
AcDbSymbolTableRecord
100
AcDbLinetypeTableRecord
  2
DIVIDE
 70
     0
  3
Divide ____ . . ____ . . ____ . . ____ . . ____
 72
    65
 73
     6
 40
31.75
 49
12.7
 74
     0
 49
-6.35
 74
     0
 49
0.0
 74
     0
 49
-6.35
 74
     0
 49
0.0
 74
     0
 49
-6.35
 74
     0
  0
LTYPE
  5
51
330
5
100
AcDbSymbolTableRecord
100
AcDbLinetypeTableRecord
  2
DIVIDE2
 70
     0
  3
Divide (.5x) __..__..__..__..__..__..__..__.._
 72
    65
 73
     6
 40
15.875
 49
6.35
 74
     0
 49
-3.175
 74
     0
 49
0.0
 74
     0
 49
-3.175
 74
     0
 49
0.0
 74
     0
 49
-3.175
 74
     0
  0
LTYPE
  5
52
330
5
100
AcDbSymbolTableRecord
100
AcDbLinetypeTableRecord
  2
BORDERX2
 70
     0
  3
Border (2x) ____  ____  .  ____  ____  .  ___
 72
    65
 73
     6
 40
88.89999999999999
 49
25.4
 74
     0
 49
-12.7
 74
     0
 49
25.4
 74
     0
 49
-12.7
 74
     0
 49
0.0
 74
     0
 49
-12.7
 74
     0
  0
LTYPE
  5
53
330
5
100
AcDbSymbolTableRecord
100
AcDbLinetypeTableRecord
  2
BORDER
 70
     0
  3
Border __ __ . __ __ . __ __ . __ __ . __ __ .
 72
    65
 73
     6
 40
44.45
 49
12.7
 74
     0
 49
-6.35
 74
     0
 49
12.7
 74
     0
 49
-6.35
 74
     0
 49
0.0
 74
     0
 49
-6.35
 74
     0
  0
LTYPE
  5
54
330
5
100
AcDbSymbolTableRecord
100
AcDbLinetypeTableRecord
  2
BORDER2
 70
     0
  3
Border (.5x) __.__.__.__.__.__.__.__.__.__.__.
 72
    65
 73
     6
 40
22.225
 49
6.35
 74
     0
 49
-3.175
 74
     0
 49
6.35
 74
     0
 49
-3.175
 74
     0
 49
0.0
 74
     0
 49
-3.175
 74
     0
  0
LTYPE
  5
55
330
5
100
AcDbSymbolTableRecord
100
AcDbLinetypeTableRecord
  2
PHANTOMX2
 70
     0
  3
Phantom (2x) ____________    ____    ____   _
 72
    65
 73
     6
 40
127.0
 49
63.5
 74
     0
 49
-12.7
 74
     0
 49
12.7
 74
     0
 49
-12.7
 74
     0
 49
12.7
 74
     0
 49
-12.7
 74
     0
  0
LTYPE
  5
56
330
5
100
AcDbSymbolTableRecord
100
AcDbLinetypeTableRecord
  2
PHANTOM
 70
     0
  3
Phantom ______  __  __  ______  __  __  ______ 
 72
    65
 73
     6
 40
63.5
 49
31.75
 74
     0
 49
-6.35
 74
     0
 49
6.35
 74
     0
 49
-6.35
 74
     0
 49
6.35
 74
     0
 49
-6.35
 74
     0
  0
LTYPE
  5
57
330
5
100
AcDbSymbolTableRecord
100
AcDbLinetypeTableRecord
  2
PHANTOM2
 70
     0
  3
Phantom (.5x) ___ _ _ ___ _ _ ___ _ _ ___ _ _
 72
    65
 73
     6
 40
31.75
 49
15.875
 74
     0
 49
-3.175
 74
     0
 49
3.175
 74
     0
 49
-3.175
 74
     0
 49
3.175
 74
     0
 49
-3.175
 74
     0
  0
LTYPE
  5
58
330
5
100
AcDbSymbolTableRecord
100
AcDbLinetypeTableRecord
  2
ACAD_ISO06W100
 70
     0
  3
ISO long-dash triple-dot ____ ... ____ ... ____
 72
    65
 73
     8
 40
36.0
 49
24.0
 74
     0
 49
-3.0
 74
     0
 49
0.0
 74
     0
 49
-3.0
 74
     0
 49
0.0
 74
     0
 49
-3.0
 74
     0
 49
0.0
 74
     0
 49
-3.0
 74
     0
  0
LTYPE
  5
59
330
5
100
AcDbSymbolTableRecord
100
AcDbLinetypeTableRecord
  2
ACAD_ISO13W100
 70
     0
  3
ISO double-dash double-dot __ __ . . __ __ . . _
 72
    65
 73
     8
 40
36.0
 49
12.0
 74
     0
 49
-3.0
 74
     0
 49
12.0
 74
     0
 49
-3.0
 74
     0
 49
0.0
 74
     0
 49
-3.0
 74
     0
 49
0.0
 74
     0
 49
-3.0
 74
     0
  0
LTYPE
  5
5A
330
5
100
AcDbSymbolTableRecord
100
AcDbLinetypeTableRecord
  2
ACAD_ISO14W100
 70
     0
  3
ISO dash triple-dot __ . . . __ . . . __ . . . _
 72
    65
 73
     8
 40
24.0
 49
12.0
 74
     0
 49
-3.0
 74
     0
 49
0.0
 74
     0
 49
-3.0
 74
     0
 49
0.0
 74
     0
 49
-3.0
 74
     0
 49
0.0
 74
     0
 49
-3.0
 74
     0
  0
LTYPE
  5
5B
330
5
100
AcDbSymbolTableRecord
100
AcDbLinetypeTableRecord
  2
ACAD_ISO02W100
 70
     0
  3
ISO dash __ __ __ __ __ __ __ __ __ __ __ __ __
 72
    65
 73
     2
 40
15.0
 49
12.0
 74
     0
 49
-3.0
 74
     0
  0
LTYPE
  5
5C
330
5
100
AcDbSymbolTableRecord
100
AcDbLinetypeTableRecord
  2
ACAD_ISO03W100
 70
     0
  3
ISO dash space __    __    __    __    __    __
 72
    65
 73
     2
 40
30.0
 49
12.0
 74
     0
 49
-18.0
 74
     0
  0
LTYPE
  5
5D
330
5
100
AcDbSymbolTableRecord
100
AcDbLinetypeTableRecord
  2
ACAD_ISO04W100
 70
     0
  3
ISO long-dash dot ____ . ____ . ____ . ____ . _
 72
    65
 73
     4
 40
30.0
 49
24.0
 74
     0
 49
-3.0
 74
     0
 49
0.0
 74
     0
 49
-3.0
 74
     0
  0
LTYPE
  5
5E
330
5
100
AcDbSymbolTableRecord
100
AcDbLinetypeTableRecord
  2
ACAD_ISO05W100
 70
     0
  3
ISO long-dash double-dot ____ .. ____ .. ____ . 
 72
    65
 73
     6
 40
33.0
 49
24.0
 74
     0
 49
-3.0
 74
     0
 49
0.0
 74
     0
 49
-3.0
 74
     0
 49
0.0
 74
     0
 49
-3.0
 74
     0
  0
LTYPE
  5
5F
330
5
100
AcDbSymbolTableRecord
100
AcDbLinetypeTableRecord
  2
ACAD_ISO07W100
 70
     0
  3
ISO dot . . . . . . . . . . . . . . . . . . . . 
 72
    65
 73
     2
 40
3.0
 49
0.0
 74
     0
 49
-3.0
 74
     0
  0
LTYPE
  5
60
330
5
100
AcDbSymbolTableRecord
100
AcDbLinetypeTableRecord
  2
ACAD_ISO08W100
 70
     0
  3
ISO long-dash short-dash ____ __ ____ __ ____ _
 72
    65
 73
     4
 40
36.0
 49
24.0
 74
     0
 49
-3.0
 74
     0
 49
6.0
 74
     0
 49
-3.0
 74
     0
  0
LTYPE
  5
61
330
5
100
AcDbSymbolTableRecord
100
AcDbLinetypeTableRecord
  2
ACAD_ISO09W100
 70
     0
  3
ISO long-dash double-short-dash ____ __ __ ____
 72
    65
 73
     6
 40
45.0
 49
24.0
 74
     0
 49
-3.0
 74
     0
 49
6.0
 74
     0
 49
-3.0
 74
     0
 49
6.0
 74
     0
 49
-3.0
 74
     0
  0
LTYPE
  5
62
330
5
100
AcDbSymbolTableRecord
100
AcDbLinetypeTableRecord
  2
ACAD_ISO10W100
 70
     0
  3
ISO dash dot __ . __ . __ . __ . __ . __ . __ . 
 72
    65
 73
     4
 40
18.0
 49
12.0
 74
     0
 49
-3.0
 74
     0
 49
0.0
 74
     0
 49
-3.0
 74
     0
  0
LTYPE
  5
63
330
5
100
AcDbSymbolTableRecord
100
AcDbLinetypeTableRecord
  2
ACAD_ISO11W100
 70
     0
  3
ISO double-dash dot __ __ . __ __ . __ __ . __ _
 72
    65
 73
     6
 40
33.0
 49
12.0
 74
     0
 49
-3.0
 74
     0
 49
12.0
 74
     0
 49
-3.0
 74
     0
 49
0.0
 74
     0
 49
-3.0
 74
     0
  0
LTYPE
  5
64
330
5
100
AcDbSymbolTableRecord
100
AcDbLinetypeTableRecord
  2
ACAD_ISO12W100
 70
     0
  3
ISO dash double-dot __ . . __ . . __ . . __ . . 
 72
    65
 73
     6
 40
21.0
 49
12.0
 74
     0
 49
-3.0
 74
     0
 49
0.0
 74
     0
 49
-3.0
 74
     0
 49
0.0
 74
     0
 49
-3.0
 74
     0
  0
LTYPE
  5
65
330
5
100
AcDbSymbolTableRecord
100
AcDbLinetypeTableRecord
  2
ACAD_ISO15W100
 70
     0
  3
ISO double-dash triple-dot __ __ . . . __ __ . .
 72
    65
 73
    10
 40
39.0
 49
12.0
 74
     0
 49
-3.0
 74
     0
 49
12.0
 74
     0
 49
-3.0
 74
     0
 49
0.0
 74
     0
 49
-3.0
 74
     0
 49
0.0
 74
     0
 49
-3.0
 74
     0
 49
0.0
 74
     0
 49
-3.0
 74
     0
  0
LTYPE
  5
66
330
5
100
AcDbSymbolTableRecord
100
AcDbLinetypeTableRecord
  2
JIS_02_0.7
 70
     0
  3
HIDDEN0.75 _ _ _ _ _ _ _ _ _ _ _ _ _ _ _ _ _ 
 72
    65
 73
     2
 40
1.35
 49
0.75
 74
     0
 49
-0.6
 74
     0
  0
LTYPE
  5
67
330
5
100
AcDbSymbolTableRecord
100
AcDbLinetypeTableRecord
  2
JIS_02_1.0
 70
     0
  3
HIDDEN01 _ _ _ _ _ _ _ _ _ _ _ _ _ _ _ _ _ 
 72
    65
 73
     2
 40
2.0
 49
1.0
 74
     0
 49
-1.0
 74
     0
  0
LTYPE
  5
68
330
5
100
AcDbSymbolTableRecord
100
AcDbLinetypeTableRecord
  2
JIS_02_1.2
 70
     0
  3
HIDDEN01.25  _ _ _ _ _ _ _ _ _ _ _ _ _ _ _ _ _ 
 72
    65
 73
     2
 40
2.5
 49
1.25
 74
     0
 49
-1.25
 74
     0
  0
LTYPE
  5
69
330
5
100
AcDbSymbolTableRecord
100
AcDbLinetypeTableRecord
  2
JIS_02_2.0
 70
     0
  3
HIDDEN02 __ __ __ __ __ __ __ __ __ __ __ 
 72
    65
 73
     2
 40
3.0
 49
2.0
 74
     0
 49
-1.0
 74
     0
  0
LTYPE
  5
6A
330
5
100
AcDbSymbolTableRecord
100
AcDbLinetypeTableRecord
  2
JIS_02_4.0
 70
     0
  3
HIDDEN04 ____ ____ ____ ____ ____ ____ ____ 
 72
    65
 73
     2
 40
5.5
 49
4.0
 74
     0
 49
-1.5
 74
     0
  0
LTYPE
  5
6B
330
5
100
AcDbSymbolTableRecord
100
AcDbLinetypeTableRecord
  2
JIS_08_11
 70
     0
  3
1SASEN11 ___ _ ___ _ ___ _ ___ _ ___ _ ___
 72
    65
 73
     4
 40
12.8
 49
11.0
 74
     0
 49
-0.6
 74
     0
 49
0.6
 74
     0
 49
-0.6
 74
     0
  0
LTYPE
  5
6C
330
5
100
AcDbSymbolTableRecord
100
AcDbLinetypeTableRecord
  2
JIS_08_15
 70
     0
  3
1SASEN15 ____ _ ____ _ ____ _ ____ _ ____ 
 72
    65
 73
     4
 40
17.25
 49
15.0
 74
     0
 49
-0.75
 74
     0
 49
0.75
 74
     0
 49
-0.75
 74
     0
  0
LTYPE
  5
6D
330
5
100
AcDbSymbolTableRecord
100
AcDbLinetypeTableRecord
  2
JIS_08_25
 70
     0
  3
1SASEN25 ________  __  ________  __  _____
 72
    65
 73
     4
 40
28.0
 49
25.0
 74
     0
 49
-1.125
 74
     0
 49
0.75
 74
     0
 49
-1.125
 74
     0
  0
LTYPE
  5
6E
330
5
100
AcDbSymbolTableRecord
100
AcDbLinetypeTableRecord
  2
JIS_08_37
 70
     0
  3
1SASEN37 ________  __  ________  __  _____
 72
    65
 73
     4
 40
40.5
 49
37.5
 74
     0
 49
-1.125
 74
     0
 49
0.75
 74
     0
 49
-1.125
 74
     0
  0
LTYPE
  5
6F
330
5
100
AcDbSymbolTableRecord
100
AcDbLinetypeTableRecord
  2
JIS_08_50
 70
     0
  3
1SASEN50 _______________  __  ____________
 72
    65
 73
     4
 40
53.0
 49
50.0
 74
     0
 49
-1.125
 74
     0
 49
0.75
 74
     0
 49
-1.125
 74
     0
  0
LTYPE
  5
70
330
5
100
AcDbSymbolTableRecord
100
AcDbLinetypeTableRecord
  2
JIS_09_08
 70
     0
  3
2SASEN8 __ _ _ __ _ _ __ _ _ __ _ _ __ _ _ 
 72
    65
 73
     6
 40
10.75
 49
8.0
 74
     0
 49
-0.55
 74
     0
 49
0.55
 74
     0
 49
-0.55
 74
     0
 49
0.55
 74
     0
 49
-0.55
 74
     0
  0
LTYPE
  5
71
330
5
100
AcDbSymbolTableRecord
100
AcDbLinetypeTableRecord
  2
JIS_09_15
 70
     0
  3
2SASEN15 ___ _ _ ___ _ _ ___ _ _ ___ _ _ ___ 
 72
    65
 73
     6
 40
18.9
 49
15.0
 74
     0
 49
-0.9
 74
     0
 49
0.6
 74
     0
 49
-0.9
 74
     0
 49
0.6
 74
     0
 49
-0.9
 74
     0
  0
LTYPE
  5
72
330
5
100
AcDbSymbolTableRecord
100
AcDbLinetypeTableRecord
  2
JIS_09_29
 70
     0
  3
2SASEN29 ______　__  __  ______　__  __  ___
 72
    65
 73
     6
 40
34.0
 49
29.0
 74
     0
 49
-1.2
 74
     0
 49
0.7
 74
     0
 49
-1.2
 74
     0
 49
0.7
 74
     0
 49
-1.2
 74
     0
  0
LTYPE
  5
73
330
5
100
AcDbSymbolTableRecord
100
AcDbLinetypeTableRecord
  2
JIS_09_50
 70
     0
  3
2SASEN50 ____________　__  __  _____________
 72
    65
 73
     6
 40
55.0
 49
50.0
 74
     0
 49
-1.2
 74
     0
 49
0.7
 74
     0
 49
-1.2
 74
     0
 49
0.7
 74
     0
 49
-1.2
 74
     0
  0
ENDTAB
  0
TABLE
  2
LAYER
  5
2
330
0
100
AcDbSymbolTable
 70
     2
  0
LAYER
  5
10
330
2
100
AcDbSymbolTableRecord
100
AcDbLayerTableRecord
  2
0
 70
     0
 62
     7
  6
Continuous
370
    -3
390
F
  0
LAYER
  5
74
330
2
100
AcDbSymbolTableRecord
100
AcDbLayerTableRecord
  2
Layer0016
 70
     0
 62
     7
  6
Continuous
370
    -3
390
F
  0
ENDTAB
  0
TABLE
  2
STYLE
  5
3
330
0
100
AcDbSymbolTable
 70
     2
  0
STYLE
  5
11
330
3
100
AcDbSymbolTableRecord
100
AcDbTextStyleTableRecord
  2
Standard
 70
     0
 40
0.0
 41
1.0
 50
0.0
 71
     0
 42
0.2
  3
txt.shx
  4
bigfont.shx
  0
STYLE
  5
1FD
330
3
100
AcDbSymbolTableRecord
100
AcDbTextStyleTableRecord
  2
dcStyle0
 70
     0
 40
0.0
 41
0.7999999999999987
 50
0.0
 71
     0
 42
0.2
  3
HGRSMP.TTF
  4

1001
ACAD
1000
HG丸ｺﾞｼｯｸM-PRO
1071
    32802
  0
ENDTAB
  0
TABLE
  2
VIEW
  5
6
330
0
100
AcDbSymbolTable
 70
     0
  0
ENDTAB
  0
TABLE
  2
UCS
  5
7
330
0
100
AcDbSymbolTable
 70
     0
  0
ENDTAB
  0
TABLE
  2
APPID
  5
9
330
0
100
AcDbSymbolTable
 70
     3
  0
APPID
  5
12
330
9
100
AcDbSymbolTableRecord
100
AcDbRegAppTableRecord
  2
ACAD
 70
     0
  0
APPID
  5
3F
330
9
100
AcDbSymbolTableRecord
100
AcDbRegAppTableRecord
  2
DaFusionOut
 70
     0
  0
APPID
  5
477
330
9
100
AcDbSymbolTableRecord
100
AcDbRegAppTableRecord
  2
ACAD_DSTYLE_DIMARC_LENGTH_SYMBOL
 70
     0
  0
ENDTAB
  0
TABLE
  2
DIMSTYLE
  5
A
330
0
100
AcDbSymbolTable
 70
     2
100
AcDbDimStyleTable
  0
DIMSTYLE
105
27
330
A
100
AcDbSymbolTableRecord
100
AcDbDimStyleTableRecord
  2
Standard
 70
     0
340
11
  0
DIMSTYLE
105
446
102
{ACAD_REACTORS
330
445
330
447
330
448
330
449
330
44A
330
44B
330
44C
330
44D
330
44E
330
44F
330
450
330
451
330
452
330
453
330
454
330
455
330
456
330
457
330
458
330
459
330
45A
330
45B
102
}
330
A
100
AcDbSymbolTableRecord
100
AcDbDimStyleTableRecord
  2
dc_Rotated
 70
     0
 41
3.000001882570243
 42
1.0
 44
1.0
 73
     0
 74
     0
 77
     3
 78
     8
 79
     2
140
3.0
147
1.0
172
     1
173
     1
176
     4
177
     4
178
     2
271
     2
274
     4
283
     0
284
     8
288
     1
340
1FD
343
1D1
344
1D1
1001
ACAD_DSTYLE_DIMARC_LENGTH_SYMBOL
1070
   379
1070
     1
  0
ENDTAB
  0
TABLE
  2
BLOCK_RECORD
  5
1
330
0
100
AcDbSymbolTable
 70
    39
  0
BLOCK_RECORD
  5
1F
330
1
100
AcDbSymbolTableRecord
100
AcDbBlockTableRecord
  2
*Model_Space
340
22
  0
BLOCK_RECORD
  5
1B
330
1
100
AcDbSymbolTableRecord
100
AcDbBlockTableRecord
  2
*Paper_Space
340
1E
  0
BLOCK_RECORD
  5
23
330
1
100
AcDbSymbolTableRecord
100
AcDbBlockTableRecord
  2
*Paper_Space0
340
26
  0
BLOCK_RECORD
  5
76
330
1
100
AcDbSymbolTableRecord
100
AcDbBlockTableRecord
  2
DC_FILL_GROUP_1
340
0
102
{BLKREFS
331
438
102
}
  0
BLOCK_RECORD
  5
79
330
1
100
AcDbSymbolTableRecord
100
AcDbBlockTableRecord
  2
DC_FILL_GROUP_2
340
0
102
{BLKREFS
331
439
102
}
  0
BLOCK_RECORD
  5
7C
330
1
100
AcDbSymbolTableRecord
100
AcDbBlockTableRecord
  2
DC_FILL_GROUP_3
340
0
102
{BLKREFS
331
43A
102
}
  0
BLOCK_RECORD
  5
7F
330
1
100
AcDbSymbolTableRecord
100
AcDbBlockTableRecord
  2
DC_FILL_GROUP_4
340
0
102
{BLKREFS
331
43B
102
}
  0
BLOCK_RECORD
  5
82
330
1
100
AcDbSymbolTableRecord
100
AcDbBlockTableRecord
  2
DC_FILL_GROUP_5
340
0
102
{BLKREFS
331
43C
102
}
  0
BLOCK_RECORD
  5
85
330
1
100
AcDbSymbolTableRecord
100
AcDbBlockTableRecord
  2
DC_FILL_GROUP_6
340
0
102
{BLKREFS
331
43D
102
}
  0
BLOCK_RECORD
  5
88
330
1
100
AcDbSymbolTableRecord
100
AcDbBlockTableRecord
  2
DC_FILL_GROUP_7
340
0
102
{BLKREFS
331
43E
102
}
  0
BLOCK_RECORD
  5
8B
330
1
100
AcDbSymbolTableRecord
100
AcDbBlockTableRecord
  2
DC_FILL_GROUP_8
340
0
102
{BLKREFS
331
43F
102
}
  0
BLOCK_RECORD
  5
8E
330
1
100
AcDbSymbolTableRecord
100
AcDbBlockTableRecord
  2
DC_FILL_GROUP_9
340
0
102
{BLKREFS
331
440
102
}
  0
BLOCK_RECORD
  5
91
330
1
100
AcDbSymbolTableRecord
100
AcDbBlockTableRecord
  2
DC_FILL_GROUP_10
340
0
102
{BLKREFS
331
441
102
}
  0
BLOCK_RECORD
  5
94
330
1
100
AcDbSymbolTableRecord
100
AcDbBlockTableRecord
  2
DC_FILL_GROUP_11
340
0
102
{BLKREFS
331
442
102
}
  0
BLOCK_RECORD
  5
97
330
1
100
AcDbSymbolTableRecord
100
AcDbBlockTableRecord
  2
DC_FILL_GROUP_12
340
0
102
{BLKREFS
331
443
102
}
  0
BLOCK_RECORD
  5
9A
330
1
100
AcDbSymbolTableRecord
100
AcDbBlockTableRecord
  2
DC_FILL_GROUP_13
340
0
102
{BLKREFS
331
444
102
}
  0
BLOCK_RECORD
  5
9D
330
1
100
AcDbSymbolTableRecord
100
AcDbBlockTableRecord
  2
*D14
340
0
  0
BLOCK_RECORD
  5
A0
330
1
100
AcDbSymbolTableRecord
100
AcDbBlockTableRecord
  2
*D15
340
0
  0
BLOCK_RECORD
  5
A3
330
1
100
AcDbSymbolTableRecord
100
AcDbBlockTableRecord
  2
*D16
340
0
  0
BLOCK_RECORD
  5
A6
330
1
100
AcDbSymbolTableRecord
100
AcDbBlockTableRecord
  2
*D17
340
0
  0
BLOCK_RECORD
  5
A9
330
1
100
AcDbSymbolTableRecord
100
AcDbBlockTableRecord
  2
*D18
340
0
  0
BLOCK_RECORD
  5
AC
330
1
100
AcDbSymbolTableRecord
100
AcDbBlockTableRecord
  2
*D19
340
0
  0
BLOCK_RECORD
  5
AF
330
1
100
AcDbSymbolTableRecord
100
AcDbBlockTableRecord
  2
*D20
340
0
  0
BLOCK_RECORD
  5
B2
330
1
100
AcDbSymbolTableRecord
100
AcDbBlockTableRecord
  2
*D21
340
0
  0
BLOCK_RECORD
  5
B5
330
1
100
AcDbSymbolTableRecord
100
AcDbBlockTableRecord
  2
*D22
340
0
  0
BLOCK_RECORD
  5
B8
330
1
100
AcDbSymbolTableRecord
100
AcDbBlockTableRecord
  2
*D23
340
0
  0
BLOCK_RECORD
  5
BB
330
1
100
AcDbSymbolTableRecord
100
AcDbBlockTableRecord
  2
*D24
340
0
  0
BLOCK_RECORD
  5
BE
330
1
100
AcDbSymbolTableRecord
100
AcDbBlockTableRecord
  2
*D25
340
0
  0
BLOCK_RECORD
  5
C1
330
1
100
AcDbSymbolTableRecord
100
AcDbBlockTableRecord
  2
*D26
340
0
  0
BLOCK_RECORD
  5
C4
330
1
100
AcDbSymbolTableRecord
100
AcDbBlockTableRecord
  2
*D27
340
0
  0
BLOCK_RECORD
  5
C7
330
1
100
AcDbSymbolTableRecord
100
AcDbBlockTableRecord
  2
*D28
340
0
  0
BLOCK_RECORD
  5
CA
330
1
100
AcDbSymbolTableRecord
100
AcDbBlockTableRecord
  2
*D29
340
0
  0
BLOCK_RECORD
  5
CD
330
1
100
AcDbSymbolTableRecord
100
AcDbBlockTableRecord
  2
*D30
340
0
  0
BLOCK_RECORD
  5
D0
330
1
100
AcDbSymbolTableRecord
100
AcDbBlockTableRecord
  2
*D31
340
0
  0
BLOCK_RECORD
  5
D3
330
1
100
AcDbSymbolTableRecord
100
AcDbBlockTableRecord
  2
DC_GROUP_KL22291_14
340
0
102
{BLKREFS
331
469
102
}
  0
BLOCK_RECORD
  5
D6
330
1
100
AcDbSymbolTableRecord
100
AcDbBlockTableRecord
  2
*D33
340
0
  0
BLOCK_RECORD
  5
D9
330
1
100
AcDbSymbolTableRecord
100
AcDbBlockTableRecord
  2
*D34
340
0
  0
BLOCK_RECORD
  5
DC
330
1
100
AcDbSymbolTableRecord
100
AcDbBlockTableRecord
  2
*D35
340
0
  0
BLOCK_RECORD
  5
DF
330
1
100
AcDbSymbolTableRecord
100
AcDbBlockTableRecord
  2
*D36
340
0
  0
BLOCK_RECORD
  5
E2
330
1
100
AcDbSymbolTableRecord
100
AcDbBlockTableRecord
  2
DC_GROUP_KL22291_15
340
0
102
{BLKREFS
331
470
102
}
  0
BLOCK_RECORD
  5
1D1
330
1
100
AcDbSymbolTableRecord
100
AcDbBlockTableRecord
  2
_OPEN30
340
0
102
{BLKREFS
331
1D7
331
1FA
331
200
331
201
331
208
331
209
331
20E
331
20F
331
214
331
215
331
218
331
219
331
21E
331
21F
331
226
331
227
331
22C
331
22D
331
232
331
233
331
238
331
239
331
23C
331
23D
331
242
331
243
331
24A
331
24B
331
251
331
254
331
255
331
25A
331
25B
331
263
331
268
331
269
331
26E
331
26F
331
274
331
275
331
27A
331
27B
102
}
  0
ENDTAB
  0
ENDSEC
  0
SECTION
  2
BLOCKS
  0
BLOCK
  5
20
330
1F
100
AcDbEntity
  8
0
100
AcDbBlockBegin
  2
*Model_Space
 70
     0
 10
0.0
 20
0.0
 30
0.0
  3
*Model_Space
  1

  0
ENDBLK
  5
21
330
1F
100
AcDbEntity
  8
0
100
AcDbBlockEnd
  0
BLOCK
  5
1C
330
1B
100
AcDbEntity
 67
     1
  8
0
100
AcDbBlockBegin
  2
*Paper_Space
 70
     0
 10
0.0
 20
0.0
 30
0.0
  3
*Paper_Space
  1

  0
ENDBLK
  5
1D
330
1B
100
AcDbEntity
 67
     1
  8
0
100
AcDbBlockEnd
  0
BLOCK
  5
24
330
23
100
AcDbEntity
  8
0
100
AcDbBlockBegin
  2
*Paper_Space0
 70
     0
 10
0.0
 20
0.0
 30
0.0
  3
*Paper_Space0
  1

  0
ENDBLK
  5
25
330
23
100
AcDbEntity
  8
0
100
AcDbBlockEnd
  0
BLOCK
  5
77
330
76
100
AcDbEntity
  8
0
100
AcDbBlockBegin
  2
DC_FILL_GROUP_1
 70
     0
 10
0.0
 20
0.0
 30
0.0
  3
DC_FILL_GROUP_1
  1

  0
LINE
  5
E5
330
76
100
AcDbEntity
  8
Layer0016
  6
Continuous
 62
     4
370
    25
100
AcDbLine
 10
66.40047936248394
 20
110.6416919907052
 30
0.0
 11
70.40047942208858
 21
110.6416919907052
 31
0.0
  0
ARC
  5
E6
330
76
100
AcDbEntity
  8
Layer0016
  6
Continuous
 62
     4
370
    25
100
AcDbCircle
 10
70.40047942208858
 20
109.3083585381626
 30
0.0
 40
1.333333333333333
100
AcDbArc
 50
355.5882742142322
 51
90.00000000000082
  0
ARC
  5
E7
330
76
100
AcDbEntity
  8
Layer0016
  6
Continuous
 62
     4
370
    25
100
AcDbCircle
 10
71.4806030055644
 20
109.2250252843021
 30
0.0
 40
0.2499999999999999
100
AcDbArc
 50
269.9999999999997
 51
355.5882742142322
  0
ARC
  5
E8
330
76
100
AcDbEntity
  8
Layer0016
  6
Continuous
 62
     4
370
    25
100
AcDbCircle
 10
70.40047942208858
 20
106.9750250458836
 30
0.0
 40
1.333333333333333
100
AcDbArc
 50
269.9515433593168
 51
4.411725785773699
  0
ARC
  5
E9
330
76
100
AcDbEntity
  8
Layer0016
  6
Continuous
 62
     4
370
    25
100
AcDbCircle
 10
71.4806030055644
 20
107.0583586971083
 30
0.0
 40
0.2499999999999999
100
AcDbArc
 50
4.411725785773571
 51
89.9999999999999
  0
LINE
  5
EA
330
76
100
AcDbEntity
  8
Layer0016
  6
Continuous
 62
     4
370
    25
100
AcDbLine
 10
70.40047942208858
 20
105.6416921893874
 30
0.0
 11
66.39714600928247
 21
105.6416921893874
 31
0.0
  0
ARC
  5
EB
330
76
100
AcDbEntity
  8
Layer0016
  6
Continuous
 62
     4
370
    25
100
AcDbCircle
 10
66.40047936248394
 20
109.3083585381626
 30
0.0
 40
1.333333333333333
100
AcDbArc
 50
89.9999999999999
 51
179.9999999999998
  0
LINE
  5
EC
330
76
100
AcDbEntity
  8
Layer0016
  6
Continuous
 62
     4
370
    25
100
AcDbLine
 10
65.06714600928242
 20
109.3083585381626
 30
0.0
 11
65.06714600928242
 21
106.9716921893873
 31
0.0
  0
LINE
  5
ED
330
76
100
AcDbEntity
  8
Layer0016
  6
Continuous
 62
     4
370
    25
100
AcDbLine
 10
67.06714608875532
 20
109.3916919907052
 30
0.0
 11
69.73381279515834
 21
109.3916919907052
 31
0.0
  0
LINE
  5
EE
330
76
100
AcDbEntity
  8
Layer0016
  6
Continuous
 62
     4
370
    25
100
AcDbLine
 10
67.06714608875532
 20
106.8916917920231
 30
0.0
 11
69.73381279515834
 21
106.8916917920231
 31
0.0
  0
ARC
  5
EF
330
76
100
AcDbEntity
  8
Layer0016
  6
Continuous
 62
     4
370
    25
100
AcDbCircle
 10
67.06714608875532
 20
107.3083584586897
 30
0.0
 40
0.4166666666666665
100
AcDbArc
 50
179.9999999999998
 51
270.0000000000036
  0
ARC
  5
F0
330
76
100
AcDbEntity
  8
Layer0016
  6
Continuous
 62
     4
370
    25
100
AcDbCircle
 10
69.73381279515834
 20
107.3083584586897
 30
0.0
 40
0.4166666666666665
100
AcDbArc
 50
270.0000000000015
 51
337.9756871629575
  0
LINE
  5
F1
330
76
100
AcDbEntity
  8
Layer0016
  6
Continuous
 62
     4
370
    25
100
AcDbLine
 10
66.65047942208858
 20
108.9750251253564
 30
0.0
 11
66.65047942208858
 21
107.3083584586897
 31
0.0
  0
ARC
  5
F2
330
76
100
AcDbEntity
  8
Layer0016
  6
Continuous
 62
     4
370
    25
100
AcDbCircle
 10
67.06714608875532
 20
108.9750251253564
 30
0.0
 40
0.4166666666666665
100
AcDbArc
 50
90.00000000000173
 51
179.9999999999998
  0
ARC
  5
F3
330
76
100
AcDbEntity
  8
Layer0016
  6
Continuous
 62
     4
370
    25
100
AcDbCircle
 10
69.73381279515834
 20
108.9750251253564
 30
0.0
 40
0.4166666666666665
100
AcDbArc
 50
22.02431283704305
 51
89.9999999999999
  0
LINE
  5
F4
330
76
100
AcDbEntity
  8
Layer0016
  6
Continuous
 62
     4
370
    25
100
AcDbLine
 10
70.35182931629438
 20
108.9750251253564
 30
0.0
 11
71.4806030055644
 21
108.9750251253564
 31
0.0
  0
ARC
  5
F5
330
76
100
AcDbEntity
  8
Layer0016
  6
Continuous
 62
     4
370
    25
100
AcDbCircle
 10
70.35182931629438
 20
109.2250252843021
 30
0.0
 40
0.2499999999999999
100
AcDbArc
 50
202.0243128370428
 51
269.9999999999997
  0
LINE
  5
F6
330
76
100
AcDbEntity
  8
Layer0016
  6
Continuous
 62
     4
370
    25
100
AcDbLine
 10
70.35182931629438
 20
107.3083584586897
 30
0.0
 11
71.4806030055644
 21
107.3083584586897
 31
0.0
  0
ARC
  5
F7
330
76
100
AcDbEntity
  8
Layer0016
  6
Continuous
 62
     4
370
    25
100
AcDbCircle
 10
70.35182931629438
 20
107.0583586971083
 30
0.0
 40
0.2499999999999999
100
AcDbArc
 50
89.9999999999999
 51
157.9756871629577
  0
ARC
  5
F8
330
76
100
AcDbEntity
  8
Layer0016
  6
Continuous
 62
     4
370
    25
100
AcDbCircle
 10
66.39714600928247
 20
106.9716921893873
 30
0.0
 40
1.33
100
AcDbArc
 50
180.0
 51
270.0
  0
ENDBLK
  5
78
330
76
100
AcDbEntity
  8
0
100
AcDbBlockEnd
  0
BLOCK
  5
7A
330
79
100
AcDbEntity
  8
0
100
AcDbBlockBegin
  2
DC_FILL_GROUP_2
 70
     0
 10
0.0
 20
0.0
 30
0.0
  3
DC_FILL_GROUP_2
  1

  0
LINE
  5
F9
330
79
100
AcDbEntity
  8
Layer0016
  6
Continuous
 62
     4
370
    25
100
AcDbLine
 10
54.92479723514603
 20
91.63367621949607
 30
0.0
 11
55.76635203581546
 21
91.63367621949607
 31
0.0
  0
ARC
  5
FA
330
79
100
AcDbEntity
  8
Layer0016
  6
Continuous
 62
     4
370
    25
100
AcDbCircle
 10
54.92479723514603
 20
91.38367685527896
 30
0.0
 40
0.2499999999999999
100
AcDbArc
 50
89.9999999999999
 51
152.2795657931534
  0
ARC
  5
FB
330
79
100
AcDbEntity
  8
Layer0016
  6
Continuous
 62
     4
370
    25
100
AcDbCircle
 10
55.76635203581546
 20
91.38367685527896
 30
0.0
 40
0.2499999999999999
100
AcDbArc
 50
0.0
 51
89.9999999999999
  0
LINE
  5
FC
330
79
100
AcDbEntity
  8
Layer0016
  6
Continuous
 62
     4
370
    25
100
AcDbLine
 10
55.76635203581546
 20
86.63367621949607
 30
0.0
 11
54.43301917931925
 21
86.63367621949607
 31
0.0
  0
ARC
  5
FD
330
79
100
AcDbEntity
  8
Layer0016
  6
Continuous
 62
     4
370
    25
100
AcDbCircle
 10
55.76635203581546
 20
86.8836787626276
 30
0.0
 40
0.2499999999999999
100
AcDbArc
 50
270.0000000000114
 51
0.0
  0
ARC
  5
FE
330
79
100
AcDbEntity
  8
Layer0016
  6
Continuous
 62
     4
370
    25
100
AcDbCircle
 10
54.43301917931925
 20
86.8836787626276
 30
0.0
 40
0.2499999999999999
100
AcDbArc
 50
179.9999999999998
 51
270.0000000000023
  0
LINE
  5
FF
330
79
100
AcDbEntity
  8
Layer0016
  6
Continuous
 62
     4
370
    25
100
AcDbLine
 10
54.18301902037356
 20
86.8836787626276
 30
0.0
 11
54.18301902037356
 21
89.96700955282938
 31
0.0
  0
ARC
  5
100
330
79
100
AcDbEntity
  8
Layer0016
  6
Continuous
 62
     4
370
    25
100
AcDbCircle
 10
53.93301886142777
 20
89.96700955282938
 30
0.0
 40
0.2499999999999999
100
AcDbArc
 50
0.0
 51
89.9999999999999
  0
LINE
  5
101
330
79
100
AcDbEntity
  8
Layer0016
  6
Continuous
 62
     4
370
    25
100
AcDbLine
 10
56.01635219476114
 20
86.8836787626276
 30
0.0
 11
56.01635219476114
 21
91.38367685527896
 31
0.0
  0
LINE
  5
102
330
79
100
AcDbEntity
  8
Layer0016
  6
Continuous
 62
     4
370
    25
100
AcDbLine
 10
53.93301886142777
 20
90.21701209596091
 30
0.0
 11
53.76635235370682
 21
90.21701209596091
 31
0.0
  0
ARC
  5
103
330
79
100
AcDbEntity
  8
Layer0016
  6
Continuous
 62
     4
370
    25
100
AcDbCircle
 10
53.76635235370682
 20
90.46701146017801
 30
0.0
 40
0.2499999999999999
100
AcDbArc
 50
183.5914418086624
 51
269.9999999999403
  0
ARC
  5
104
330
79
100
AcDbEntity
  8
Layer0016
  6
Continuous
 62
     4
370
    25
100
AcDbCircle
 10
53.76635235370682
 20
90.43568961671286
 30
0.0
 40
0.2499999999999999
100
AcDbArc
 50
106.3092632783745
 51
176.4085581913426
  0
ARC
  5
105
330
79
100
AcDbEntity
  8
Layer0016
  6
Continuous
 62
     4
370
    25
100
AcDbCircle
 10
53.22811049045609
 20
92.27522882671451
 30
0.0
 40
1.666666666666666
100
AcDbArc
 50
286.3092632783741
 51
332.2795657931533
  0
ENDBLK
  5
7B
330
79
100
AcDbEntity
  8
0
100
AcDbBlockEnd
  0
BLOCK
  5
7D
330
7C
100
AcDbEntity
  8
0
100
AcDbBlockBegin
  2
DC_FILL_GROUP_3
 70
     0
 10
0.0
 20
0.0
 30
0.0
  3
DC_FILL_GROUP_3
  1

  0
LINE
  5
106
330
7C
100
AcDbEntity
  8
Layer0016
  6
Continuous
 62
     4
370
    25
100
AcDbLine
 10
79.6523202892484
 20
91.64168960651949
 30
0.0
 11
83.65232044819413
 21
91.64168960651949
 31
0.0
  0
ARC
  5
107
330
7C
100
AcDbEntity
  8
Layer0016
  6
Continuous
 62
     4
370
    25
100
AcDbCircle
 10
83.65047902472435
 20
90.30835754475191
 30
0.0
 40
1.333333333333333
100
AcDbArc
 50
4.411725785781846
 51
90.07912936999078
  0
ARC
  5
108
330
7C
100
AcDbEntity
  8
Layer0016
  6
Continuous
 62
     4
370
    25
100
AcDbCircle
 10
83.65047902472435
 20
87.97502484720144
 30
0.0
 40
1.333333333333333
100
AcDbArc
 50
269.9999999999987
 51
0.0
  0
LINE
  5
109
330
7C
100
AcDbEntity
  8
Layer0016
  6
Continuous
 62
     4
370
    25
100
AcDbLine
 10
83.65047902472435
 20
86.64168960651949
 30
0.0
 11
79.65047886577867
 21
86.64168960651949
 31
0.0
  0
ARC
  5
10A
330
7C
100
AcDbEntity
  8
Layer0016
  6
Continuous
 62
     4
370
    25
100
AcDbCircle
 10
79.65047886577867
 20
87.97502484720144
 30
0.0
 40
1.333333333333333
100
AcDbArc
 50
179.9515433564314
 51
270.0
  0
ARC
  5
10B
330
7C
100
AcDbEntity
  8
Layer0016
  6
Continuous
 62
     4
370
    25
100
AcDbCircle
 10
79.65047886577867
 20
90.30835754475191
 30
0.0
 40
1.333333333333333
100
AcDbArc
 50
89.92087063000922
 51
180.0484566435686
  0
ARC
  5
10C
330
7C
100
AcDbEntity
  8
Layer0016
  6
Continuous
 62
     4
370
    25
100
AcDbCircle
 10
80.31714569139098
 20
88.14169214965096
 30
0.0
 40
0.4999999999999996
100
AcDbArc
 50
89.87078226373193
 51
270.0
  0
ARC
  5
10D
330
7C
100
AcDbEntity
  8
Layer0016
  6
Continuous
 62
     4
370
    25
100
AcDbCircle
 10
80.31714569139098
 20
90.14169024230233
 30
0.0
 40
0.4999999999999996
100
AcDbArc
 50
90.00000000000188
 51
270.1292177391537
  0
ARC
  5
10E
330
7C
100
AcDbEntity
  8
Layer0016
  6
Continuous
 62
     4
370
    25
100
AcDbCircle
 10
82.98381219911192
 20
88.14169214965096
 30
0.0
 40
0.4999999999999996
100
AcDbArc
 50
270.0
 51
90.1292177362681
  0
ARC
  5
10F
330
7C
100
AcDbEntity
  8
Layer0016
  6
Continuous
 62
     4
370
    25
100
AcDbCircle
 10
82.98381219911192
 20
90.14169024230233
 30
0.0
 40
0.4999999999999996
100
AcDbArc
 50
19.47122063449146
 51
90.0
  0
LINE
  5
110
330
7C
100
AcDbEntity
  8
Layer0016
  6
Continuous
 62
     4
370
    25
100
AcDbLine
 10
80.31714569139098
 20
90.64169214965096
 30
0.0
 11
82.98381219911192
 21
90.64169214965096
 31
0.0
  0
LINE
  5
111
330
7C
100
AcDbEntity
  8
Layer0016
  6
Continuous
 62
     4
370
    25
100
AcDbLine
 10
80.31601805484678
 20
89.64169151386812
 30
0.0
 11
83.65047902472435
 21
89.64169151386812
 31
0.0
  0
LINE
  5
112
330
7C
100
AcDbEntity
  8
Layer0016
  6
Continuous
 62
     4
370
    25
100
AcDbLine
 10
80.31601805487202
 20
88.64169087808523
 30
0.0
 11
82.98493983563094
 21
88.64169087808523
 31
0.0
  0
LINE
  5
113
330
7C
100
AcDbEntity
  8
Layer0016
  6
Continuous
 62
     4
370
    25
100
AcDbLine
 10
80.31714569139098
 20
87.64169024230233
 30
0.0
 11
82.98381219911192
 21
87.64169024230233
 31
0.0
  0
LINE
  5
114
330
7C
100
AcDbEntity
  8
Layer0016
  6
Continuous
 62
     4
370
    25
100
AcDbLine
 10
78.31714600928242
 20
90.30722990758665
 30
0.0
 11
78.31714600928242
 21
87.97389721003617
 31
0.0
  0
LINE
  5
115
330
7C
100
AcDbEntity
  8
Layer0016
  6
Continuous
 62
     4
370
    25
100
AcDbLine
 10
83.69091878938292
 20
90.14169024230233
 30
0.0
 11
84.73060260820006
 21
90.14169024230233
 31
0.0
  0
ARC
  5
116
330
7C
100
AcDbEntity
  8
Layer0016
  6
Continuous
 62
     4
370
    25
100
AcDbCircle
 10
83.69091878938292
 20
90.39168960651949
 30
0.0
 40
0.2499999999999998
100
AcDbArc
 50
199.4712206344911
 51
269.9999999999997
  0
ARC
  5
117
330
7C
100
AcDbEntity
  8
Layer0016
  6
Continuous
 62
     4
370
    25
100
AcDbCircle
 10
84.73060260820006
 20
90.39168960651949
 30
0.0
 40
0.2499999999999998
100
AcDbArc
 50
269.9999999999997
 51
4.41172578578174
  0
LINE
  5
118
330
7C
100
AcDbEntity
  8
Layer0016
  6
Continuous
 62
     4
370
    25
100
AcDbLine
 10
84.98381267594908
 20
87.97502484720144
 30
0.0
 11
84.98381267594908
 21
88.30835627318612
 31
0.0
  0
ARC
  5
119
330
7C
100
AcDbEntity
  8
Layer0016
  6
Continuous
 62
     4
370
    25
100
AcDbCircle
 10
83.65047902472435
 20
88.30835627318612
 30
0.0
 40
1.333333333333333
100
AcDbArc
 50
0.0
 51
90.0
  0
ENDBLK
  5
7E
330
7C
100
AcDbEntity
  8
0
100
AcDbBlockEnd
  0
BLOCK
  5
80
330
7F
100
AcDbEntity
  8
0
100
AcDbBlockBegin
  2
DC_FILL_GROUP_4
 70
     0
 10
0.0
 20
0.0
 30
0.0
  3
DC_FILL_GROUP_4
  1

  0
LINE
  5
11A
330
7F
100
AcDbEntity
  8
Layer0016
  6
Continuous
 62
     4
370
    25
100
AcDbLine
 10
53.15892421095353
 20
74.60745481645972
 30
0.0
 11
56.9940992856481
 21
74.60745481645972
 31
0.0
  0
LINE
  5
11B
330
7F
100
AcDbEntity
  8
Layer0016
  6
Continuous
 62
     4
370
    25
100
AcDbLine
 10
58.24466310389508
 20
69.60745640591688
 30
0.0
 11
52.07686832389734
 21
69.60745640591688
 31
0.0
  0
ARC
  5
11C
330
7F
100
AcDbEntity
  8
Layer0016
  6
Continuous
 62
     4
370
    25
100
AcDbCircle
 10
58.2440992856481
 20
69.85745577013404
 30
0.0
 40
0.2499999999999999
100
AcDbArc
 50
269.8707822666175
 51
0.0
  0
ARC
  5
11D
330
7F
100
AcDbEntity
  8
Layer0016
  6
Continuous
 62
     4
370
    25
100
AcDbCircle
 10
52.07743214214432
 20
69.85745577013404
 30
0.0
 40
0.2499999999999999
100
AcDbArc
 50
179.8707822608398
 51
270.1292177333825
  0
ARC
  5
11E
330
7F
100
AcDbEntity
  8
Layer0016
  6
Continuous
 62
     4
370
    25
100
AcDbCircle
 10
53.16076563442337
 20
73.27412275469214
 30
0.0
 40
1.333333333333333
100
AcDbArc
 50
89.92087063000922
 51
185.2159304211864
  0
ARC
  5
11F
330
7F
100
AcDbEntity
  8
Layer0016
  6
Continuous
 62
     4
370
    25
100
AcDbCircle
 10
53.82743246003568
 20
73.10745545224256
 30
0.0
 40
0.4999999999999997
100
AcDbArc
 50
90.0
 51
174.7840814146305
  0
ARC
  5
120
330
7F
100
AcDbEntity
  8
Layer0016
  6
Continuous
 62
     4
370
    25
100
AcDbCircle
 10
52.91456189398551
 20
73.19078910346735
 30
0.0
 40
0.4166666666666665
100
AcDbArc
 50
270.0
 51
354.7840673937382
  0
LINE
  5
121
330
7F
100
AcDbEntity
  8
Layer0016
  6
Continuous
 62
     4
370
    25
100
AcDbLine
 10
52.91456189398551
 20
72.77412243680067
 30
0.0
 11
52.24789506837308
 21
72.77412243680067
 31
0.0
  0
ARC
  5
122
330
7F
100
AcDbEntity
  8
Layer0016
  6
Continuous
 62
     4
370
    25
100
AcDbCircle
 10
52.24789506837308
 20
73.19078910346735
 30
0.0
 40
0.4166666666666665
100
AcDbArc
 50
185.2159304211857
 51
270.0
  0
LINE
  5
123
330
7F
100
AcDbEntity
  8
Layer0016
  6
Continuous
 62
     4
370
    25
100
AcDbLine
 10
58.24466310392032
 20
70.60745545224256
 30
0.0
 11
53.66076595231473
 21
70.60745545224256
 31
0.0
  0
LINE
  5
124
330
7F
100
AcDbEntity
  8
Layer0016
  6
Continuous
 62
     4
370
    25
100
AcDbLine
 10
58.49409944459379
 20
70.35745608802546
 30
0.0
 11
58.49409944459379
 21
69.85745577013404
 31
0.0
  0
ARC
  5
125
330
7F
100
AcDbEntity
  8
Layer0016
  6
Continuous
 62
     4
370
    25
100
AcDbCircle
 10
58.2440992856481
 20
70.35745608802546
 30
0.0
 40
0.2499999999999999
100
AcDbArc
 50
0.0
 51
90.12921773916672
  0
LINE
  5
126
330
7F
100
AcDbEntity
  8
Layer0016
  6
Continuous
 62
     4
370
    25
100
AcDbLine
 10
51.82743277792716
 20
70.3721663438601
 30
0.0
 11
51.82743277792716
 21
69.85689195186194
 31
0.0
  0
ARC
  5
127
330
7F
100
AcDbEntity
  8
Layer0016
  6
Continuous
 62
     4
370
    25
100
AcDbCircle
 10
53.32743214214432
 20
70.37078527605445
 30
0.0
 40
1.499999999999999
100
AcDbArc
 50
100.8349564459286
 51
180.0527529117762
  0
LINE
  5
128
330
7F
100
AcDbEntity
  8
Layer0016
  6
Continuous
 62
     4
370
    25
100
AcDbLine
 10
53.82743246003568
 20
73.60745577013404
 30
0.0
 11
56.98676473542631
 21
73.60745577013404
 31
0.0
  0
ARC
  5
129
330
7F
100
AcDbEntity
  8
Layer0016
  6
Continuous
 62
     4
370
    25
100
AcDbCircle
 10
56.9940992856481
 20
73.10745545224256
 30
0.0
 40
1.499999999999999
100
AcDbArc
 50
278.3779293358174
 51
90.00000000000148
  0
ARC
  5
12A
330
7F
100
AcDbEntity
  8
Layer0016
  6
Continuous
 62
     4
370
    25
100
AcDbCircle
 10
53.66076595231473
 20
70.77412275469214
 30
0.0
 40
0.1666666666666666
100
AcDbArc
 50
98.38277256182481
 51
270.0
  0
LINE
  5
12B
330
7F
100
AcDbEntity
  8
Layer0016
  6
Continuous
 62
     4
370
    25
100
AcDbLine
 10
57.21265220215017
 20
71.62346265485832
 30
0.0
 11
53.62246083905805
 21
70.93632785965553
 31
0.0
  0
LINE
  5
12C
330
7F
100
AcDbEntity
  8
Layer0016
  6
Continuous
 62
     4
370
    25
100
AcDbLine
 10
53.04546164119827
 20
71.84404520189673
 30
0.0
 11
57.08188309214157
 21
72.61658632689881
 31
0.0
  0
ARC
  5
12D
330
7F
100
AcDbEntity
  8
Layer0016
  6
Continuous
 62
     4
370
    25
100
AcDbCircle
 10
56.98676473542631
 20
73.10745545224256
 30
0.0
 40
0.4999999999999997
100
AcDbArc
 50
280.7033140495902
 51
90.0
  0
ENDBLK
  5
81
330
7F
100
AcDbEntity
  8
0
100
AcDbBlockEnd
  0
BLOCK
  5
83
330
82
100
AcDbEntity
  8
0
100
AcDbBlockBegin
  2
DC_FILL_GROUP_5
 70
     0
 10
0.0
 20
0.0
 30
0.0
  3
DC_FILL_GROUP_5
  1

  0
ARC
  5
12E
330
82
100
AcDbEntity
  8
Layer0016
  6
Continuous
 62
     4
370
    25
100
AcDbCircle
 10
78.94214616822813
 20
74.01669151386801
 30
0.0
 40
0.6249999999999999
100
AcDbArc
 50
89.87078226429601
 51
270.0
  0
LINE
  5
12F
330
82
100
AcDbEntity
  8
Layer0016
  6
Continuous
 62
     4
370
    25
100
AcDbLine
 10
84.98381283489476
 20
74.3916905601937
 30
0.0
 11
84.98381283489476
 21
73.48674105406985
 31
0.0
  0
ARC
  5
130
330
82
100
AcDbEntity
  8
Layer0016
  6
Continuous
 62
     4
370
    25
100
AcDbCircle
 10
84.73381188122045
 20
74.3916905601937
 30
0.0
 40
0.2499999999999999
100
AcDbArc
 50
0.0
 51
89.99999999999969
  0
LINE
  5
131
330
82
100
AcDbEntity
  8
Layer0016
  6
Continuous
 62
     4
370
    25
100
AcDbLine
 10
81.53821296103416
 20
69.64169151386801
 30
0.0
 11
80.4004795015615
 21
69.64169151386801
 31
0.0
  0
ARC
  5
132
330
82
100
AcDbEntity
  8
Layer0016
  6
Continuous
 62
     4
370
    25
100
AcDbCircle
 10
81.53821296103416
 20
69.89169087808517
 30
0.0
 40
0.2499999999999999
100
AcDbArc
 50
269.9999999999997
 51
318.3664606634297
  0
ARC
  5
133
330
82
100
AcDbEntity
  8
Layer0016
  6
Continuous
 62
     4
370
    25
100
AcDbCircle
 10
80.4004795015615
 20
70.0583581805347
 30
0.0
 40
0.4166666666666665
100
AcDbArc
 50
135.0872402121838
 51
270.0
  0
LINE
  5
134
330
82
100
AcDbEntity
  8
Layer0016
  6
Continuous
 62
     4
370
    25
100
AcDbLine
 10
84.73381188122045
 20
74.64168992441085
 30
0.0
 11
78.94073662258558
 21
74.64168992441085
 31
0.0
  0
LINE
  5
135
330
82
100
AcDbEntity
  8
Layer0016
  6
Continuous
 62
     4
370
    25
100
AcDbLine
 10
82.73381219911192
 20
73.39169151386801
 30
0.0
 11
78.94214616822813
 21
73.39169151386801
 31
0.0
  0
ARC
  5
136
330
82
100
AcDbEntity
  8
Layer0016
  6
Continuous
 62
     4
370
    25
100
AcDbCircle
 10
82.73381219911192
 20
73.22502421141849
 30
0.0
 40
0.1666666666666666
100
AcDbArc
 50
315.0872402121888
 51
89.9999999999999
  0
LINE
  5
137
330
82
100
AcDbEntity
  8
Layer0016
  6
Continuous
 62
     4
370
    25
100
AcDbLine
 10
84.92066529003392
 20
73.32065072458175
 30
0.0
 11
81.72506478039048
 21
69.72560054859701
 31
0.0
  0
ARC
  5
138
330
82
100
AcDbEntity
  8
Layer0016
  6
Continuous
 62
     4
370
    25
100
AcDbCircle
 10
84.73381188122045
 20
73.48674105406985
 30
0.0
 40
0.2499999999999999
100
AcDbArc
 50
318.366460663429
 51
0.0
  0
LINE
  5
139
330
82
100
AcDbEntity
  8
Layer0016
  6
Continuous
 62
     4
370
    25
100
AcDbLine
 10
82.85184290615337
 20
73.10735351643149
 30
0.0
 11
80.10540313132225
 21
70.35253650745932
 31
0.0
  0
ENDBLK
  5
84
330
82
100
AcDbEntity
  8
0
100
AcDbBlockEnd
  0
BLOCK
  5
86
330
85
100
AcDbEntity
  8
0
100
AcDbBlockBegin
  2
DC_FILL_GROUP_6
 70
     0
 10
0.0
 20
0.0
 30
0.0
  3
DC_FILL_GROUP_6
  1

  0
LINE
  5
13A
330
85
100
AcDbEntity
  8
Layer0016
  6
Continuous
 62
     4
370
    25
100
AcDbLine
 10
53.15047918367
 20
57.64169187149594
 30
0.0
 11
57.1504793426158
 21
57.64169187149594
 31
0.0
  0
ARC
  5
13B
330
85
100
AcDbEntity
  8
Layer0016
  6
Continuous
 62
     4
370
    25
100
AcDbCircle
 10
57.1504793426158
 20
56.30835822027112
 30
0.0
 40
1.333333333333333
100
AcDbArc
 50
298.9550243718614
 51
90.00000000000082
  0
ARC
  5
13C
330
85
100
AcDbEntity
  8
Layer0016
  6
Continuous
 62
     4
370
    25
100
AcDbCircle
 10
57.1504793426158
 20
53.97502472799205
 30
0.0
 40
1.333333333333333
100
AcDbArc
 50
269.9999999999987
 51
61.04497562813708
  0
LINE
  5
13D
330
85
100
AcDbEntity
  8
Layer0016
  6
Continuous
 62
     4
370
    25
100
AcDbLine
 10
57.1504793426158
 20
52.64169167281376
 30
0.0
 11
53.15047918367
 21
52.64169167281376
 31
0.0
  0
ARC
  5
13E
330
85
100
AcDbEntity
  8
Layer0016
  6
Continuous
 62
     4
370
    25
100
AcDbCircle
 10
53.15047918367
 20
53.97502472799205
 30
0.0
 40
1.333333333333333
100
AcDbArc
 50
174.7840914295519
 51
269.9999999999997
  0
ARC
  5
13F
330
85
100
AcDbEntity
  8
Layer0016
  6
Continuous
 62
     4
370
    25
100
AcDbCircle
 10
52.23760782289119
 20
54.05835837921684
 30
0.0
 40
0.4166666666666665
100
AcDbArc
 50
89.9999999999999
 51
174.7840914295519
  0
ARC
  5
140
330
85
100
AcDbEntity
  8
Layer0016
  6
Continuous
 62
     4
370
    25
100
AcDbCircle
 10
53.15047918367
 20
56.30835822027112
 30
0.0
 40
1.333333333333333
100
AcDbArc
 50
89.9999999999999
 51
185.2159085704492
  0
ARC
  5
141
330
85
100
AcDbEntity
  8
Layer0016
  6
Continuous
 62
     4
370
    25
100
AcDbCircle
 10
53.81714600928242
 20
54.14169163307731
 30
0.0
 40
0.4999999999999997
100
AcDbArc
 50
185.2159085704425
 51
269.9999999999997
  0
ARC
  5
142
330
85
100
AcDbEntity
  8
Layer0016
  6
Continuous
 62
     4
370
    25
100
AcDbCircle
 10
52.90427464850362
 20
54.05835837921684
 30
0.0
 40
0.4166666666666665
100
AcDbArc
 50
5.215908570442637
 51
89.9999999999999
  0
ARC
  5
143
330
85
100
AcDbEntity
  8
Layer0016
  6
Continuous
 62
     4
370
    25
100
AcDbCircle
 10
53.81714600928242
 20
56.14169171255017
 30
0.0
 40
0.4999999999999997
100
AcDbArc
 50
90.00000000000188
 51
174.7840914295451
  0
ARC
  5
144
330
85
100
AcDbEntity
  8
Layer0016
  6
Continuous
 62
     4
370
    25
100
AcDbCircle
 10
52.90427464850362
 20
56.22502496641064
 30
0.0
 40
0.4166666666666665
100
AcDbArc
 50
269.9999999999997
 51
354.7840914295451
  0
ARC
  5
145
330
85
100
AcDbEntity
  8
Layer0016
  6
Continuous
 62
     4
370
    25
100
AcDbCircle
 10
56.48381251700337
 20
54.14169163307731
 30
0.0
 40
0.4999999999999997
100
AcDbArc
 50
269.9999999999997
 51
90.0
  0
ARC
  5
146
330
85
100
AcDbEntity
  8
Layer0016
  6
Continuous
 62
     4
370
    25
100
AcDbCircle
 10
56.48381251700337
 20
56.14169171255017
 30
0.0
 40
0.4999999999999997
100
AcDbArc
 50
269.9999999999997
 51
90.00000000000122
  0
LINE
  5
147
330
85
100
AcDbEntity
  8
Layer0016
  6
Continuous
 62
     4
370
    25
100
AcDbLine
 10
53.81714600928242
 20
56.64169123571301
 30
0.0
 11
56.48381251700337
 21
56.64169123571301
 31
0.0
  0
LINE
  5
148
330
85
100
AcDbEntity
  8
Layer0016
  6
Continuous
 62
     4
370
    25
100
AcDbLine
 10
55.1504793426158
 20
55.64169139465875
 30
0.0
 11
56.48381251700337
 21
55.64169139465875
 31
0.0
  0
LINE
  5
149
330
85
100
AcDbEntity
  8
Layer0016
  6
Continuous
 62
     4
370
    25
100
AcDbLine
 10
55.1504793426158
 20
54.64169155360447
 30
0.0
 11
56.48381251700337
 21
54.64169155360447
 31
0.0
  0
LINE
  5
14A
330
85
100
AcDbEntity
  8
Layer0016
  6
Continuous
 62
     4
370
    25
100
AcDbLine
 10
53.81714600928242
 20
53.64169171255016
 30
0.0
 11
56.48381251700337
 21
53.64169171255016
 31
0.0
  0
ARC
  5
14B
330
85
100
AcDbEntity
  8
Layer0016
  6
Continuous
 62
     4
370
    25
100
AcDbCircle
 10
55.1504793426158
 20
55.14169139465874
 30
0.0
 40
0.4999999999999997
100
AcDbArc
 50
90.00000000000166
 51
270.0
  0
LINE
  5
14C
330
85
100
AcDbEntity
  8
Layer0016
  6
Continuous
 62
     4
370
    25
100
AcDbLine
 10
52.90427464850362
 20
55.80835829974401
 30
0.0
 11
52.23760782289119
 21
55.80835829974401
 31
0.0
  0
ARC
  5
14D
330
85
100
AcDbEntity
  8
Layer0016
  6
Continuous
 62
     4
370
    25
100
AcDbCircle
 10
52.23760782289119
 20
56.22502496641064
 30
0.0
 40
0.4166666666666665
100
AcDbArc
 50
185.2159085704492
 51
269.9999999999997
  0
LINE
  5
14E
330
85
100
AcDbEntity
  8
Layer0016
  6
Continuous
 62
     4
370
    25
100
AcDbLine
 10
52.90427464850362
 20
54.47502504588353
 30
0.0
 11
52.23760782289119
 21
54.47502504588353
 31
0.0
  0
ENDBLK
  5
87
330
85
100
AcDbEntity
  8
0
100
AcDbBlockEnd
  0
BLOCK
  5
89
330
88
100
AcDbEntity
  8
0
100
AcDbBlockBegin
  2
DC_FILL_GROUP_7
 70
     0
 10
0.0
 20
0.0
 30
0.0
  3
DC_FILL_GROUP_7
  1

  0
LINE
  5
14F
330
88
100
AcDbEntity
  8
Layer0016
  6
Continuous
 62
     4
370
    25
100
AcDbLine
 10
79.65047942208861
 20
57.6416917125502
 30
0.0
 11
83.65047958103435
 21
57.6416917125502
 31
0.0
  0
ARC
  5
150
330
88
100
AcDbEntity
  8
Layer0016
  6
Continuous
 62
     4
370
    25
100
AcDbCircle
 10
83.65047958103435
 20
56.30835806132538
 30
0.0
 40
1.333333333333333
100
AcDbArc
 50
298.9550243718614
 51
90.00000000000082
  0
ARC
  5
151
330
88
100
AcDbEntity
  8
Layer0016
  6
Continuous
 62
     4
370
    25
100
AcDbCircle
 10
83.65047958103435
 20
53.97502456904631
 30
0.0
 40
1.333333333333333
100
AcDbArc
 50
269.9999999999987
 51
61.04497562813708
  0
LINE
  5
152
330
88
100
AcDbEntity
  8
Layer0016
  6
Continuous
 62
     4
370
    25
100
AcDbLine
 10
83.65047958103435
 20
52.64169151386803
 30
0.0
 11
79.65047942208861
 21
52.64169151386803
 31
0.0
  0
ARC
  5
153
330
88
100
AcDbEntity
  8
Layer0016
  6
Continuous
 62
     4
370
    25
100
AcDbCircle
 10
79.65047942208861
 20
53.97502456904631
 30
0.0
 40
1.333333333333333
100
AcDbArc
 50
118.9550243718675
 51
269.9999999999997
  0
ARC
  5
154
330
88
100
AcDbEntity
  8
Layer0016
  6
Continuous
 62
     4
370
    25
100
AcDbCircle
 10
79.65047942208861
 20
56.30835806132538
 30
0.0
 40
1.333333333333333
100
AcDbArc
 50
89.9999999999999
 51
241.0449756281321
  0
ARC
  5
155
330
88
100
AcDbEntity
  8
Layer0016
  6
Continuous
 62
     4
370
    25
100
AcDbCircle
 10
80.31714624770103
 20
54.14169147413158
 30
0.0
 40
0.4999999999999997
100
AcDbArc
 50
90.00000000000193
 51
269.9999999999997
  0
ARC
  5
156
330
88
100
AcDbEntity
  8
Layer0016
  6
Continuous
 62
     4
370
    25
100
AcDbCircle
 10
80.31714624770103
 20
56.14169155360443
 30
0.0
 40
0.4999999999999997
100
AcDbArc
 50
90.00000000000188
 51
269.9999999999997
  0
ARC
  5
157
330
88
100
AcDbEntity
  8
Layer0016
  6
Continuous
 62
     4
370
    25
100
AcDbCircle
 10
82.98381275542198
 20
54.14169147413158
 30
0.0
 40
0.4999999999999997
100
AcDbArc
 50
269.9999999999997
 51
90.00000000000443
  0
ARC
  5
158
330
88
100
AcDbEntity
  8
Layer0016
  6
Continuous
 62
     4
370
    25
100
AcDbCircle
 10
82.98381275542198
 20
56.14169155360443
 30
0.0
 40
0.4999999999999997
100
AcDbArc
 50
269.9999999999997
 51
90.00000000000122
  0
LINE
  5
159
330
88
100
AcDbEntity
  8
Layer0016
  6
Continuous
 62
     4
370
    25
100
AcDbLine
 10
80.31714624770103
 20
56.64169107676727
 30
0.0
 11
82.98381275542198
 21
56.64169107676727
 31
0.0
  0
LINE
  5
15A
330
88
100
AcDbEntity
  8
Layer0016
  6
Continuous
 62
     4
370
    25
100
AcDbLine
 10
80.31714624770103
 20
55.64169123571301
 30
0.0
 11
82.98381275542198
 21
55.64169123571301
 31
0.0
  0
LINE
  5
15B
330
88
100
AcDbEntity
  8
Layer0016
  6
Continuous
 62
     4
370
    25
100
AcDbLine
 10
80.31714624770103
 20
54.64169139465874
 30
0.0
 11
82.98381275542198
 21
54.64169139465874
 31
0.0
  0
LINE
  5
15C
330
88
100
AcDbEntity
  8
Layer0016
  6
Continuous
 62
     4
370
    25
100
AcDbLine
 10
80.31714624770103
 20
53.64169155360442
 30
0.0
 11
82.98381275542198
 21
53.64169155360442
 31
0.0
  0
ENDBLK
  5
8A
330
88
100
AcDbEntity
  8
0
100
AcDbBlockEnd
  0
BLOCK
  5
8C
330
8B
100
AcDbEntity
  8
0
100
AcDbBlockBegin
  2
DC_FILL_GROUP_8
 70
     0
 10
0.0
 20
0.0
 30
0.0
  3
DC_FILL_GROUP_8
  1

  0
LINE
  5
15D
330
8B
100
AcDbEntity
  8
Layer0016
  6
Continuous
 62
     4
370
    25
100
AcDbLine
 10
51.8019948120224
 20
37.5343078062066
 30
0.0
 11
51.8019948120224
 21
36.88367621949597
 31
0.0
  0
ARC
  5
15E
330
8B
100
AcDbEntity
  8
Layer0016
  6
Continuous
 62
     4
370
    25
100
AcDbCircle
 10
52.21866147868903
 20
37.5343078062066
 30
0.0
 40
0.4166666666666665
100
AcDbArc
 50
132.6467031338955
 51
179.9999999999998
  0
LINE
  5
15F
330
8B
100
AcDbEntity
  8
Layer0016
  6
Continuous
 62
     4
370
    25
100
AcDbLine
 10
58.46866147868903
 20
37.46700859915502
 30
0.0
 11
58.46866147868903
 21
36.71700891704644
 31
0.0
  0
ARC
  5
160
330
8B
100
AcDbEntity
  8
Layer0016
  6
Continuous
 62
     4
370
    25
100
AcDbCircle
 10
58.21866131974335
 20
36.71700891704644
 30
0.0
 40
0.2499999999999999
100
AcDbArc
 50
269.9999999999997
 51
0.0
  0
ARC
  5
161
330
8B
100
AcDbEntity
  8
Layer0016
  6
Continuous
 62
     4
370
    25
100
AcDbCircle
 10
58.21866131974335
 20
37.46700859915502
 30
0.0
 40
0.2499999999999999
100
AcDbArc
 50
0.0
 51
89.9999999999748
  0
LINE
  5
162
330
8B
100
AcDbEntity
  8
Layer0016
  6
Continuous
 62
     4
370
    25
100
AcDbLine
 10
56.96866131974335
 20
35.63367621949597
 30
0.0
 11
55.96866147868903
 21
35.63367621949597
 31
0.0
  0
ARC
  5
163
330
8B
100
AcDbEntity
  8
Layer0016
  6
Continuous
 62
     4
370
    25
100
AcDbCircle
 10
55.96866147868903
 20
35.88367558371313
 30
0.0
 40
0.2499999999999999
100
AcDbArc
 50
179.9999999999998
 51
269.9999999999834
  0
ARC
  5
164
330
8B
100
AcDbEntity
  8
Layer0016
  6
Continuous
 62
     4
370
    25
100
AcDbCircle
 10
56.96866131974335
 20
35.88367558371313
 30
0.0
 40
0.2499999999999999
100
AcDbArc
 50
269.9999999999997
 51
0.0
  0
LINE
  5
165
330
8B
100
AcDbEntity
  8
Layer0016
  6
Continuous
 62
     4
370
    25
100
AcDbLine
 10
56.96866131974335
 20
40.63367621949597
 30
0.0
 11
55.13130840811212
 21
40.63367621949597
 31
0.0
  0
LINE
  5
166
330
8B
100
AcDbEntity
  8
Layer0016
  6
Continuous
 62
     4
370
    25
100
AcDbLine
 10
57.21866147868903
 20
40.38367606055029
 30
0.0
 11
57.21866147868903
 21
37.96700891704644
 31
0.0
  0
ARC
  5
167
330
8B
100
AcDbEntity
  8
Layer0016
  6
Continuous
 62
     4
370
    25
100
AcDbCircle
 10
56.96866131974335
 20
40.38367606055029
 30
0.0
 40
0.2499999999999999
100
AcDbArc
 50
0.0
 51
89.99999999999697
  0
LINE
  5
168
330
8B
100
AcDbEntity
  8
Layer0016
  6
Continuous
 62
     4
370
    25
100
AcDbLine
 10
57.21866147868903
 20
36.21700859915502
 30
0.0
 11
57.21866147868903
 21
35.88367558371313
 31
0.0
  0
ARC
  5
169
330
8B
100
AcDbEntity
  8
Layer0016
  6
Continuous
 62
     4
370
    25
100
AcDbCircle
 10
57.46866084290619
 20
36.21700859915502
 30
0.0
 40
0.2499999999999999
100
AcDbArc
 50
89.99999999999447
 51
179.9999999999998
  0
LINE
  5
16A
330
8B
100
AcDbEntity
  8
Layer0016
  6
Continuous
 62
     4
370
    25
100
AcDbLine
 10
55.71866131974335
 20
39.6250456258782
 30
0.0
 11
55.71866131974335
 21
37.71700955282934
 31
0.0
  0
LINE
  5
16B
330
8B
100
AcDbEntity
  8
Layer0016
  6
Continuous
 62
     4
370
    25
100
AcDbLine
 10
55.71866131974335
 20
36.21700859915502
 30
0.0
 11
55.71866131974335
 21
35.88367558371313
 31
0.0
  0
ARC
  5
16C
330
8B
100
AcDbEntity
  8
Layer0016
  6
Continuous
 62
     4
370
    25
100
AcDbCircle
 10
55.46866116079767
 20
36.21700859915502
 30
0.0
 40
0.2499999999999999
100
AcDbArc
 50
0.0
 51
89.99999999999874
  0
LINE
  5
16D
330
8B
100
AcDbEntity
  8
Layer0016
  6
Continuous
 62
     4
370
    25
100
AcDbLine
 10
58.21866131974335
 20
36.46700955282934
 30
0.0
 11
57.46866084290619
 21
36.46700955282934
 31
0.0
  0
LINE
  5
16E
330
8B
100
AcDbEntity
  8
Layer0016
  6
Continuous
 62
     4
370
    25
100
AcDbLine
 10
55.46866116079767
 20
36.46700955282934
 30
0.0
 11
52.21866147868903
 21
36.46700955282934
 31
0.0
  0
ARC
  5
16F
330
8B
100
AcDbEntity
  8
Layer0016
  6
Continuous
 62
     4
370
    25
100
AcDbCircle
 10
52.21866147868903
 20
36.88367621949597
 30
0.0
 40
0.4166666666666665
100
AcDbArc
 50
179.9999999999998
 51
269.9999999999997
  0
LINE
  5
170
330
8B
100
AcDbEntity
  8
Layer0016
  6
Continuous
 62
     4
370
    25
100
AcDbLine
 10
58.21866131974335
 20
37.71700955282934
 30
0.0
 11
57.46866084290619
 21
37.71700955282934
 31
0.0
  0
ARC
  5
171
330
8B
100
AcDbEntity
  8
Layer0016
  6
Continuous
 62
     4
370
    25
100
AcDbCircle
 10
57.46866084290619
 20
37.96700891704644
 30
0.0
 40
0.2499999999999999
100
AcDbArc
 50
179.9999999999998
 51
269.9999999999997
  0
LINE
  5
172
330
8B
100
AcDbEntity
  8
Layer0016
  6
Continuous
 62
     4
370
    25
100
AcDbLine
 10
55.71866131974335
 20
37.71700955282934
 30
0.0
 11
53.64707884344537
 21
37.71700955282934
 31
0.0
  0
LINE
  5
173
330
8B
100
AcDbEntity
  8
Layer0016
  6
Continuous
 62
     4
370
    25
100
AcDbLine
 10
54.84902716828461
 20
40.5234863047926
 30
0.0
 11
51.93638023886163
 21
37.84078535289849
 31
0.0
  0
ARC
  5
174
330
8B
100
AcDbEntity
  8
Layer0016
  6
Continuous
 62
     4
370
    25
100
AcDbCircle
 10
55.13130840811212
 20
40.21700955282931
 30
0.0
 40
0.4166666666666665
100
AcDbArc
 50
89.9999999999999
 51
132.6467031338965
  0
LINE
  5
175
330
8B
100
AcDbEntity
  8
Layer0016
  6
Continuous
 62
     4
370
    25
100
AcDbLine
 10
55.71866131974335
 20
39.6250456258782
 30
0.0
 11
53.64707884344537
 21
37.71700955282934
 31
0.0
  0
ENDBLK
  5
8D
330
8B
100
AcDbEntity
  8
0
100
AcDbBlockEnd
  0
BLOCK
  5
8F
330
8E
100
AcDbEntity
  8
0
100
AcDbBlockBegin
  2
DC_FILL_GROUP_9
 70
     0
 10
0.0
 20
0.0
 30
0.0
  3
DC_FILL_GROUP_9
  1

  0
LINE
  5
176
330
8E
100
AcDbEntity
  8
Layer0016
  6
Continuous
 62
     4
370
    25
100
AcDbLine
 10
83.64652903453958
 20
35.64169151386797
 30
0.0
 11
79.6465288755939
 21
35.64169151386797
 31
0.0
  0
ARC
  5
177
330
8E
100
AcDbEntity
  8
Layer0016
  6
Continuous
 62
     4
370
    25
100
AcDbCircle
 10
79.6465288755939
 20
36.97502516509276
 30
0.0
 40
1.333333333333333
100
AcDbArc
 50
184.4117257857817
 51
270.0000000000006
  0
ARC
  5
178
330
8E
100
AcDbEntity
  8
Layer0016
  6
Continuous
 62
     4
370
    25
100
AcDbCircle
 10
79.6465288755939
 20
39.30835786264321
 30
0.0
 40
1.333333333333333
100
AcDbArc
 50
89.99999999999885
 51
179.9999999999997
  0
LINE
  5
179
330
8E
100
AcDbEntity
  8
Layer0016
  6
Continuous
 62
     4
370
    25
100
AcDbLine
 10
79.6465288755939
 20
40.64169151386797
 30
0.0
 11
83.64652903453958
 21
40.64169151386797
 31
0.0
  0
ARC
  5
17A
330
8E
100
AcDbEntity
  8
Layer0016
  6
Continuous
 62
     4
370
    25
100
AcDbCircle
 10
83.64652903453958
 20
39.30835786264321
 30
0.0
 40
1.333333333333333
100
AcDbArc
 50
359.9999999999996
 51
89.9999999999999
  0
ARC
  5
17B
330
8E
100
AcDbEntity
  8
Layer0016
  6
Continuous
 62
     4
370
    25
100
AcDbCircle
 10
83.64652903453958
 20
36.97502516509276
 30
0.0
 40
1.333333333333333
100
AcDbArc
 50
269.9999999999998
 51
359.9999999999996
  0
ARC
  5
17C
330
8E
100
AcDbEntity
  8
Layer0016
  6
Continuous
 62
     4
370
    25
100
AcDbCircle
 10
82.97986220892722
 20
39.14169135492226
 30
0.0
 40
0.4999999999999997
100
AcDbArc
 50
270.0000000000018
 51
89.9999999999999
  0
ARC
  5
17D
330
8E
100
AcDbEntity
  8
Layer0016
  6
Continuous
 62
     4
370
    25
100
AcDbCircle
 10
82.97986220892722
 20
37.14169087808513
 30
0.0
 40
0.4999999999999997
100
AcDbArc
 50
270.0000000000017
 51
89.9999999999999
  0
ARC
  5
17E
330
8E
100
AcDbEntity
  8
Layer0016
  6
Continuous
 62
     4
370
    25
100
AcDbCircle
 10
80.31319570120633
 20
39.14169135492226
 30
0.0
 40
0.4999999999999997
100
AcDbArc
 50
89.99999999999987
 51
270.0000000000043
  0
ARC
  5
17F
330
8E
100
AcDbEntity
  8
Layer0016
  6
Continuous
 62
     4
370
    25
100
AcDbCircle
 10
80.31319570120633
 20
37.14169087808513
 30
0.0
 40
0.4999999999999997
100
AcDbArc
 50
199.4712206344913
 51
270.0000000000011
  0
LINE
  5
180
330
8E
100
AcDbEntity
  8
Layer0016
  6
Continuous
 62
     4
370
    25
100
AcDbLine
 10
82.97986220892722
 20
36.64169056019365
 30
0.0
 11
80.31319570120633
 21
36.64169056019365
 31
0.0
  0
LINE
  5
181
330
8E
100
AcDbEntity
  8
Layer0016
  6
Continuous
 62
     4
370
    25
100
AcDbLine
 10
82.97986220892722
 20
37.64169119597655
 30
0.0
 11
79.6465288755939
 21
37.64169119597655
 31
0.0
  0
LINE
  5
182
330
8E
100
AcDbEntity
  8
Layer0016
  6
Continuous
 62
     4
370
    25
100
AcDbLine
 10
82.97986220892722
 20
38.64169183175942
 30
0.0
 11
80.31319570120633
 21
38.64169183175942
 31
0.0
  0
LINE
  5
183
330
8E
100
AcDbEntity
  8
Layer0016
  6
Continuous
 62
     4
370
    25
100
AcDbLine
 10
82.97986220892722
 20
39.6416908780851
 30
0.0
 11
80.31319570120633
 21
39.6416908780851
 31
0.0
  0
LINE
  5
184
330
8E
100
AcDbEntity
  8
Layer0016
  6
Continuous
 62
     4
370
    25
100
AcDbLine
 10
84.97986268576437
 20
36.97502516509276
 30
0.0
 11
84.97986268576437
 21
39.30835786264321
 31
0.0
  0
LINE
  5
185
330
8E
100
AcDbEntity
  8
Layer0016
  6
Continuous
 62
     4
370
    25
100
AcDbLine
 10
79.60608911093533
 20
37.14169087808513
 30
0.0
 11
78.56640529211819
 21
37.14169087808513
 31
0.0
  0
ARC
  5
186
330
8E
100
AcDbEntity
  8
Layer0016
  6
Continuous
 62
     4
370
    25
100
AcDbCircle
 10
79.60608911093533
 20
36.89169151386797
 30
0.0
 40
0.2499999999999999
100
AcDbArc
 50
19.47122063449132
 51
89.99999999999987
  0
ARC
  5
187
330
8E
100
AcDbEntity
  8
Layer0016
  6
Continuous
 62
     4
370
    25
100
AcDbCircle
 10
78.56640529211819
 20
36.89169151386797
 30
0.0
 40
0.2499999999999999
100
AcDbArc
 50
89.99999999999987
 51
184.4117257857816
  0
LINE
  5
188
330
8E
100
AcDbEntity
  8
Layer0016
  6
Continuous
 62
     4
370
    25
100
AcDbLine
 10
78.31319601909766
 20
39.30948549974129
 30
0.0
 11
78.31319601909766
 21
38.97389721010329
 31
0.0
  0
ARC
  5
189
330
8E
100
AcDbEntity
  8
Layer0016
  6
Continuous
 62
     4
370
    25
100
AcDbCircle
 10
79.6465288755939
 20
38.97502484720131
 30
0.0
 40
1.333333333333333
100
AcDbArc
 50
179.9515433593171
 51
270.0000000000018
  0
ENDBLK
  5
90
330
8E
100
AcDbEntity
  8
0
100
AcDbBlockEnd
  0
BLOCK
  5
92
330
91
100
AcDbEntity
  8
0
100
AcDbBlockBegin
  2
DC_FILL_GROUP_10
 70
     0
 10
0.0
 20
0.0
 30
0.0
  3
DC_FILL_GROUP_10
  1

  0
LINE
  5
18A
330
91
100
AcDbEntity
  8
Layer0016
  6
Continuous
 62
     4
370
    25
100
AcDbLine
 10
53.14316410098391
 20
18.61678466425379
 30
0.0
 11
56.93483092659622
 21
18.61678466425379
 31
0.0
  0
LINE
  5
18B
330
91
100
AcDbEntity
  8
Layer0016
  6
Continuous
 62
     4
370
    25
100
AcDbLine
 10
58.22649775220864
 20
23.61678466425379
 30
0.0
 11
52.05983060870486
 21
23.61678466425379
 31
0.0
  0
ARC
  5
18C
330
91
100
AcDbEntity
  8
Layer0016
  6
Continuous
 62
     4
370
    25
100
AcDbCircle
 10
58.22649775220864
 20
23.36678530003668
 30
0.0
 40
0.2499999999999999
100
AcDbArc
 50
359.9999999999996
 51
89.99999999999984
  0
ARC
  5
18D
330
91
100
AcDbEntity
  8
Layer0016
  6
Continuous
 62
     4
370
    25
100
AcDbCircle
 10
52.05983060870486
 20
23.36678530003668
 30
0.0
 40
0.2499999999999999
100
AcDbArc
 50
89.99999999999973
 51
180.1292177333849
  0
ARC
  5
18E
330
91
100
AcDbEntity
  8
Layer0016
  6
Continuous
 62
     4
370
    25
100
AcDbCircle
 10
53.14316410098391
 20
19.95011990493576
 30
0.0
 40
1.333333333333333
100
AcDbArc
 50
176.4167330500752
 51
270.0
  0
ARC
  5
18F
330
91
100
AcDbEntity
  8
Layer0016
  6
Continuous
 62
     4
370
    25
100
AcDbCircle
 10
53.80983092659633
 20
20.11678720738531
 30
0.0
 40
0.4999999999999997
100
AcDbArc
 50
189.5942898933701
 51
270.0
  0
LINE
  5
190
330
91
100
AcDbEntity
  8
Layer0016
  6
Continuous
 62
     4
370
    25
100
AcDbLine
 10
58.22706157048086
 20
22.61678720738531
 30
0.0
 11
53.47649791115444
 21
22.61678720738531
 31
0.0
  0
LINE
  5
191
330
91
100
AcDbEntity
  8
Layer0016
  6
Continuous
 62
     4
370
    25
100
AcDbLine
 10
58.47649791115433
 20
22.86678657160242
 30
0.0
 11
58.47649791115433
 21
23.36678530003668
 31
0.0
  0
ARC
  5
192
330
91
100
AcDbEntity
  8
Layer0016
  6
Continuous
 62
     4
370
    25
100
AcDbCircle
 10
58.22649775220864
 20
22.86678657160242
 30
0.0
 40
0.2499999999999999
100
AcDbArc
 50
269.8707822608333
 51
0.0
  0
LINE
  5
193
330
91
100
AcDbEntity
  8
Layer0016
  6
Continuous
 62
     4
370
    25
100
AcDbLine
 10
51.8098312444877
 20
20.78288942002219
 30
0.0
 11
51.8098312444877
 21
23.3673491182836
 31
0.0
  0
LINE
  5
194
330
91
100
AcDbEntity
  8
Layer0016
  6
Continuous
 62
     4
370
    25
100
AcDbLine
 10
53.80983092659633
 20
19.61678530003668
 30
0.0
 11
56.92749637637453
 21
19.61678530003668
 31
0.0
  0
LINE
  5
195
330
91
100
AcDbEntity
  8
Layer0016
  6
Continuous
 62
     4
370
    25
100
AcDbLine
 10
53.31682460040921
 20
20.03345196670334
 30
0.0
 11
51.80983076765065
 21
20.03345196670334
 31
0.0
  0
LINE
  5
196
330
91
100
AcDbEntity
  8
Layer0016
  6
Continuous
 62
     4
370
    25
100
AcDbLine
 10
53.22649775220864
 20
20.53345387405197
 30
0.0
 11
52.05926679044538
 21
20.53345387405197
 31
0.0
  0
ARC
  5
197
330
91
100
AcDbEntity
  8
Layer0016
  6
Continuous
 62
     4
370
    25
100
AcDbCircle
 10
52.05983060870486
 20
20.7834532382691
 30
0.0
 40
0.2499999999999999
100
AcDbArc
 50
179.8707822666151
 51
270.1292177362746
  0
LINE
  5
198
330
91
100
AcDbEntity
  8
Layer0016
  6
Continuous
 62
     4
370
    25
100
AcDbLine
 10
56.92893383619108
 20
20.70011799758713
 30
0.0
 11
53.46219994896572
 21
20.70011799758713
 31
0.0
  0
LINE
  5
199
330
91
100
AcDbEntity
  8
Layer0016
  6
Continuous
 62
     4
370
    25
100
AcDbLine
 10
53.47649791115444
 20
21.70011863337
 30
0.0
 11
53.47649791115444
 21
22.61678720738531
 31
0.0
  0
ARC
  5
19A
330
91
100
AcDbEntity
  8
Layer0016
  6
Continuous
 62
     4
370
    25
100
AcDbCircle
 10
53.22649775220864
 20
20.7834532382691
 30
0.0
 40
0.2499999999999999
100
AcDbArc
 50
270.0000000000019
 51
340.5287793648751
  0
LINE
  5
19B
330
91
100
AcDbEntity
  8
Layer0016
  6
Continuous
 62
     4
370
    25
100
AcDbLine
 10
56.93681099212986
 20
21.70011863337
 30
0.0
 11
53.47649791115444
 21
21.70011863337
 31
0.0
  0
ARC
  5
19C
330
91
100
AcDbEntity
  8
Layer0016
  6
Continuous
 62
     4
370
    25
100
AcDbCircle
 10
56.92749637637453
 20
20.1584532382691
 30
0.0
 40
0.5416666666666664
100
AcDbArc
 50
270.0
 51
90.15205011208332
  0
ARC
  5
19D
330
91
100
AcDbEntity
  8
Layer0016
  6
Continuous
 62
     4
370
    25
100
AcDbCircle
 10
56.93483092659622
 20
20.1584532382691
 30
0.0
 40
1.541666666666666
100
AcDbArc
 50
270.0
 51
90.07358881908849
  0
ENDBLK
  5
93
330
91
100
AcDbEntity
  8
0
100
AcDbBlockEnd
  0
BLOCK
  5
95
330
94
100
AcDbEntity
  8
0
100
AcDbBlockBegin
  2
DC_FILL_GROUP_11
 70
     0
 10
0.0
 20
0.0
 30
0.0
  3
DC_FILL_GROUP_11
  1

  0
LINE
  5
19E
330
94
100
AcDbEntity
  8
Layer0016
  6
Continuous
 62
     4
370
    25
100
AcDbLine
 10
79.64863744230894
 20
23.641691513868
 30
0.0
 11
83.65047902472435
 21
23.641691513868
 31
0.0
  0
ARC
  5
19F
330
94
100
AcDbEntity
  8
Layer0016
  6
Continuous
 62
     4
370
    25
100
AcDbCircle
 10
83.65047902472435
 20
22.30835945210045
 30
0.0
 40
1.333333333333333
100
AcDbArc
 50
0.0
 51
90.00000000000078
  0
ARC
  5
1A0
330
94
100
AcDbEntity
  8
Layer0016
  6
Continuous
 62
     4
370
    25
100
AcDbCircle
 10
83.65047902472435
 20
19.97502675455
 30
0.0
 40
1.333333333333333
100
AcDbArc
 50
269.9999999999987
 51
0.0
  0
LINE
  5
1A1
330
94
100
AcDbEntity
  8
Layer0016
  6
Continuous
 62
     4
370
    25
100
AcDbLine
 10
83.65047902472435
 20
18.64169151386803
 30
0.0
 11
79.65047886577867
 21
18.64169151386803
 31
0.0
  0
ARC
  5
1A2
330
94
100
AcDbEntity
  8
Layer0016
  6
Continuous
 62
     4
370
    25
100
AcDbCircle
 10
79.65047886577867
 20
19.97502675455
 30
0.0
 40
1.333333333333333
100
AcDbArc
 50
179.9515433593169
 51
269.9999999999997
  0
ARC
  5
1A3
330
94
100
AcDbEntity
  8
Layer0016
  6
Continuous
 62
     4
370
    25
100
AcDbCircle
 10
79.65047886577867
 20
22.30835945210045
 30
0.0
 40
1.333333333333333
100
AcDbArc
 50
89.92087063000922
 51
180.0484566406831
  0
LINE
  5
1A4
330
94
100
AcDbEntity
  8
Layer0016
  6
Continuous
 62
     4
370
    25
100
AcDbLine
 10
78.31714600928242
 20
22.30948708919853
 30
0.0
 11
78.31714600928242
 21
19.97389911745192
 31
0.0
  0
LINE
  5
1A5
330
94
100
AcDbEntity
  8
Layer0016
  6
Continuous
 62
     4
370
    25
100
AcDbLine
 10
84.98381267594914
 20
22.30835945210045
 30
0.0
 11
84.98381267594914
 21
19.97502675455
 31
0.0
  0
LINE
  5
1A6
330
94
100
AcDbEntity
  8
Layer0016
  6
Continuous
 62
     4
370
    25
100
AcDbLine
 10
80.31714569139109
 20
22.39169151386803
 30
0.0
 11
82.98381219911198
 21
22.39169151386803
 31
0.0
  0
LINE
  5
1A7
330
94
100
AcDbEntity
  8
Layer0016
  6
Continuous
 62
     4
370
    25
100
AcDbLine
 10
80.31714569139109
 20
19.89169151386803
 30
0.0
 11
82.98381219911198
 21
19.89169151386803
 31
0.0
  0
ARC
  5
1A8
330
94
100
AcDbEntity
  8
Layer0016
  6
Continuous
 62
     4
370
    25
100
AcDbCircle
 10
80.31714569139109
 20
20.30835818053468
 30
0.0
 40
0.4166666666666665
100
AcDbArc
 50
179.9999999999998
 51
270.0000000000036
  0
ARC
  5
1A9
330
94
100
AcDbEntity
  8
Layer0016
  6
Continuous
 62
     4
370
    25
100
AcDbCircle
 10
82.98381219911198
 20
20.30835818053468
 30
0.0
 40
0.4166666666666665
100
AcDbArc
 50
270.0000000000015
 51
0.0
  0
LINE
  5
1AA
330
94
100
AcDbEntity
  8
Layer0016
  6
Continuous
 62
     4
370
    25
100
AcDbLine
 10
79.90047902472435
 20
21.97502484720137
 30
0.0
 11
79.90047902472435
 21
20.30835818053468
 31
0.0
  0
ARC
  5
1AB
330
94
100
AcDbEntity
  8
Layer0016
  6
Continuous
 62
     4
370
    25
100
AcDbCircle
 10
80.31714569139109
 20
21.97502484720137
 30
0.0
 40
0.4166666666666665
100
AcDbArc
 50
90.00000000000173
 51
179.9999999999998
  0
LINE
  5
1AC
330
94
100
AcDbEntity
  8
Layer0016
  6
Continuous
 62
     4
370
    25
100
AcDbLine
 10
83.40047886577867
 20
21.97502484720137
 30
0.0
 11
83.40047886577867
 21
20.30835818053468
 31
0.0
  0
ARC
  5
1AD
330
94
100
AcDbEntity
  8
Layer0016
  6
Continuous
 62
     4
370
    25
100
AcDbCircle
 10
82.98381219911198
 20
21.97502484720137
 30
0.0
 40
0.4166666666666665
100
AcDbArc
 50
0.0
 51
89.9999999999999
  0
ENDBLK
  5
96
330
94
100
AcDbEntity
  8
0
100
AcDbBlockEnd
  0
BLOCK
  5
98
330
97
100
AcDbEntity
  8
0
100
AcDbBlockBegin
  2
DC_FILL_GROUP_12
 70
     0
 10
0.0
 20
0.0
 30
0.0
  3
DC_FILL_GROUP_12
  1

  0
ARC
  5
1AE
330
97
100
AcDbEntity
  8
Layer0016
  6
Continuous
 62
     4
370
    25
100
AcDbCircle
 10
52.40047890551503
 20
2.225025045883484
 30
0.0
 40
0.583333333333333
100
AcDbArc
 50
153.1357808419209
 51
269.9999999999997
  0
ARC
  5
1AF
330
97
100
AcDbEntity
  8
Layer0016
  6
Continuous
 62
     4
370
    25
100
AcDbCircle
 10
57.90047902472432
 20
2.225025045883484
 30
0.0
 40
0.583333333333333
100
AcDbArc
 50
269.9999999999997
 51
26.86421915807059
  0
LINE
  5
1B0
330
97
100
AcDbEntity
  8
Layer0016
  6
Continuous
 62
     4
370
    25
100
AcDbLine
 10
57.90047902472432
 20
1.641691076767273
 30
0.0
 11
57.22859500455471
 21
1.641691076767273
 31
0.0
  0
LINE
  5
1B1
330
97
100
AcDbEntity
  8
Layer0016
  6
Continuous
 62
     4
370
    25
100
AcDbLine
 10
53.07236272700246
 20
1.641691076767273
 30
0.0
 11
52.40047890551503
 21
1.641691076767273
 31
0.0
  0
ARC
  5
1B2
330
97
100
AcDbEntity
  8
Layer0016
  6
Continuous
 62
     4
370
    25
100
AcDbCircle
 10
57.22859500455471
 20
1.891693619898803
 30
0.0
 40
0.2499999999999999
100
AcDbArc
 50
206.8642191580709
 51
269.9999999999997
  0
ARC
  5
1B3
330
97
100
AcDbEntity
  8
Layer0016
  6
Continuous
 62
     4
370
    25
100
AcDbCircle
 10
53.07236272700246
 20
1.891693619898803
 30
0.0
 40
0.2499999999999999
100
AcDbArc
 50
269.9999999999997
 51
333.135780841921
  0
LINE
  5
1B4
330
97
100
AcDbEntity
  8
Layer0016
  6
Continuous
 62
     4
370
    25
100
AcDbLine
 10
56.16353758779783
 20
6.641691076767259
 30
0.0
 11
54.13742024310048
 21
6.641691076767259
 31
0.0
  0
LINE
  5
1B5
330
97
100
AcDbEntity
  8
Layer0016
  6
Continuous
 62
     4
370
    25
100
AcDbLine
 10
53.80169857992794
 20
2.475024410100616
 30
0.0
 11
56.49925906069691
 21
2.475024410100616
 31
0.0
  0
LINE
  5
1B6
330
97
100
AcDbEntity
  8
Layer0016
  6
Continuous
 62
     4
370
    25
100
AcDbLine
 10
54.28127073851843
 20
3.725024410100602
 30
0.0
 11
56.01968714205046
 21
3.725024410100602
 31
0.0
  0
LINE
  5
1B7
330
97
100
AcDbEntity
  8
Layer0016
  6
Continuous
 62
     4
370
    25
100
AcDbLine
 10
53.91440022595341
 20
6.504660793157242
 30
0.0
 11
51.88009896484633
 21
2.488620626938172
 31
0.0
  0
ARC
  5
1B8
330
97
100
AcDbEntity
  8
Layer0016
  6
Continuous
 62
     4
370
    25
100
AcDbCircle
 10
54.13742024310048
 20
6.391691712550156
 30
0.0
 40
0.2499999999999999
100
AcDbArc
 50
89.9999999999999
 51
153.1357808419212
  0
LINE
  5
1B9
330
97
100
AcDbEntity
  8
Layer0016
  6
Continuous
 62
     4
370
    25
100
AcDbLine
 10
56.3865576049449
 20
6.504660793157242
 30
0.0
 11
58.42085896539302
 21
2.488620626938172
 31
0.0
  0
ARC
  5
1BA
330
97
100
AcDbEntity
  8
Layer0016
  6
Continuous
 62
     4
370
    25
100
AcDbCircle
 10
56.16353758779783
 20
6.391691712550156
 30
0.0
 40
0.2499999999999999
100
AcDbArc
 50
26.86421915807106
 51
89.9999999999999
  0
LINE
  5
1BB
330
97
100
AcDbEntity
  8
Layer0016
  6
Continuous
 62
     4
370
    25
100
AcDbLine
 10
53.29538274414952
 20
1.778724539291687
 30
0.0
 11
53.57867882528299
 21
2.33799426908115
 31
0.0
  0
LINE
  5
1BC
330
97
100
AcDbEntity
  8
Layer0016
  6
Continuous
 62
     4
370
    25
100
AcDbLine
 10
54.28127073851843
 20
3.725024410100602
 30
0.0
 11
55.1504789154491
 21
5.440983323267929
 31
0.0
  0
LINE
  5
1BD
330
97
100
AcDbEntity
  8
Layer0016
  6
Continuous
 62
     4
370
    25
100
AcDbLine
 10
55.1504789154491
 20
5.440983323267929
 30
0.0
 11
56.01968714205046
 21
3.725024410100602
 31
0.0
  0
LINE
  5
1BE
330
97
100
AcDbEntity
  8
Layer0016
  6
Continuous
 62
     4
370
    25
100
AcDbLine
 10
56.72227917718502
 20
2.337994126490599
 30
0.0
 11
57.00557508674879
 21
1.778724539291687
 31
0.0
  0
ARC
  5
1BF
330
97
100
AcDbEntity
  8
Layer0016
  6
Continuous
 62
     4
370
    25
100
AcDbCircle
 10
56.49925906069691
 20
2.225025045883484
 30
0.0
 40
0.2499999999999999
100
AcDbArc
 50
26.86421915807108
 51
89.9999999999999
  0
ARC
  5
1C0
330
97
100
AcDbEntity
  8
Layer0016
  6
Continuous
 62
     4
370
    25
100
AcDbCircle
 10
53.80169857992794
 20
2.225024410100559
 30
0.0
 40
0.25
100
AcDbArc
 50
90.0
 51
153.1356693076011
  0
ENDBLK
  5
99
330
97
100
AcDbEntity
  8
0
100
AcDbBlockEnd
  0
BLOCK
  5
9B
330
9A
100
AcDbEntity
  8
0
100
AcDbBlockBegin
  2
DC_FILL_GROUP_13
 70
     0
 10
0.0
 20
0.0
 30
0.0
  3
DC_FILL_GROUP_13
  1

  0
LINE
  5
1C1
330
9A
100
AcDbEntity
  8
Layer0016
  6
Continuous
 62
     4
370
    25
100
AcDbLine
 10
78.56714616822813
 20
6.641691712550156
 30
0.0
 11
83.65047942208861
 21
6.641691712550156
 31
0.0
  0
ARC
  5
1C2
330
9A
100
AcDbEntity
  8
Layer0016
  6
Continuous
 62
     4
370
    25
100
AcDbCircle
 10
78.56714616822813
 20
6.391690758875839
 30
0.0
 40
0.2499999999999999
100
AcDbArc
 50
90.00000000000168
 51
179.9999999999998
  0
ARC
  5
1C3
330
9A
100
AcDbEntity
  8
Layer0016
  6
Continuous
 62
     4
370
    25
100
AcDbCircle
 10
83.65047942208861
 20
5.308358061325393
 30
0.0
 40
1.333333333333333
100
AcDbArc
 50
298.9550243718614
 51
90.00000000000082
  0
ARC
  5
1C4
330
9A
100
AcDbEntity
  8
Layer0016
  6
Continuous
 62
     4
370
    25
100
AcDbCircle
 10
83.65047942208861
 20
2.975025363774918
 30
0.0
 40
1.333333333333333
100
AcDbArc
 50
269.9999999999987
 51
61.04497562813708
  0
LINE
  5
1C5
330
9A
100
AcDbEntity
  8
Layer0016
  6
Continuous
 62
     4
370
    25
100
AcDbLine
 10
83.65047942208861
 20
1.64169171255017
 30
0.0
 11
78.56714600928245
 21
1.64169171255017
 31
0.0
  0
ARC
  5
1C6
330
9A
100
AcDbEntity
  8
Layer0016
  6
Continuous
 62
     4
370
    25
100
AcDbCircle
 10
82.98381279515837
 20
3.141691076767287
 30
0.0
 40
0.4999999999999997
100
AcDbArc
 50
269.92087063001
 51
90.0
  0
ARC
  5
1C7
330
9A
100
AcDbEntity
  8
Layer0016
  6
Continuous
 62
     4
370
    25
100
AcDbCircle
 10
82.98381279515837
 20
5.141690758875839
 30
0.0
 40
0.4999999999999997
100
AcDbArc
 50
269.8707822622858
 51
90.0
  0
LINE
  5
1C8
330
9A
100
AcDbEntity
  8
Layer0016
  6
Continuous
 62
     4
370
    25
100
AcDbLine
 10
79.8171460688871
 20
5.641691076767287
 30
0.0
 11
82.98381279515837
 21
5.641691076767287
 31
0.0
  0
LINE
  5
1C9
330
9A
100
AcDbEntity
  8
Layer0016
  6
Continuous
 62
     4
370
    25
100
AcDbLine
 10
79.8171460688871
 20
4.641692030441604
 30
0.0
 11
82.98494043169
 21
4.641692030441604
 31
0.0
  0
LINE
  5
1CA
330
9A
100
AcDbEntity
  8
Layer0016
  6
Continuous
 62
     4
370
    25
100
AcDbLine
 10
79.8171460688871
 20
3.641691394658707
 30
0.0
 11
82.98381279515837
 21
3.641691394658707
 31
0.0
  0
LINE
  5
1CB
330
9A
100
AcDbEntity
  8
Layer0016
  6
Continuous
 62
     4
370
    25
100
AcDbLine
 10
79.8171460688871
 20
2.641691553604446
 30
0.0
 11
82.98450332895953
 21
2.641691553604446
 31
0.0
  0
LINE
  5
1CC
330
9A
100
AcDbEntity
  8
Layer0016
  6
Continuous
 62
     4
370
    25
100
AcDbLine
 10
78.31714600928242
 20
6.391690758875839
 30
0.0
 11
78.31714600928242
 21
1.89169171255017
 31
0.0
  0
LINE
  5
1CD
330
9A
100
AcDbEntity
  8
Layer0016
  6
Continuous
 62
     4
370
    25
100
AcDbLine
 10
79.8171460688871
 20
5.641691076767287
 30
0.0
 11
79.8171460688871
 21
4.641692030441604
 31
0.0
  0
LINE
  5
1CE
330
9A
100
AcDbEntity
  8
Layer0016
  6
Continuous
 62
     4
370
    25
100
AcDbLine
 10
79.8171460688871
 20
3.641691394658707
 30
0.0
 11
79.8171460688871
 21
2.641691553604446
 31
0.0
  0
ARC
  5
1CF
330
9A
100
AcDbEntity
  8
Layer0016
  6
Continuous
 62
     4
370
    25
100
AcDbCircle
 10
78.56714600928245
 20
1.89169171255017
 30
0.0
 40
0.25
100
AcDbArc
 50
180.0
 51
270.0
  0
ENDBLK
  5
9C
330
9A
100
AcDbEntity
  8
0
100
AcDbBlockEnd
  0
BLOCK
  5
9E
330
9D
100
AcDbEntity
  8
0
100
AcDbBlockBegin
  2
*D14
 70
     1
 10
0.0
 20
0.0
 30
0.0
  3
*D14
  1

  0
LINE
  5
1D0
330
9D
100
AcDbEntity
  8
Layer0016
  6
Continuous
 62
     4
370
    25
100
AcDbLine
 10
233.4004793426158
 20
142.6416913946587
 30
0.0
 11
233.4004793426158
 21
-40.35830860534125
 31
0.0
  0
INSERT
  5
1D7
330
9D
100
AcDbEntity
  8
Layer0016
 62
     4
100
AcDbBlockReference
  2
_OPEN30
 10
233.4004793426158
 20
142.6416913946587
 30
0.0
 41
3.000002787824364
 42
2.999989273978464
 50
90.0
  0
INSERT
  5
1FA
330
9D
100
AcDbEntity
  8
Layer0016
 62
     4
100
AcDbBlockReference
  2
_OPEN30
 10
233.4004793426158
 20
-40.35830860534125
 30
0.0
 41
3.000002787824364
 42
2.999989273978464
 50
270.0
  0
LINE
  5
1FB
330
9D
100
AcDbEntity
  8
Layer0016
  6
Continuous
 62
     4
370
    25
100
AcDbLine
 10
189.4004793426158
 20
142.6416913946587
 30
0.0
 11
234.4004793426158
 21
142.6416913946587
 31
0.0
  0
LINE
  5
1FC
330
9D
100
AcDbEntity
  8
Layer0016
  6
Continuous
 62
     4
370
    25
100
AcDbLine
 10
224.9004793426158
 20
-40.35830860534125
 30
0.0
 11
234.4004793426158
 21
-40.35830860534125
 31
0.0
  0
MTEXT
  5
1FE
330
9D
100
AcDbEntity
  8
Layer0016
 62
     2
100
AcDbMText
 10
232.4004793426158
 20
51.14169139465876
 30
0.0
 40
3.0
 41
12.74999999999999
 71
     8
 72
     1
  1
\T1.00;183
  7
dcStyle0
 11
6.123031769111886E-17
 21
1.0
 31
0.0
 73
     1
 44
1.0
  0
ENDBLK
  5
9F
330
9D
100
AcDbEntity
  8
0
100
AcDbBlockEnd
  0
BLOCK
  5
A1
330
A0
100
AcDbEntity
  8
0
100
AcDbBlockBegin
  2
*D15
 70
     1
 10
0.0
 20
0.0
 30
0.0
  3
*D15
  1

  0
LINE
  5
1FF
330
A0
100
AcDbEntity
  8
Layer0016
  6
Continuous
 62
     4
370
    25
100
AcDbLine
 10
233.4004793426158
 20
-40.35830860534125
 30
0.0
 11
233.4004793426158
 21
-87.35830860534125
 31
0.0
  0
INSERT
  5
200
330
A0
100
AcDbEntity
  8
Layer0016
 62
     4
100
AcDbBlockReference
  2
_OPEN30
 10
233.4004793426158
 20
-40.35830860534125
 30
0.0
 41
3.000002787824364
 42
2.999989273978464
 50
90.0
  0
INSERT
  5
201
330
A0
100
AcDbEntity
  8
Layer0016
 62
     4
100
AcDbBlockReference
  2
_OPEN30
 10
233.4004793426158
 20
-87.35830860534125
 30
0.0
 41
3.000002787824364
 42
2.999989273978464
 50
270.0
  0
LINE
  5
202
330
A0
100
AcDbEntity
  8
Layer0016
  6
Continuous
 62
     4
370
    25
100
AcDbLine
 10
224.9004793426158
 20
-40.35830860534125
 30
0.0
 11
234.4004793426158
 21
-40.35830860534125
 31
0.0
  0
LINE
  5
203
330
A0
100
AcDbEntity
  8
Layer0016
  6
Continuous
 62
     4
370
    25
100
AcDbLine
 10
189.4004793426158
 20
-87.35830860534125
 30
0.0
 11
234.4004793426158
 21
-87.35830860534125
 31
0.0
  0
MTEXT
  5
204
330
A0
100
AcDbEntity
  8
Layer0016
 62
     2
100
AcDbMText
 10
232.4004793426158
 20
-63.85830860534125
 30
0.0
 40
3.0
 41
9.750000000000014
 71
     8
 72
     1
  1
\T1.00;47
  7
dcStyle0
 11
6.123031769111886E-17
 21
1.0
 31
0.0
 73
     1
 44
1.0
  0
ENDBLK
  5
A2
330
A0
100
AcDbEntity
  8
0
100
AcDbBlockEnd
  0
BLOCK
  5
A4
330
A3
100
AcDbEntity
  8
0
100
AcDbBlockBegin
  2
*D16
 70
     1
 10
0.0
 20
0.0
 30
0.0
  3
*D16
  1

  0
LINE
  5
205
330
A3
100
AcDbEntity
  8
Layer0016
  6
Continuous
 62
     4
370
    25
100
AcDbLine
 10
189.4004793426158
 20
-87.35830860534125
 30
0.0
 11
242.4004793426158
 21
-87.35830860534125
 31
0.0
  0
LINE
  5
206
330
A3
100
AcDbEntity
  8
Layer0016
  6
Continuous
 62
     4
370
    25
100
AcDbLine
 10
189.4004793426158
 20
142.6416913946587
 30
0.0
 11
242.4004793426158
 21
142.6416913946587
 31
0.0
  0
LINE
  5
207
330
A3
100
AcDbEntity
  8
Layer0016
  6
Continuous
 62
     4
370
    25
100
AcDbLine
 10
241.4004793426158
 20
-87.35830860534125
 30
0.0
 11
241.4004793426158
 21
142.6416913946587
 31
0.0
  0
INSERT
  5
208
330
A3
100
AcDbEntity
  8
Layer0016
 62
     4
100
AcDbBlockReference
  2
_OPEN30
 10
241.4004793426158
 20
-87.35830860534125
 30
0.0
 41
3.000002787824364
 42
2.999989273978464
 50
270.0
  0
INSERT
  5
209
330
A3
100
AcDbEntity
  8
Layer0016
 62
     4
100
AcDbBlockReference
  2
_OPEN30
 10
241.4004793426158
 20
142.6416913946587
 30
0.0
 41
3.000002787824364
 42
2.999989273978464
 50
90.0
  0
MTEXT
  5
20A
330
A3
100
AcDbEntity
  8
Layer0016
 62
     2
100
AcDbMText
 10
240.4004793426158
 20
27.64169139465876
 30
0.0
 40
3.0
 41
12.74999999999999
 71
     8
 72
     1
  1
\T1.00;230
  7
dcStyle0
 11
6.123031769111886E-17
 21
1.0
 31
0.0
 73
     1
 44
1.0
  0
ENDBLK
  5
A5
330
A3
100
AcDbEntity
  8
0
100
AcDbBlockEnd
  0
BLOCK
  5
A7
330
A6
100
AcDbEntity
  8
0
100
AcDbBlockBegin
  2
*D17
 70
     1
 10
0.0
 20
0.0
 30
0.0
  3
*D17
  1

  0
LINE
  5
20B
330
A6
100
AcDbEntity
  8
Layer0016
  6
Continuous
 62
     4
370
    25
100
AcDbLine
 10
218.4004793426158
 20
113.6416913946588
 30
0.0
 11
218.4004793426158
 21
158.6416913946587
 31
0.0
  0
LINE
  5
20C
330
A6
100
AcDbEntity
  8
Layer0016
  6
Continuous
 62
     4
370
    25
100
AcDbLine
 10
158.4004793426158
 20
113.6416913946588
 30
0.0
 11
158.4004793426157
 21
158.6416913946587
 31
0.0
  0
LINE
  5
20D
330
A6
100
AcDbEntity
  8
Layer0016
  6
Continuous
 62
     4
370
    25
100
AcDbLine
 10
218.4004793426158
 20
157.6416913946587
 30
0.0
 11
158.4004793426157
 21
157.6416913946587
 31
0.0
  0
INSERT
  5
20E
330
A6
100
AcDbEntity
  8
Layer0016
 62
     4
100
AcDbBlockReference
  2
_OPEN30
 10
218.4004793426158
 20
157.6416913946587
 30
0.0
 41
3.000002787824364
 42
2.999989273978464
 50
360.0
  0
INSERT
  5
20F
330
A6
100
AcDbEntity
  8
Layer0016
 62
     4
100
AcDbBlockReference
  2
_OPEN30
 10
158.4004793426157
 20
157.6416913946587
 30
0.0
 41
3.000002787824364
 42
2.999989273978464
 50
180.0
  0
MTEXT
  5
210
330
A6
100
AcDbEntity
  8
Layer0016
 62
     2
100
AcDbMText
 10
188.4004793426158
 20
158.6416913946587
 30
0.0
 40
3.0
 41
9.750000000000014
 71
     8
 72
     1
  1
\T1.00;60
  7
dcStyle0
 73
     1
 44
1.0
  0
ENDBLK
  5
A8
330
A6
100
AcDbEntity
  8
0
100
AcDbBlockEnd
  0
BLOCK
  5
AA
330
A9
100
AcDbEntity
  8
0
100
AcDbBlockBegin
  2
*D18
 70
     1
 10
0.0
 20
0.0
 30
0.0
  3
*D18
  1

  0
LINE
  5
211
330
A9
100
AcDbEntity
  8
Layer0016
  6
Continuous
 62
     4
370
    25
100
AcDbLine
 10
48.40047934261585
 20
113.6416913946588
 30
0.0
 11
48.40047934261585
 21
158.6416913946588
 31
0.0
  0
LINE
  5
212
330
A9
100
AcDbEntity
  8
Layer0016
  6
Continuous
 62
     4
370
    25
100
AcDbLine
 10
88.40047934261582
 20
113.6416913946588
 30
0.0
 11
88.40047934261582
 21
158.6416913946588
 31
0.0
  0
LINE
  5
213
330
A9
100
AcDbEntity
  8
Layer0016
  6
Continuous
 62
     4
370
    25
100
AcDbLine
 10
48.40047934261585
 20
157.6416913946588
 30
0.0
 11
88.40047934261582
 21
157.6416913946588
 31
0.0
  0
INSERT
  5
214
330
A9
100
AcDbEntity
  8
Layer0016
 62
     4
100
AcDbBlockReference
  2
_OPEN30
 10
48.40047934261585
 20
157.6416913946588
 30
0.0
 41
3.000002787824364
 42
2.999989273978464
 50
180.0
  0
INSERT
  5
215
330
A9
100
AcDbEntity
  8
Layer0016
 62
     4
100
AcDbBlockReference
  2
_OPEN30
 10
88.40047934261582
 20
157.6416913946588
 30
0.0
 41
3.000002787824364
 42
2.999989273978464
 50
360.0
  0
MTEXT
  5
216
330
A9
100
AcDbEntity
  8
Layer0016
 62
     2
100
AcDbMText
 10
68.40047934261584
 20
158.6416913946588
 30
0.0
 40
3.0
 41
9.750000000000014
 71
     8
 72
     1
  1
\T1.00;40
  7
dcStyle0
 73
     1
 44
1.0
  0
ENDBLK
  5
AB
330
A9
100
AcDbEntity
  8
0
100
AcDbBlockEnd
  0
BLOCK
  5
AD
330
AC
100
AcDbEntity
  8
0
100
AcDbBlockBegin
  2
*D19
 70
     1
 10
0.0
 20
0.0
 30
0.0
  3
*D19
  1

  0
LINE
  5
217
330
AC
100
AcDbEntity
  8
Layer0016
  6
Continuous
 62
     4
370
    25
100
AcDbLine
 10
113.4004793426158
 20
-77.35830860534125
 30
0.0
 11
113.4004793426158
 21
-40.35830860534125
 31
0.0
  0
INSERT
  5
218
330
AC
100
AcDbEntity
  8
Layer0016
 62
     4
100
AcDbBlockReference
  2
_OPEN30
 10
113.4004793426158
 20
-77.35830860534125
 30
0.0
 41
3.000002787824364
 42
2.999989273978464
 50
270.0
  0
INSERT
  5
219
330
AC
100
AcDbEntity
  8
Layer0016
 62
     4
100
AcDbBlockReference
  2
_OPEN30
 10
113.4004793426158
 20
-40.35830860534125
 30
0.0
 41
3.000002787824364
 42
2.999989273978464
 50
90.0
  0
LINE
  5
21A
330
AC
100
AcDbEntity
  8
Layer0016
  6
Continuous
 62
     4
370
    25
100
AcDbLine
 10
69.40047934261585
 20
-77.35830860534125
 30
0.0
 11
114.4004793426158
 21
-77.35830860534125
 31
0.0
  0
LINE
  5
21B
330
AC
100
AcDbEntity
  8
Layer0016
  6
Continuous
 62
     4
370
    25
100
AcDbLine
 10
107.4004793426158
 20
-40.35830860534125
 30
0.0
 11
114.4004793426158
 21
-40.35830860534125
 31
0.0
  0
MTEXT
  5
21C
330
AC
100
AcDbEntity
  8
Layer0016
 62
     2
100
AcDbMText
 10
112.4004793426158
 20
-58.85830860534126
 30
0.0
 40
3.0
 41
9.750000000000014
 71
     8
 72
     1
  1
\T1.00;37
  7
dcStyle0
 11
6.123031769111886E-17
 21
1.0
 31
0.0
 73
     1
 44
1.0
  0
ENDBLK
  5
AE
330
AC
100
AcDbEntity
  8
0
100
AcDbBlockEnd
  0
BLOCK
  5
B0
330
AF
100
AcDbEntity
  8
0
100
AcDbBlockBegin
  2
*D20
 70
     1
 10
0.0
 20
0.0
 30
0.0
  3
*D20
  1

  0
LINE
  5
21D
330
AF
100
AcDbEntity
  8
Layer0016
  6
Continuous
 62
     4
370
    25
100
AcDbLine
 10
113.4004793426158
 20
-40.35830860534125
 30
0.0
 11
113.4004793426158
 21
132.6416913946588
 31
0.0
  0
INSERT
  5
21E
330
AF
100
AcDbEntity
  8
Layer0016
 62
     4
100
AcDbBlockReference
  2
_OPEN30
 10
113.4004793426158
 20
-40.35830860534125
 30
0.0
 41
3.000002787824364
 42
2.999989273978464
 50
270.0
  0
INSERT
  5
21F
330
AF
100
AcDbEntity
  8
Layer0016
 62
     4
100
AcDbBlockReference
  2
_OPEN30
 10
113.4004793426158
 20
132.6416913946588
 30
0.0
 41
3.000002787824364
 42
2.999989273978464
 50
90.0
  0
LINE
  5
220
330
AF
100
AcDbEntity
  8
Layer0016
  6
Continuous
 62
     4
370
    25
100
AcDbLine
 10
107.4004793426158
 20
-40.35830860534125
 30
0.0
 11
114.4004793426158
 21
-40.35830860534125
 31
0.0
  0
LINE
  5
221
330
AF
100
AcDbEntity
  8
Layer0016
  6
Continuous
 62
     4
370
    25
100
AcDbLine
 10
69.40047934261585
 20
132.6416913946588
 30
0.0
 11
114.4004793426158
 21
132.6416913946588
 31
0.0
  0
MTEXT
  5
222
330
AF
100
AcDbEntity
  8
Layer0016
 62
     2
100
AcDbMText
 10
112.4004793426158
 20
46.14169139465876
 30
0.0
 40
3.0
 41
12.74999999999999
 71
     8
 72
     1
  1
\T1.00;173
  7
dcStyle0
 11
6.123031769111886E-17
 21
1.0
 31
0.0
 73
     1
 44
1.0
  0
ENDBLK
  5
B1
330
AF
100
AcDbEntity
  8
0
100
AcDbBlockEnd
  0
BLOCK
  5
B3
330
B2
100
AcDbEntity
  8
0
100
AcDbBlockBegin
  2
*D21
 70
     1
 10
0.0
 20
0.0
 30
0.0
  3
*D21
  1

  0
LINE
  5
223
330
B2
100
AcDbEntity
  8
Layer0016
  6
Continuous
 62
     4
370
    25
100
AcDbLine
 10
69.40047934261585
 20
-77.35830860534125
 30
0.0
 11
122.4004793426158
 21
-77.35830860534125
 31
0.0
  0
LINE
  5
224
330
B2
100
AcDbEntity
  8
Layer0016
  6
Continuous
 62
     4
370
    25
100
AcDbLine
 10
69.40047934261585
 20
132.6416913946588
 30
0.0
 11
122.4004793426158
 21
132.6416913946588
 31
0.0
  0
LINE
  5
225
330
B2
100
AcDbEntity
  8
Layer0016
  6
Continuous
 62
     4
370
    25
100
AcDbLine
 10
121.4004793426158
 20
-77.35830860534125
 30
0.0
 11
121.4004793426158
 21
132.6416913946588
 31
0.0
  0
INSERT
  5
226
330
B2
100
AcDbEntity
  8
Layer0016
 62
     4
100
AcDbBlockReference
  2
_OPEN30
 10
121.4004793426158
 20
-77.35830860534125
 30
0.0
 41
3.000002787824364
 42
2.999989273978464
 50
270.0
  0
INSERT
  5
227
330
B2
100
AcDbEntity
  8
Layer0016
 62
     4
100
AcDbBlockReference
  2
_OPEN30
 10
121.4004793426158
 20
132.6416913946588
 30
0.0
 41
3.000002787824364
 42
2.999989273978464
 50
90.0
  0
MTEXT
  5
228
330
B2
100
AcDbEntity
  8
Layer0016
 62
     2
100
AcDbMText
 10
120.4004793426158
 20
27.64169139465876
 30
0.0
 40
3.0
 41
12.74999999999999
 71
     8
 72
     1
  1
\T1.00;210
  7
dcStyle0
 11
6.123031769111886E-17
 21
1.0
 31
0.0
 73
     1
 44
1.0
  0
ENDBLK
  5
B4
330
B2
100
AcDbEntity
  8
0
100
AcDbBlockEnd
  0
BLOCK
  5
B6
330
B5
100
AcDbEntity
  8
0
100
AcDbBlockBegin
  2
*D22
 70
     1
 10
0.0
 20
0.0
 30
0.0
  3
*D22
  1

  0
LINE
  5
229
330
B5
100
AcDbEntity
  8
Layer0016
  6
Continuous
 62
     4
370
    25
100
AcDbLine
 10
-166.5995206573841
 20
121.6416913946513
 30
0.0
 11
-166.5995206573841
 21
158.6416913946588
 31
0.0
  0
LINE
  5
22A
330
B5
100
AcDbEntity
  8
Layer0016
  6
Continuous
 62
     4
370
    25
100
AcDbLine
 10
-196.5995206573841
 20
121.6416913946513
 30
0.0
 11
-196.5995206573841
 21
158.6416913946588
 31
0.0
  0
LINE
  5
22B
330
B5
100
AcDbEntity
  8
Layer0016
  6
Continuous
 62
     4
370
    25
100
AcDbLine
 10
-166.5995206573841
 20
157.6416913946588
 30
0.0
 11
-196.5995206573841
 21
157.6416913946588
 31
0.0
  0
INSERT
  5
22C
330
B5
100
AcDbEntity
  8
Layer0016
 62
     4
100
AcDbBlockReference
  2
_OPEN30
 10
-166.5995206573841
 20
157.6416913946588
 30
0.0
 41
3.000002787824364
 42
2.999989273978464
 50
360.0
  0
INSERT
  5
22D
330
B5
100
AcDbEntity
  8
Layer0016
 62
     4
100
AcDbBlockReference
  2
_OPEN30
 10
-196.5995206573841
 20
157.6416913946588
 30
0.0
 41
3.000002787824364
 42
2.999989273978464
 50
180.0
  0
MTEXT
  5
22E
330
B5
100
AcDbEntity
  8
Layer0016
 62
     2
100
AcDbMText
 10
-181.5995206573841
 20
158.6416913946588
 30
0.0
 40
3.0
 41
12.74999999999999
 71
     8
 72
     1
  1
\T1.00;φ30
  7
dcStyle0
 73
     1
 44
1.0
  0
ENDBLK
  5
B7
330
B5
100
AcDbEntity
  8
0
100
AcDbBlockEnd
  0
BLOCK
  5
B9
330
B8
100
AcDbEntity
  8
0
100
AcDbBlockBegin
  2
*D23
 70
     1
 10
0.0
 20
0.0
 30
0.0
  3
*D23
  1

  0
LINE
  5
22F
330
B8
100
AcDbEntity
  8
Layer0016
  6
Continuous
 62
     4
370
    25
100
AcDbLine
 10
-220.599520657384
 20
-40.35830860533469
 30
0.0
 11
-235.599520657384
 21
-40.35830860533469
 31
0.0
  0
LINE
  5
230
330
B8
100
AcDbEntity
  8
Layer0016
  6
Continuous
 62
     4
370
    25
100
AcDbLine
 10
-205.5995206573841
 20
120.6416913946513
 30
0.0
 11
-235.599520657384
 21
120.6416913946513
 31
0.0
  0
LINE
  5
231
330
B8
100
AcDbEntity
  8
Layer0016
  6
Continuous
 62
     4
370
    25
100
AcDbLine
 10
-234.599520657384
 20
120.6416913946513
 30
0.0
 11
-234.599520657384
 21
-40.35830860533469
 31
0.0
  0
INSERT
  5
232
330
B8
100
AcDbEntity
  8
Layer0016
 62
     4
100
AcDbBlockReference
  2
_OPEN30
 10
-234.599520657384
 20
120.6416913946513
 30
0.0
 41
3.000002787824364
 42
2.999989273978464
 50
90.0
  0
INSERT
  5
233
330
B8
100
AcDbEntity
  8
Layer0016
 62
     4
100
AcDbBlockReference
  2
_OPEN30
 10
-234.599520657384
 20
-40.35830860533469
 30
0.0
 41
3.000002787824364
 42
2.999989273978464
 50
270.0
  0
MTEXT
  5
234
330
B8
100
AcDbEntity
  8
Layer0016
 62
     2
100
AcDbMText
 10
-235.599520657384
 20
40.14169139465832
 30
0.0
 40
3.0
 41
12.74999999999999
 71
     8
 72
     1
  1
\T1.00;161
  7
dcStyle0
 11
6.123031769111886E-17
 21
1.0
 31
0.0
 73
     1
 44
1.0
  0
ENDBLK
  5
BA
330
B8
100
AcDbEntity
  8
0
100
AcDbBlockEnd
  0
BLOCK
  5
BC
330
BB
100
AcDbEntity
  8
0
100
AcDbBlockBegin
  2
*D24
 70
     1
 10
0.0
 20
0.0
 30
0.0
  3
*D24
  1

  0
LINE
  5
235
330
BB
100
AcDbEntity
  8
Layer0016
  6
Continuous
 62
     4
370
    25
100
AcDbLine
 10
-163.5995206573841
 20
-41.35830860534531
 30
0.0
 11
-163.5995206573841
 21
-103.3583086053413
 31
0.0
  0
LINE
  5
236
330
BB
100
AcDbEntity
  8
Layer0016
  6
Continuous
 62
     4
370
    25
100
AcDbLine
 10
-208.5995206573841
 20
-41.35830860534137
 30
0.0
 11
-208.5995206573841
 21
-103.3583086053413
 31
0.0
  0
LINE
  5
237
330
BB
100
AcDbEntity
  8
Layer0016
  6
Continuous
 62
     4
370
    25
100
AcDbLine
 10
-208.5995206573841
 20
-102.3583086053413
 30
0.0
 11
-163.5995206573841
 21
-102.3583086053413
 31
0.0
  0
INSERT
  5
238
330
BB
100
AcDbEntity
  8
Layer0016
 62
     4
100
AcDbBlockReference
  2
_OPEN30
 10
-208.5995206573841
 20
-102.3583086053413
 30
0.0
 41
3.000002787824364
 42
2.999989273978464
 50
180.0
  0
INSERT
  5
239
330
BB
100
AcDbEntity
  8
Layer0016
 62
     4
100
AcDbBlockReference
  2
_OPEN30
 10
-163.5995206573841
 20
-102.3583086053413
 30
0.0
 41
3.000002787824364
 42
2.999989273978464
 50
360.0
  0
MTEXT
  5
23A
330
BB
100
AcDbEntity
  8
Layer0016
 62
     2
100
AcDbMText
 10
-186.0995206573841
 20
-101.3583086053413
 30
0.0
 40
3.0
 41
12.74999999999999
 71
     8
 72
     1
  1
\T1.00;φ45
  7
dcStyle0
 73
     1
 44
1.0
  0
ENDBLK
  5
BD
330
BB
100
AcDbEntity
  8
0
100
AcDbBlockEnd
  0
BLOCK
  5
BF
330
BE
100
AcDbEntity
  8
0
100
AcDbBlockBegin
  2
*D25
 70
     1
 10
0.0
 20
0.0
 30
0.0
  3
*D25
  1

  0
LINE
  5
23B
330
BE
100
AcDbEntity
  8
Layer0016
  6
Continuous
 62
     4
370
    25
100
AcDbLine
 10
-226.599520657384
 20
-51.85830860534137
 30
0.0
 11
-226.599520657384
 21
-40.35830860533469
 31
0.0
  0
INSERT
  5
23C
330
BE
100
AcDbEntity
  8
Layer0016
 62
     4
100
AcDbBlockReference
  2
_OPEN30
 10
-226.599520657384
 20
-51.85830860534137
 30
0.0
 41
3.000002787824364
 42
2.999989273978464
 50
270.0
  0
INSERT
  5
23D
330
BE
100
AcDbEntity
  8
Layer0016
 62
     4
100
AcDbBlockReference
  2
_OPEN30
 10
-226.599520657384
 20
-40.35830860533469
 30
0.0
 41
3.000002787824364
 42
2.999989273978464
 50
90.0
  0
LINE
  5
23E
330
BE
100
AcDbEntity
  8
Layer0016
  6
Continuous
 62
     4
370
    25
100
AcDbLine
 10
-190.5995225647327
 20
-51.85830860534137
 30
0.0
 11
-227.599520657384
 21
-51.85830860534137
 31
0.0
  0
LINE
  5
23F
330
BE
100
AcDbEntity
  8
Layer0016
  6
Continuous
 62
     4
370
    25
100
AcDbLine
 10
-220.599520657384
 20
-40.35830860533469
 30
0.0
 11
-227.599520657384
 21
-40.35830860533469
 31
0.0
  0
MTEXT
  5
240
330
BE
100
AcDbEntity
  8
Layer0016
 62
     2
100
AcDbMText
 10
-227.599520657384
 20
-46.10830860533803
 30
0.0
 40
3.0
 41
15.75000000000003
 71
     8
 72
     1
  1
\T1.00;11.5
  7
dcStyle0
 11
6.123031769111886E-17
 21
1.0
 31
0.0
 73
     1
 44
1.0
  0
ENDBLK
  5
C0
330
BE
100
AcDbEntity
  8
0
100
AcDbBlockEnd
  0
BLOCK
  5
C2
330
C1
100
AcDbEntity
  8
0
100
AcDbBlockBegin
  2
*D26
 70
     1
 10
0.0
 20
0.0
 30
0.0
  3
*D26
  1

  0
LINE
  5
241
330
C1
100
AcDbEntity
  8
Layer0016
  6
Continuous
 62
     4
370
    25
100
AcDbLine
 10
-226.599520657384
 20
-40.35830860533469
 30
0.0
 11
-226.599520657384
 21
-28.85830860534137
 31
0.0
  0
INSERT
  5
242
330
C1
100
AcDbEntity
  8
Layer0016
 62
     4
100
AcDbBlockReference
  2
_OPEN30
 10
-226.599520657384
 20
-40.35830860533469
 30
0.0
 41
3.000002787824364
 42
2.999989273978464
 50
270.0
  0
INSERT
  5
243
330
C1
100
AcDbEntity
  8
Layer0016
 62
     4
100
AcDbBlockReference
  2
_OPEN30
 10
-226.599520657384
 20
-28.85830860534137
 30
0.0
 41
3.000002787824364
 42
2.999989273978464
 50
90.0
  0
LINE
  5
244
330
C1
100
AcDbEntity
  8
Layer0016
  6
Continuous
 62
     4
370
    25
100
AcDbLine
 10
-220.599520657384
 20
-40.35830860533469
 30
0.0
 11
-227.599520657384
 21
-40.35830860533469
 31
0.0
  0
LINE
  5
245
330
C1
100
AcDbEntity
  8
Layer0016
  6
Continuous
 62
     4
370
    25
100
AcDbLine
 10
-190.5995225647327
 20
-28.85830860534136
 30
0.0
 11
-227.599520657384
 21
-28.85830860534137
 31
0.0
  0
MTEXT
  5
246
330
C1
100
AcDbEntity
  8
Layer0016
 62
     2
100
AcDbMText
 10
-227.599520657384
 20
-34.60830860533803
 30
0.0
 40
3.0
 41
15.75000000000003
 71
     8
 72
     1
  1
\T1.00;11.5
  7
dcStyle0
 11
6.123031769111886E-17
 21
1.0
 31
0.0
 73
     1
 44
1.0
  0
ENDBLK
  5
C3
330
C1
100
AcDbEntity
  8
0
100
AcDbBlockEnd
  0
BLOCK
  5
C5
330
C4
100
AcDbEntity
  8
0
100
AcDbBlockBegin
  2
*D27
 70
     1
 10
0.0
 20
0.0
 30
0.0
  3
*D27
  1

  0
LINE
  5
247
330
C4
100
AcDbEntity
  8
Layer0016
  6
Continuous
 62
     4
370
    25
100
AcDbLine
 10
-54.64403104314081
 20
-88.35830860534125
 30
0.0
 11
-54.64403104314081
 21
-103.3583086053413
 31
0.0
  0
LINE
  5
248
330
C4
100
AcDbEntity
  8
Layer0016
  6
Continuous
 62
     4
370
    25
100
AcDbLine
 10
-27.14403104314081
 20
-65.5298814805951
 30
0.0
 11
-27.14403104314081
 21
-103.3583086053413
 31
0.0
  0
LINE
  5
249
330
C4
100
AcDbEntity
  8
Layer0016
  6
Continuous
 62
     4
370
    25
100
AcDbLine
 10
-54.64403104314081
 20
-102.3583086053413
 30
0.0
 11
-27.14403104314081
 21
-102.3583086053413
 31
0.0
  0
INSERT
  5
24A
330
C4
100
AcDbEntity
  8
Layer0016
 62
     4
100
AcDbBlockReference
  2
_OPEN30
 10
-54.64403104314081
 20
-102.3583086053413
 30
0.0
 41
3.000002787824364
 42
2.999989273978464
 50
180.0
  0
INSERT
  5
24B
330
C4
100
AcDbEntity
  8
Layer0016
 62
     4
100
AcDbBlockReference
  2
_OPEN30
 10
-27.14403104314081
 20
-102.3583086053413
 30
0.0
 41
3.000002787824364
 42
2.999989273978464
 50
360.0
  0
MTEXT
  5
24C
330
C4
100
AcDbEntity
  8
Layer0016
 62
     2
100
AcDbMText
 10
-40.89403104314081
 20
-101.3583086053413
 30
0.0
 40
3.0
 41
15.74999999999999
 71
     8
 72
     1
  1
\T1.00;27.5
  7
dcStyle0
 73
     1
 44
1.0
  0
ENDBLK
  5
C6
330
C4
100
AcDbEntity
  8
0
100
AcDbBlockEnd
  0
BLOCK
  5
C8
330
C7
100
AcDbEntity
  8
0
100
AcDbBlockBegin
  2
*D28
 70
     1
 10
0.0
 20
0.0
 30
0.0
  3
*D28
  1

  0
LINE
  5
24D
330
C7
100
AcDbEntity
  8
Layer0016
  6
Continuous
 62
     4
370
    25
100
AcDbLine
 10
-55.64403104314086
 20
157.6416913946588
 30
0.0
 11
-54.64403104314081
 21
157.6416913946588
 31
0.0
  0
LINE
  5
24E
330
C7
100
AcDbEntity
  8
Layer0016
  6
Continuous
 62
     4
370
    25
100
AcDbLine
 10
-55.64403104314086
 20
143.6416913946588
 30
0.0
 11
-55.64403104314086
 21
158.6416913946588
 31
0.0
  0
LINE
  5
24F
330
C7
100
AcDbEntity
  8
Layer0016
  6
Continuous
 62
     4
370
    25
100
AcDbLine
 10
-54.64403104314081
 20
143.6416913946588
 30
0.0
 11
-54.64403104314081
 21
158.6416913946588
 31
0.0
  0
LINE
  5
250
330
C7
100
AcDbEntity
  8
Layer0016
  6
Continuous
 62
     4
370
    25
100
AcDbLine
 10
-67.74181104314086
 20
157.6416913946588
 30
0.0
 11
-55.64403104314086
 21
157.6416913946588
 31
0.0
  0
INSERT
  5
251
330
C7
100
AcDbEntity
  8
Layer0016
 62
     4
100
AcDbBlockReference
  2
_OPEN30
 10
-55.64403104314086
 20
157.6416913946588
 30
0.0
 41
3.000002787824364
 42
2.999989273978464
 50
360.0
  0
MTEXT
  5
252
330
C7
100
AcDbEntity
  8
Layer0016
 62
     2
100
AcDbMText
 10
-59.54181104314085
 20
158.6416913946588
 30
0.0
 40
3.0
 41
12.75
 71
     9
 72
     1
  1
\T1.00;t=1
  7
dcStyle0
 73
     1
 44
1.0
  0
ENDBLK
  5
C9
330
C7
100
AcDbEntity
  8
0
100
AcDbBlockEnd
  0
BLOCK
  5
CB
330
CA
100
AcDbEntity
  8
0
100
AcDbBlockBegin
  2
*D29
 70
     1
 10
0.0
 20
0.0
 30
0.0
  3
*D29
  1

  0
LINE
  5
253
330
CA
100
AcDbEntity
  8
Layer0016
  6
Continuous
 62
     4
370
    25
100
AcDbLine
 10
-54.64403104314081
 20
157.6416913946588
 30
0.0
 11
-29.14403104314081
 21
157.6416913946588
 31
0.0
  0
INSERT
  5
254
330
CA
100
AcDbEntity
  8
Layer0016
 62
     4
100
AcDbBlockReference
  2
_OPEN30
 10
-54.64403104314081
 20
157.6416913946588
 30
0.0
 41
3.000002787824364
 42
2.999989273978464
 50
180.0
  0
INSERT
  5
255
330
CA
100
AcDbEntity
  8
Layer0016
 62
     4
100
AcDbBlockReference
  2
_OPEN30
 10
-29.14403104314081
 20
157.6416913946588
 30
0.0
 41
3.000002787824364
 42
2.999989273978464
 50
360.0
  0
LINE
  5
256
330
CA
100
AcDbEntity
  8
Layer0016
  6
Continuous
 62
     4
370
    25
100
AcDbLine
 10
-54.64403104314081
 20
143.6416913946588
 30
0.0
 11
-54.64403104314081
 21
158.6416913946588
 31
0.0
  0
LINE
  5
257
330
CA
100
AcDbEntity
  8
Layer0016
  6
Continuous
 62
     4
370
    25
100
AcDbLine
 10
-29.14403104314081
 20
113.8132642699125
 30
0.0
 11
-29.14403104314081
 21
158.6416913946588
 31
0.0
  0
MTEXT
  5
258
330
CA
100
AcDbEntity
  8
Layer0016
 62
     2
100
AcDbMText
 10
-41.89403104314081
 20
158.6416913946588
 30
0.0
 40
3.0
 41
15.74999999999999
 71
     8
 72
     1
  1
\T1.00;25.5
  7
dcStyle0
 73
     1
 44
1.0
  0
ENDBLK
  5
CC
330
CA
100
AcDbEntity
  8
0
100
AcDbBlockEnd
  0
BLOCK
  5
CE
330
CD
100
AcDbEntity
  8
0
100
AcDbBlockBegin
  2
*D30
 70
     1
 10
0.0
 20
0.0
 30
0.0
  3
*D30
  1

  0
LINE
  5
259
330
CD
100
AcDbEntity
  8
Layer0016
  6
Continuous
 62
     4
370
    25
100
AcDbLine
 10
-98.64403104314064
 20
157.6416913946588
 30
0.0
 11
-88.64403104314066
 21
157.6416913946588
 31
0.0
  0
INSERT
  5
25A
330
CD
100
AcDbEntity
  8
Layer0016
 62
     4
100
AcDbBlockReference
  2
_OPEN30
 10
-98.64403104314064
 20
157.6416913946588
 30
0.0
 41
3.000002787824364
 42
2.999989273978464
 50
180.0
  0
INSERT
  5
25B
330
CD
100
AcDbEntity
  8
Layer0016
 62
     4
100
AcDbBlockReference
  2
_OPEN30
 10
-88.64403104314066
 20
157.6416913946588
 30
0.0
 41
3.000002787824364
 42
2.999989273978464
 50
360.0
  0
LINE
  5
25C
330
CD
100
AcDbEntity
  8
Layer0016
  6
Continuous
 62
     4
370
    25
100
AcDbLine
 10
-98.64403104314064
 20
134.6416913946587
 30
0.0
 11
-98.64403104314064
 21
158.6416913946588
 31
0.0
  0
LINE
  5
25D
330
CD
100
AcDbEntity
  8
Layer0016
  6
Continuous
 62
     4
370
    25
100
AcDbLine
 10
-88.64403104314066
 20
143.6416913946588
 30
0.0
 11
-88.64403104314066
 21
158.6416913946588
 31
0.0
  0
MTEXT
  5
25E
330
CD
100
AcDbEntity
  8
Layer0016
 62
     2
100
AcDbMText
 10
-93.64403104314064
 20
158.6416913946588
 30
0.0
 40
3.0
 41
9.750000000000014
 71
     8
 72
     1
  1
\T1.00;10
  7
dcStyle0
 73
     1
 44
1.0
  0
ENDBLK
  5
CF
330
CD
100
AcDbEntity
  8
0
100
AcDbBlockEnd
  0
BLOCK
  5
D1
330
D0
100
AcDbEntity
  8
0
100
AcDbBlockBegin
  2
*D31
 70
     1
 10
0.0
 20
0.0
 30
0.0
  3
*D31
  1

  0
LINE
  5
25F
330
D0
100
AcDbEntity
  8
Layer0016
  6
Continuous
 62
     4
370
    25
100
AcDbLine
 10
-88.64403104314066
 20
157.6416913946588
 30
0.0
 11
-87.64403104314066
 21
157.6416913946588
 31
0.0
  0
LINE
  5
260
330
D0
100
AcDbEntity
  8
Layer0016
  6
Continuous
 62
     4
370
    25
100
AcDbLine
 10
-88.64403104314066
 20
143.6416913946588
 30
0.0
 11
-88.64403104314066
 21
158.6416913946588
 31
0.0
  0
LINE
  5
261
330
D0
100
AcDbEntity
  8
Layer0016
  6
Continuous
 62
     4
370
    25
100
AcDbLine
 10
-87.64403104314066
 20
143.6416913946588
 30
0.0
 11
-87.64403104314066
 21
158.6416913946588
 31
0.0
  0
LINE
  5
262
330
D0
100
AcDbEntity
  8
Layer0016
  6
Continuous
 62
     4
370
    25
100
AcDbLine
 10
-75.54625104314066
 20
157.6416913946588
 30
0.0
 11
-87.64403104314066
 21
157.6416913946588
 31
0.0
  0
INSERT
  5
263
330
D0
100
AcDbEntity
  8
Layer0016
 62
     4
100
AcDbBlockReference
  2
_OPEN30
 10
-87.64403104314066
 20
157.6416913946588
 30
0.0
 41
3.000002787824364
 42
2.999989273978464
 50
180.0
  0
MTEXT
  5
264
330
D0
100
AcDbEntity
  8
Layer0016
 62
     2
100
AcDbMText
 10
-83.74625104314066
 20
158.6416913946588
 30
0.0
 40
3.0
 41
12.75
 71
     7
 72
     1
  1
\T1.00;t=1
  7
dcStyle0
 73
     1
 44
1.0
  0
ENDBLK
  5
D2
330
D0
100
AcDbEntity
  8
0
100
AcDbBlockEnd
  0
BLOCK
  5
D4
330
D3
100
AcDbEntity
  8
0
100
AcDbBlockBegin
  2
DC_GROUP_KL22291_14
 70
     0
 10
0.0
 20
0.0
 30
0.0
  3
DC_GROUP_KL22291_14
  1

  0
TEXT
  5
265
330
D3
100
AcDbEntity
  8
0
 62
     2
100
AcDbText
 10
183.9004793426158
 20
-107.8583086053413
 30
0.0
 40
5.0
  1
化粧プレート
 41
0.7328784432650998
  7
dcStyle0
 72
     5
 11
212.9004793426158
 21
-107.8583086053413
 31
0.0
100
AcDbText
  0
LINE
  5
266
330
D3
100
AcDbEntity
  8
0
  6
Continuous
 62
     4
370
    25
100
AcDbLine
 10
183.4004793426158
 20
-108.3583086053413
 30
0.0
 11
213.4004793426158
 21
-108.3583086053413
 31
0.0
  0
ENDBLK
  5
D5
330
D3
100
AcDbEntity
  8
0
100
AcDbBlockEnd
  0
BLOCK
  5
D7
330
D6
100
AcDbEntity
  8
0
100
AcDbBlockBegin
  2
*D33
 70
     1
 10
0.0
 20
0.0
 30
0.0
  3
*D33
  1

  0
LINE
  5
267
330
D6
100
AcDbEntity
  8
Layer0016
  6
Continuous
 62
     4
370
    25
100
AcDbLine
 10
16.95596895685918
 20
-60.35830860534126
 30
0.0
 11
16.95596895685918
 21
-20.35830860534126
 31
0.0
  0
INSERT
  5
268
330
D6
100
AcDbEntity
  8
Layer0016
 62
     4
100
AcDbBlockReference
  2
_OPEN30
 10
16.95596895685918
 20
-60.35830860534126
 30
0.0
 41
3.000002787824364
 42
2.999989273978464
 50
270.0
  0
INSERT
  5
269
330
D6
100
AcDbEntity
  8
Layer0016
 62
     4
100
AcDbBlockReference
  2
_OPEN30
 10
16.95596895685918
 20
-20.35830860534126
 30
0.0
 41
3.000002787824364
 42
2.999989273978464
 50
90.0
  0
LINE
  5
26A
330
D6
100
AcDbEntity
  8
Layer0016
  6
Continuous
 62
     4
370
    25
100
AcDbLine
 10
-3.719854315263333
 20
-60.35830860534126
 30
0.0
 11
17.95596895685918
 21
-60.35830860534126
 31
0.0
  0
LINE
  5
26B
330
D6
100
AcDbEntity
  8
Layer0016
  6
Continuous
 62
     4
370
    25
100
AcDbLine
 10
-3.719854315263333
 20
-20.35830860534126
 30
0.0
 11
17.95596895685918
 21
-20.35830860534126
 31
0.0
  0
MTEXT
  5
26C
330
D6
100
AcDbEntity
  8
Layer0016
 62
     2
100
AcDbMText
 10
15.95596895685918
 20
-40.35830860534126
 30
0.0
 40
3.0
 41
12.75
 71
     8
 72
     1
  1
\T1.00;φ40
  7
dcStyle0
 11
6.123031769111886E-17
 21
1.0
 31
0.0
 73
     1
 44
1.0
  0
ENDBLK
  5
D8
330
D6
100
AcDbEntity
  8
0
100
AcDbBlockEnd
  0
BLOCK
  5
DA
330
D9
100
AcDbEntity
  8
0
100
AcDbBlockBegin
  2
*D34
 70
     1
 10
0.0
 20
0.0
 30
0.0
  3
*D34
  1

  0
LINE
  5
26D
330
D9
100
AcDbEntity
  8
Layer0016
  6
Continuous
 62
     4
370
    25
100
AcDbLine
 10
-98.64403104314064
 20
165.6416913946588
 30
0.0
 11
-87.64403104314066
 21
165.6416913946588
 31
0.0
  0
INSERT
  5
26E
330
D9
100
AcDbEntity
  8
Layer0016
 62
     4
100
AcDbBlockReference
  2
_OPEN30
 10
-98.64403104314064
 20
165.6416913946588
 30
0.0
 41
3.000002787824364
 42
2.999989273978464
 50
180.0
  0
INSERT
  5
26F
330
D9
100
AcDbEntity
  8
Layer0016
 62
     4
100
AcDbBlockReference
  2
_OPEN30
 10
-87.64403104314066
 20
165.6416913946588
 30
0.0
 41
3.000002787824364
 42
2.999989273978464
 50
360.0
  0
LINE
  5
270
330
D9
100
AcDbEntity
  8
Layer0016
  6
Continuous
 62
     4
370
    25
100
AcDbLine
 10
-98.64403104314064
 20
134.6416913946587
 30
0.0
 11
-98.64403104314064
 21
166.6416913946588
 31
0.0
  0
LINE
  5
271
330
D9
100
AcDbEntity
  8
Layer0016
  6
Continuous
 62
     4
370
    25
100
AcDbLine
 10
-87.64403104314066
 20
143.6416913946588
 30
0.0
 11
-87.64403104314066
 21
166.6416913946588
 31
0.0
  0
MTEXT
  5
272
330
D9
100
AcDbEntity
  8
Layer0016
 62
     2
100
AcDbMText
 10
-93.14403104314064
 20
166.6416913946588
 30
0.0
 40
3.0
 41
9.750000000000014
 71
     8
 72
     1
  1
\T1.00;11
  7
dcStyle0
 73
     1
 44
1.0
  0
ENDBLK
  5
DB
330
D9
100
AcDbEntity
  8
0
100
AcDbBlockEnd
  0
BLOCK
  5
DD
330
DC
100
AcDbEntity
  8
0
100
AcDbBlockBegin
  2
*D35
 70
     1
 10
0.0
 20
0.0
 30
0.0
  3
*D35
  1

  0
LINE
  5
273
330
DC
100
AcDbEntity
  8
Layer0016
  6
Continuous
 62
     4
370
    25
100
AcDbLine
 10
-87.64403104314066
 20
165.6416913946588
 30
0.0
 11
-55.64403104314086
 21
165.6416913946588
 31
0.0
  0
INSERT
  5
274
330
DC
100
AcDbEntity
  8
Layer0016
 62
     4
100
AcDbBlockReference
  2
_OPEN30
 10
-87.64403104314066
 20
165.6416913946588
 30
0.0
 41
3.000002787824364
 42
2.999989273978464
 50
180.0
  0
INSERT
  5
275
330
DC
100
AcDbEntity
  8
Layer0016
 62
     4
100
AcDbBlockReference
  2
_OPEN30
 10
-55.64403104314086
 20
165.6416913946588
 30
0.0
 41
3.000002787824364
 42
2.999989273978464
 50
360.0
  0
LINE
  5
276
330
DC
100
AcDbEntity
  8
Layer0016
  6
Continuous
 62
     4
370
    25
100
AcDbLine
 10
-87.64403104314066
 20
143.6416913946588
 30
0.0
 11
-87.64403104314066
 21
166.6416913946588
 31
0.0
  0
LINE
  5
277
330
DC
100
AcDbEntity
  8
Layer0016
  6
Continuous
 62
     4
370
    25
100
AcDbLine
 10
-55.64403104314086
 20
143.6416913946588
 30
0.0
 11
-55.64403104314086
 21
166.6416913946588
 31
0.0
  0
MTEXT
  5
278
330
DC
100
AcDbEntity
  8
Layer0016
 62
     2
100
AcDbMText
 10
-71.64403104314076
 20
166.6416913946588
 30
0.0
 40
4.0
 41
41.00000000000001
 71
     8
 72
     1
  1
\T1.00;扉厚32～40mm
  7
dcStyle0
 73
     1
 44
1.0
  0
ENDBLK
  5
DE
330
DC
100
AcDbEntity
  8
0
100
AcDbBlockEnd
  0
BLOCK
  5
E0
330
DF
100
AcDbEntity
  8
0
100
AcDbBlockBegin
  2
*D36
 70
     1
 10
0.0
 20
0.0
 30
0.0
  3
*D36
  1

  0
LINE
  5
279
330
DF
100
AcDbEntity
  8
Layer0016
  6
Continuous
 62
     4
370
    25
100
AcDbLine
 10
-55.64403104314086
 20
165.6416913946588
 30
0.0
 11
1.955968956859181
 21
165.6416913946588
 31
0.0
  0
INSERT
  5
27A
330
DF
100
AcDbEntity
  8
Layer0016
 62
     4
100
AcDbBlockReference
  2
_OPEN30
 10
-55.64403104314086
 20
165.6416913946588
 30
0.0
 41
3.000002787824364
 42
2.999989273978464
 50
180.0
  0
INSERT
  5
27B
330
DF
100
AcDbEntity
  8
Layer0016
 62
     4
100
AcDbBlockReference
  2
_OPEN30
 10
1.955968956859181
 20
165.6416913946588
 30
0.0
 41
3.000002787824364
 42
2.999989273978464
 50
360.0
  0
LINE
  5
27C
330
DF
100
AcDbEntity
  8
Layer0016
  6
Continuous
 62
     4
370
    25
100
AcDbLine
 10
-55.64403104314086
 20
143.6416913946588
 30
0.0
 11
-55.64403104314086
 21
166.6416913946588
 31
0.0
  0
LINE
  5
27D
330
DF
100
AcDbEntity
  8
Layer0016
  6
Continuous
 62
     4
370
    25
100
AcDbLine
 10
1.955968956859181
 20
-39.35830860534127
 30
0.0
 11
1.955968956859181
 21
166.6416913946588
 31
0.0
  0
MTEXT
  5
27E
330
DF
100
AcDbEntity
  8
Layer0016
 62
     2
100
AcDbMText
 10
-26.84403104314084
 20
166.6416913946588
 30
0.0
 40
3.0
 41
15.75
 71
     8
 72
     1
  1
\T1.00;57.5
  7
dcStyle0
 73
     1
 44
1.0
  0
ENDBLK
  5
E1
330
DF
100
AcDbEntity
  8
0
100
AcDbBlockEnd
  0
BLOCK
  5
E3
330
E2
100
AcDbEntity
  8
0
100
AcDbBlockBegin
  2
DC_GROUP_KL22291_15
 70
     0
 10
0.0
 20
0.0
 30
0.0
  3
DC_GROUP_KL22291_15
  1

  0
TEXT
  5
27F
330
E2
100
AcDbEntity
  8
0
 62
     2
100
AcDbText
 10
163.0
 20
-185.0
 30
0.0
 40
10.0
  1
適用品番　KL22291
 41
0.7149772845758545
  7
dcStyle0
 72
     5
 11
259.0
 21
-185.0
 31
0.0
100
AcDbText
  0
LINE
  5
280
330
E2
100
AcDbEntity
  8
0
  6
Continuous
 62
     4
370
    13
100
AcDbLine
 10
162.0
 20
-186.0
 30
0.0
 11
260.0
 21
-186.0
 31
0.0
  0
ENDBLK
  5
E4
330
E2
100
AcDbEntity
  8
0
100
AcDbBlockEnd
  0
BLOCK
  5
1D2
330
1D1
100
AcDbEntity
  8
0
100
AcDbBlockBegin
  2
_OPEN30
 70
     0
 10
0.0
 20
0.0
 30
0.0
  3
_OPEN30
  1

  0
LINE
  5
1D4
330
1D1
100
AcDbEntity
  8
0
  6
ByBlock
 62
     0
370
    -2
100
AcDbLine
 10
-1.0
 20
0.267949
 30
0.0
 11
0.0
 21
0.0
 31
0.0
  0
LINE
  5
1D5
330
1D1
100
AcDbEntity
  8
0
  6
ByBlock
 62
     0
370
    -2
100
AcDbLine
 10
0.0
 20
0.0
 30
0.0
 11
-1.0
 21
-0.267949
 31
0.0
  0
LINE
  5
1D6
330
1D1
100
AcDbEntity
  8
0
  6
ByBlock
 62
     0
370
    -2
100
AcDbLine
 10
0.0
 20
0.0
 30
0.0
 11
-1.0
 21
0.0
 31
0.0
  0
ENDBLK
  5
1D3
330
1D1
100
AcDbEntity
  8
0
100
AcDbBlockEnd
  0
ENDSEC
  0
SECTION
  2
ENTITIES
  0
LINE
  5
281
330
1F
100
AcDbEntity
  8
Layer0016
  6
CENTER
 62
     4
370
    25
100
AcDbLine
 10
9.95596895685918
 20
-40.35830860534126
 30
0.0
 11
-127.144024939625
 21
-40.35830860534124
 31
0.0
  0
LINE
  5
282
330
1F
100
AcDbEntity
  8
Layer0016
  6
CENTER
 62
     4
370
    25
100
AcDbLine
 10
-34.14403104314098
 20
98.6416913946588
 30
0.0
 11
-16.14403104314098
 21
98.6416913946588
 31
0.0
  0
LINE
  5
283
330
1F
100
AcDbEntity
  8
Layer0016
  6
CENTER
 62
     4
370
    25
100
AcDbLine
 10
-34.14403104314098
 20
80.6416913946588
 30
0.0
 11
-16.14403104314098
 21
80.6416913946588
 31
0.0
  0
LINE
  5
284
330
1F
100
AcDbEntity
  8
Layer0016
  6
CENTER
 62
     4
370
    25
100
AcDbLine
 10
-34.14403104314098
 20
63.64169139465875
 30
0.0
 11
-16.14403104314098
 21
63.64169139465875
 31
0.0
  0
LINE
  5
285
330
1F
100
AcDbEntity
  8
Layer0016
  6
CENTER
 62
     4
370
    25
100
AcDbLine
 10
-34.14403104314098
 20
46.64169139465874
 30
0.0
 11
-16.14403104314098
 21
46.64169139465874
 31
0.0
  0
LINE
  5
286
330
1F
100
AcDbEntity
  8
Layer0016
  6
CENTER
 62
     4
370
    25
100
AcDbLine
 10
-34.14403104314098
 20
29.64169139465874
 30
0.0
 11
-16.14403104314098
 21
29.64169139465874
 31
0.0
  0
LINE
  5
287
330
1F
100
AcDbEntity
  8
Layer0016
  6
CENTER
 62
     4
370
    25
100
AcDbLine
 10
-34.14403104314098
 20
12.64169139465871
 30
0.0
 11
-16.14403104314098
 21
12.64169139465871
 31
0.0
  0
LINE
  5
288
330
1F
100
AcDbEntity
  8
Layer0016
  6
CENTER
 62
     4
370
    25
100
AcDbLine
 10
-16.14403104314098
 20
-4.358308605341286
 30
0.0
 11
-34.14403104314098
 21
-4.358308605341286
 31
0.0
  0
LINE
  5
289
330
1F
100
AcDbEntity
  8
Layer0016
  6
CENTER
 62
     4
370
    25
100
AcDbLine
 10
-103.6440310431406
 20
120.6416913946587
 30
0.0
 11
-54.64403104314081
 21
120.6416913946587
 31
0.0
  0
LINE
  5
28A
330
1F
100
AcDbEntity
  8
Layer0016
  6
CENTER
 62
     4
370
    25
100
AcDbLine
 10
-143.5995206573841
 20
-40.35830860534799
 30
0.0
 11
-219.599520657384
 21
-40.35830860533469
 31
0.0
  0
LINE
  5
28B
330
1F
100
AcDbEntity
  8
Layer0016
  6
CENTER
 62
     4
370
    25
100
AcDbLine
 10
-181.5995206573841
 20
150.6416913946588
 30
0.0
 11
-181.5995206573841
 21
-95.35830860534125
 31
0.0
  0
LINE
  5
28C
330
1F
100
AcDbEntity
  8
Layer0016
  6
CENTER
 62
     4
370
    25
100
AcDbLine
 10
-158.5995206573841
 20
120.6416913946513
 30
0.0
 11
-204.5995206573841
 21
120.6416913946513
 31
0.0
  0
LINE
  5
28D
330
1F
100
AcDbEntity
  8
Layer0016
  6
CENTER
 62
     4
370
    25
100
AcDbLine
 10
58.9004793426158
 20
98.64169139465884
 30
0.0
 11
77.9004793426158
 21
98.64169139465884
 31
0.0
  0
LINE
  5
28E
330
1F
100
AcDbEntity
  8
Layer0016
  6
CENTER
 62
     4
370
    25
100
AcDbLine
 10
50.6504793426158
 20
80.64169139465884
 30
0.0
 11
86.15047934261582
 21
80.64169139465884
 31
0.0
  0
LINE
  5
28F
330
1F
100
AcDbEntity
  8
Layer0016
  6
CENTER
 62
     4
370
    25
100
AcDbLine
 10
50.6504793426158
 20
63.64169139465878
 30
0.0
 11
86.15047934261582
 21
63.64169139465878
 31
0.0
  0
LINE
  5
290
330
1F
100
AcDbEntity
  8
Layer0016
  6
CENTER
 62
     4
370
    25
100
AcDbLine
 10
50.6504793426158
 20
46.64169139465874
 30
0.0
 11
86.15047934261582
 21
46.64169139465874
 31
0.0
  0
LINE
  5
291
330
1F
100
AcDbEntity
  8
Layer0016
  6
CENTER
 62
     4
370
    25
100
AcDbLine
 10
50.6504793426158
 20
29.64169139465874
 30
0.0
 11
86.15047934261582
 21
29.64169139465874
 31
0.0
  0
LINE
  5
292
330
1F
100
AcDbEntity
  8
Layer0016
  6
CENTER
 62
     4
370
    25
100
AcDbLine
 10
50.6504793426158
 20
12.64169139465874
 30
0.0
 11
86.15047934261582
 21
12.64169139465874
 31
0.0
  0
LINE
  5
293
330
1F
100
AcDbEntity
  8
Layer0016
  6
CENTER
 62
     4
370
    25
100
AcDbLine
 10
50.6504793426158
 20
-4.35830860534125
 30
0.0
 11
86.15047934261582
 21
-4.35830860534125
 31
0.0
  0
LINE
  5
294
330
1F
100
AcDbEntity
  8
Layer0016
  6
CENTER
 62
     4
370
    25
100
AcDbLine
 10
60.1504793426158
 20
90.14169139465884
 30
0.0
 11
60.1504793426158
 21
-13.85830860534126
 31
0.0
  0
LINE
  5
295
330
1F
100
AcDbEntity
  8
Layer0016
  6
CENTER
 62
     4
370
    25
100
AcDbLine
 10
76.6504793426158
 20
90.14169139465884
 30
0.0
 11
76.6504793426158
 21
-13.85830860534125
 31
0.0
  0
LINE
  5
296
330
1F
100
AcDbEntity
  8
Layer0016
  6
CENTER
 62
     4
370
    25
100
AcDbLine
 10
30.40047934261582
 20
-40.35830860534125
 30
0.0
 11
106.4004793426158
 21
-40.35830860534125
 31
0.0
  0
LINE
  5
297
330
1F
100
AcDbEntity
  8
Layer0016
  6
CENTER
 62
     4
370
    25
100
AcDbLine
 10
68.4004793426158
 20
-95.35830860534125
 30
0.0
 11
68.40047934261577
 21
150.6416913946588
 31
0.0
  0
LINE
  5
298
330
1F
100
AcDbEntity
  8
Layer0016
  6
CENTER
 62
     4
370
    25
100
AcDbLine
 10
202.4004793426158
 20
120.6416913946587
 30
0.0
 11
174.4004793426158
 21
120.6416913946587
 31
0.0
  0
LINE
  5
299
330
1F
100
AcDbEntity
  8
Layer0016
  6
CENTER
 62
     4
370
    25
100
AcDbLine
 10
188.4004793426157
 20
150.6416913946587
 30
0.0
 11
188.4004793426158
 21
-95.35830860534125
 31
0.0
  0
LINE
  5
29A
330
1F
100
AcDbEntity
  8
Layer0016
  6
CENTER
 62
     4
370
    25
100
AcDbLine
 10
223.9004793426158
 20
-40.35830860534125
 30
0.0
 11
152.9004793426158
 21
-40.35830860534125
 31
0.0
  0
LINE
  5
29B
330
1F
100
AcDbEntity
  8
Layer0016
  6
CENTER
 62
     4
370
    25
100
AcDbLine
 10
-189.5995225647327
 20
-28.85830860534136
 30
0.0
 11
-173.5995225647327
 21
-28.85830860534136
 31
0.0
  0
LINE
  5
29C
330
1F
100
AcDbEntity
  8
Layer0016
  6
CENTER
 62
     4
370
    25
100
AcDbLine
 10
-189.5995225647327
 20
-51.85830860534137
 30
0.0
 11
-173.5995225647327
 21
-51.85830860534137
 31
0.0
  0
LINE
  5
29D
330
1F
100
AcDbEntity
  8
Layer0016
  6
CENTER
 62
     4
370
    25
100
AcDbLine
 10
-108.1440310431407
 20
-28.85830860534124
 30
0.0
 11
-54.64403104314081
 21
-28.85830860534125
 31
0.0
  0
LINE
  5
29E
330
1F
100
AcDbEntity
  8
Layer0016
  6
CENTER
 62
     4
370
    25
100
AcDbLine
 10
-54.64403104314081
 20
-51.85830860534125
 30
0.0
 11
-108.1440310431407
 21
-51.85830860534124
 31
0.0
  0
CIRCLE
  5
29F
330
1F
100
AcDbEntity
  8
Layer0016
  6
Continuous
 62
     4
370
    25
100
AcDbCircle
 10
-181.5995206573841
 20
120.6416913946513
 30
0.0
 40
5.0
  0
LINE
  5
2A0
330
1F
100
AcDbEntity
  8
Layer0016
  6
Continuous
 62
     4
370
    25
100
AcDbLine
 10
-179.0995206573841
 20
123.1416913946513
 30
0.0
 11
-184.0995206573841
 21
118.1416913946513
 31
0.0
  0
LINE
  5
2A1
330
1F
100
AcDbEntity
  8
Layer0016
  6
Continuous
 62
     4
370
    25
100
AcDbLine
 10
-184.0995206573839
 20
123.1416913946513
 30
0.0
 11
-179.099520657384
 21
118.1416913946513
 31
0.0
  0
CIRCLE
  5
2A2
330
1F
100
AcDbEntity
  8
Layer0016
  6
Continuous
 62
     4
370
    25
100
AcDbCircle
 10
60.1504793426158
 20
-4.35830860534125
 30
0.0
 40
5.5
  0
CIRCLE
  5
2A3
330
1F
100
AcDbEntity
  8
Layer0016
  6
Continuous
 62
     4
370
    25
100
AcDbCircle
 10
76.6504793426158
 20
-4.35830860534125
 30
0.0
 40
5.5
  0
CIRCLE
  5
2A4
330
1F
100
AcDbEntity
  8
Layer0016
  6
Continuous
 62
     4
370
    25
100
AcDbCircle
 10
76.6504793426158
 20
12.64169139465874
 30
0.0
 40
5.5
  0
CIRCLE
  5
2A5
330
1F
100
AcDbEntity
  8
Layer0016
  6
Continuous
 62
     4
370
    25
100
AcDbCircle
 10
60.1504793426158
 20
12.64169139465874
 30
0.0
 40
5.5
  0
CIRCLE
  5
2A6
330
1F
100
AcDbEntity
  8
Layer0016
  6
Continuous
 62
     4
370
    25
100
AcDbCircle
 10
60.1504793426158
 20
29.64169139465874
 30
0.0
 40
5.5
  0
CIRCLE
  5
2A7
330
1F
100
AcDbEntity
  8
Layer0016
  6
Continuous
 62
     4
370
    25
100
AcDbCircle
 10
76.6504793426158
 20
29.64169139465874
 30
0.0
 40
5.5
  0
CIRCLE
  5
2A8
330
1F
100
AcDbEntity
  8
Layer0016
  6
Continuous
 62
     4
370
    25
100
AcDbCircle
 10
76.6504793426158
 20
46.64169139465874
 30
0.0
 40
5.5
  0
CIRCLE
  5
2A9
330
1F
100
AcDbEntity
  8
Layer0016
  6
Continuous
 62
     4
370
    25
100
AcDbCircle
 10
60.1504793426158
 20
46.64169139465874
 30
0.0
 40
5.5
  0
CIRCLE
  5
2AA
330
1F
100
AcDbEntity
  8
Layer0016
  6
Continuous
 62
     4
370
    25
100
AcDbCircle
 10
60.1504793426158
 20
63.64169139465878
 30
0.0
 40
5.5
  0
CIRCLE
  5
2AB
330
1F
100
AcDbEntity
  8
Layer0016
  6
Continuous
 62
     4
370
    25
100
AcDbCircle
 10
76.6504793426158
 20
63.64169139465878
 30
0.0
 40
5.5
  0
CIRCLE
  5
2AC
330
1F
100
AcDbEntity
  8
Layer0016
  6
Continuous
 62
     4
370
    25
100
AcDbCircle
 10
76.6504793426158
 20
80.64169139465884
 30
0.0
 40
5.5
  0
CIRCLE
  5
2AD
330
1F
100
AcDbEntity
  8
Layer0016
  6
Continuous
 62
     4
370
    25
100
AcDbCircle
 10
60.1504793426158
 20
80.64169139465884
 30
0.0
 40
5.5
  0
CIRCLE
  5
2AE
330
1F
100
AcDbEntity
  8
Layer0016
  6
Continuous
 62
     4
370
    25
100
AcDbCircle
 10
68.4004793426158
 20
98.64169139465884
 30
0.0
 40
5.5
  0
LINE
  5
2AF
330
1F
100
AcDbEntity
  8
Layer0016
  6
Continuous
 62
     4
370
    25
100
AcDbLine
 10
78.12047934261588
 20
122.2780874977588
 30
0.0
 11
78.80970145586588
 21
122.2780874977588
 31
0.0
  0
LINE
  5
2B0
330
1F
100
AcDbEntity
  8
Layer0016
  6
Continuous
 62
     4
370
    25
100
AcDbLine
 10
76.89829194728785
 20
121.4502158140588
 30
0.0
 11
78.80970145586588
 21
122.2780874977587
 31
0.0
  0
LINE
  5
2B1
330
1F
100
AcDbEntity
  8
Layer0016
  6
Continuous
 62
     4
370
    25
100
AcDbLine
 10
75.79440671931084
 20
122.2780874977589
 30
0.0
 11
76.89829194728785
 21
121.4502158140589
 31
0.0
  0
LINE
  5
2B2
330
1F
100
AcDbEntity
  8
Layer0016
  6
Continuous
 62
     4
370
    25
100
AcDbLine
 10
76.28919127353785
 20
122.2780874977588
 30
0.0
 11
75.79440671931084
 21
122.2780874977588
 31
0.0
  0
LINE
  5
2B3
330
1F
100
AcDbEntity
  8
Layer0016
  6
Continuous
 62
     4
370
    25
100
AcDbLine
 10
76.95961722663682
 20
121.7752936849588
 30
0.0
 11
76.28919127353785
 21
122.2780874977588
 31
0.0
  0
LINE
  5
2B4
330
1F
100
AcDbEntity
  8
Layer0016
  6
Continuous
 62
     4
370
    25
100
AcDbLine
 10
78.12047934261588
 20
122.2780874977588
 30
0.0
 11
76.95961722663682
 21
121.7752936849588
 31
0.0
  0
LINE
  5
2B5
330
1F
100
AcDbEntity
  8
Layer0016
  6
Continuous
 62
     4
370
    25
100
AcDbLine
 10
78.7644067193159
 20
120.0507011369588
 30
0.0
 11
79.2591912735358
 21
120.0507011369588
 31
0.0
  0
LINE
  5
2B6
330
1F
100
AcDbEntity
  8
Layer0016
  6
Continuous
 62
     4
370
    25
100
AcDbLine
 10
77.71658015339582
 20
121.2076004531588
 30
0.0
 11
79.2591912735358
 21
120.0507011369588
 31
0.0
  0
LINE
  5
2B7
330
1F
100
AcDbEntity
  8
Layer0016
  6
Continuous
 62
     4
370
    25
100
AcDbLine
 10
79.6004151987259
 20
122.0235290564588
 30
0.0
 11
77.71658015339588
 21
121.2076004531588
 31
0.0
  0
LINE
  5
2B8
330
1F
100
AcDbEntity
  8
Layer0016
  6
Continuous
 62
     4
370
    25
100
AcDbLine
 10
81.90047934261582
 20
122.0235290564588
 30
0.0
 11
79.6004151987259
 21
122.0235290564588
 31
0.0
  0
LINE
  5
2B9
330
1F
100
AcDbEntity
  8
Layer0016
  6
Continuous
 62
     4
370
    25
100
AcDbLine
 10
81.90047934261582
 20
122.2780874977588
 30
0.0
 11
81.90047934261582
 21
122.0235290564588
 31
0.0
  0
LINE
  5
2BA
330
1F
100
AcDbEntity
  8
Layer0016
  6
Continuous
 62
     4
370
    25
100
AcDbLine
 10
79.4989235691059
 20
122.2780874977588
 30
0.0
 11
81.90047934261582
 21
122.2780874977588
 31
0.0
  0
LINE
  5
2BB
330
1F
100
AcDbEntity
  8
Layer0016
  6
Continuous
 62
     4
370
    25
100
AcDbLine
 10
77.15061292287388
 20
121.2609847367588
 30
0.0
 11
79.4989235691059
 21
122.2780874977588
 31
0.0
  0
LINE
  5
2BC
330
1F
100
AcDbEntity
  8
Layer0016
  6
Continuous
 62
     4
370
    25
100
AcDbLine
 10
78.7644067193159
 20
120.0507011369588
 30
0.0
 11
77.15061292287382
 21
121.2609847367588
 31
0.0
  0
LINE
  5
2BD
330
1F
100
AcDbEntity
  8
Layer0016
  6
Continuous
 62
     4
370
    25
100
AcDbLine
 10
76.77564138858983
 20
120.8000600720588
 30
0.0
 11
77.77483761085588
 21
120.0507011369588
 31
0.0
  0
LINE
  5
2BE
330
1F
100
AcDbEntity
  8
Layer0016
  6
Continuous
 62
     4
370
    25
100
AcDbLine
 10
78.26962216508386
 20
120.0507011369588
 30
0.0
 11
77.77483761085583
 21
120.0507011369588
 31
0.0
  0
LINE
  5
2BF
330
1F
100
AcDbEntity
  8
Layer0016
  6
Continuous
 62
     4
370
    25
100
AcDbLine
 10
76.83696666793887
 20
121.1251379430589
 30
0.0
 11
78.26962216508386
 21
120.0507011369588
 31
0.0
  0
LINE
  5
2C0
330
1F
100
AcDbEntity
  8
Layer0016
  6
Continuous
 62
     4
370
    25
100
AcDbLine
 10
74.35628183734886
 20
120.0507011369588
 30
0.0
 11
76.83696666793887
 21
121.1251379430588
 31
0.0
  0
LINE
  5
2C1
330
1F
100
AcDbEntity
  8
Layer0016
  6
Continuous
 62
     4
370
    25
100
AcDbLine
 10
75.04550395059485
 20
120.0507011369588
 30
0.0
 11
74.35628183734886
 21
120.0507011369588
 31
0.0
  0
LINE
  5
2C2
330
1F
100
AcDbEntity
  8
Layer0016
  6
Continuous
 62
     4
370
    25
100
AcDbLine
 10
76.77564138858983
 20
120.8000600720588
 30
0.0
 11
75.04550395059485
 21
120.0507011369588
 31
0.0
  0
LINE
  5
2C3
330
1F
100
AcDbEntity
  8
Layer0016
  6
Continuous
 62
     4
370
    25
100
AcDbLine
 10
76.58464569235187
 20
121.3143690203589
 30
0.0
 11
75.29962216508383
 21
122.2780874977588
 31
0.0
  0
LINE
  5
2C4
330
1F
100
AcDbEntity
  8
Layer0016
  6
Continuous
 62
     4
370
    25
100
AcDbLine
 10
73.66705972410185
 20
120.0507011369588
 30
0.0
 11
76.58464569235187
 21
121.3143690203588
 31
0.0
  0
LINE
  5
2C5
330
1F
100
AcDbEntity
  8
Layer0016
  6
Continuous
 62
     4
370
    25
100
AcDbLine
 10
76.01867846182986
 20
121.3677533039588
 30
0.0
 11
72.97783761085586
 21
120.0507011369588
 31
0.0
  0
LINE
  5
2C6
330
1F
100
AcDbEntity
  8
Layer0016
  6
Continuous
 62
     4
370
    25
100
AcDbLine
 10
74.80483761085586
 20
122.2780874977588
 30
0.0
 11
76.01867846182981
 21
121.3677533039588
 31
0.0
  0
LINE
  5
2C7
330
1F
100
AcDbEntity
  8
Layer0016
  6
Continuous
 62
     4
370
    25
100
AcDbLine
 10
64.73320978968283
 20
120.3052595782588
 30
0.0
 11
63.12055117422884
 21
120.3052595782588
 31
0.0
  0
LINE
  5
2C8
330
1F
100
AcDbEntity
  8
Layer0016
  6
Continuous
 62
     4
370
    25
100
AcDbLine
 10
65.51620978968285
 20
121.2598537328589
 30
0.0
 11
64.73320978968283
 21
120.3052595782589
 31
0.0
  0
LINE
  5
2C9
330
1F
100
AcDbEntity
  8
Layer0016
  6
Continuous
 62
     4
370
    25
100
AcDbLine
 10
64.7387511742289
 20
122.2780874977588
 30
0.0
 11
65.51620978968285
 21
121.2598537328588
 31
0.0
  0
LINE
  5
2CA
330
1F
100
AcDbEntity
  8
Layer0016
  6
Continuous
 62
     4
370
    25
100
AcDbLine
 10
65.95981786557988
 20
121.4825923688588
 30
0.0
 11
65.35242832225586
 21
122.2780874977588
 31
0.0
  0
LINE
  5
2CB
330
1F
100
AcDbEntity
  8
Layer0016
  6
Continuous
 62
     4
370
    25
100
AcDbLine
 10
67.64742832225593
 20
122.2780874977589
 30
0.0
 11
65.95981786557982
 21
121.4825923688588
 31
0.0
  0
LINE
  5
2CC
330
1F
100
AcDbEntity
  8
Layer0016
  6
Continuous
 62
     4
370
    25
100
AcDbLine
 10
68.62097128172016
 20
122.2780874977588
 30
0.0
 11
67.64742832225593
 21
122.2780874977588
 31
0.0
  0
LINE
  5
2CD
330
1F
100
AcDbEntity
  8
Layer0016
  6
Continuous
 62
     4
370
    25
100
AcDbLine
 10
66.61702693959185
 20
121.3334809054588
 30
0.0
 11
68.62097128172016
 21
122.2780874977589
 31
0.0
  0
LINE
  5
2CE
330
1F
100
AcDbEntity
  8
Layer0016
  6
Continuous
 62
     4
370
    25
100
AcDbLine
 10
65.77363470287983
 20
120.3052595782589
 30
0.0
 11
66.61702693959185
 21
121.3334809054588
 31
0.0
  0
LINE
  5
2CF
330
1F
100
AcDbEntity
  8
Layer0016
  6
Continuous
 62
     4
370
    25
100
AcDbLine
 10
67.41227934261534
 20
120.3052595782588
 30
0.0
 11
65.77363470287983
 21
120.3052595782588
 31
0.0
  0
LINE
  5
2D0
330
1F
100
AcDbEntity
  8
Layer0016
  6
Continuous
 62
     4
370
    25
100
AcDbLine
 10
69.03047934261534
 20
122.2780874977588
 30
0.0
 11
67.41227934261534
 21
120.3052595782588
 31
0.0
  0
LINE
  5
2D1
330
1F
100
AcDbEntity
  8
Layer0016
  6
Continuous
 62
     4
370
    25
100
AcDbLine
 10
70.07090425581183
 20
122.2780874977588
 30
0.0
 11
69.03047934261534
 21
122.2780874977588
 31
0.0
  0
LINE
  5
2D2
330
1F
100
AcDbEntity
  8
Layer0016
  6
Continuous
 62
     4
370
    25
100
AcDbLine
 10
68.55710425581188
 20
120.4325387988588
 30
0.0
 11
70.07090425581188
 21
122.2780874977588
 31
0.0
  0
LINE
  5
2D3
330
1F
100
AcDbEntity
  8
Layer0016
  6
Continuous
 62
     4
370
    25
100
AcDbLine
 10
70.22178411692587
 20
120.4325387988588
 30
0.0
 11
68.55710425581188
 21
120.4325387988588
 31
0.0
  0
LINE
  5
2D4
330
1F
100
AcDbEntity
  8
Layer0016
  6
Continuous
 62
     4
370
    25
100
AcDbLine
 10
70.11738411692588
 20
120.3052595782589
 30
0.0
 11
70.22178411692587
 21
120.4325387988588
 31
0.0
  0
LINE
  5
2D5
330
1F
100
AcDbEntity
  8
Layer0016
  6
Continuous
 62
     4
370
    25
100
AcDbLine
 10
70.48153283654486
 20
120.3052595782588
 30
0.0
 11
70.11738411692588
 21
120.3052595782588
 31
0.0
  0
LINE
  5
2D6
330
1F
100
AcDbEntity
  8
Layer0016
  6
Continuous
 62
     4
370
    25
100
AcDbLine
 10
72.09973283654486
 20
122.2780874977589
 30
0.0
 11
70.48153283654486
 21
120.3052595782589
 31
0.0
  0
LINE
  5
2D7
330
1F
100
AcDbEntity
  8
Layer0016
  6
Continuous
 62
     4
370
    25
100
AcDbLine
 10
72.09973283654486
 20
122.2780874977588
 30
0.0
 11
75.29962216508383
 21
122.2780874977588
 31
0.0
  0
LINE
  5
2D8
330
1F
100
AcDbEntity
  8
Layer0016
  6
Continuous
 62
     4
370
    25
100
AcDbLine
 10
74.49163761085586
 20
121.8962498358588
 30
0.0
 11
74.80483761085586
 21
122.2780874977588
 31
0.0
  0
LINE
  5
2D9
330
1F
100
AcDbEntity
  8
Layer0016
  6
Continuous
 62
     4
370
    25
100
AcDbLine
 10
72.82695774974187
 20
121.8962498358588
 30
0.0
 11
74.49163761085586
 21
121.8962498358588
 31
0.0
  0
LINE
  5
2DA
330
1F
100
AcDbEntity
  8
Layer0016
  6
Continuous
 62
     4
370
    25
100
AcDbLine
 10
72.38325774974189
 20
121.3553131482588
 30
0.0
 11
72.82695774974187
 21
121.8962498358588
 31
0.0
  0
LINE
  5
2DB
330
1F
100
AcDbEntity
  8
Layer0016
  6
Continuous
 62
     4
370
    25
100
AcDbLine
 10
74.04793761085583
 20
121.3553131482588
 30
0.0
 11
72.38325774974183
 21
121.3553131482588
 31
0.0
  0
LINE
  5
2DC
330
1F
100
AcDbEntity
  8
Layer0016
  6
Continuous
 62
     4
370
    25
100
AcDbLine
 10
73.73473761085583
 20
120.9734754864588
 30
0.0
 11
74.04793761085583
 21
121.3553131482589
 31
0.0
  0
LINE
  5
2DD
330
1F
100
AcDbEntity
  8
Layer0016
  6
Continuous
 62
     4
370
    25
100
AcDbLine
 10
72.07005774974184
 20
120.9734754864588
 30
0.0
 11
73.73473761085583
 21
120.9734754864588
 31
0.0
  0
LINE
  5
2DE
330
1F
100
AcDbEntity
  8
Layer0016
  6
Continuous
 62
     4
370
    25
100
AcDbLine
 10
71.62635774974186
 20
120.4325387988588
 30
0.0
 11
72.07005774974184
 21
120.9734754864588
 31
0.0
  0
LINE
  5
2DF
330
1F
100
AcDbEntity
  8
Layer0016
  6
Continuous
 62
     4
370
    25
100
AcDbLine
 10
73.29103761085585
 20
120.4325387988588
 30
0.0
 11
71.62635774974186
 21
120.4325387988588
 31
0.0
  0
LINE
  5
2E0
330
1F
100
AcDbEntity
  8
Layer0016
  6
Continuous
 62
     4
370
    25
100
AcDbLine
 10
73.29103761085585
 20
120.4325387988588
 30
0.0
 11
72.97783761085586
 21
120.0507011369588
 31
0.0
  0
LINE
  5
2E1
330
1F
100
AcDbEntity
  8
Layer0016
  6
Continuous
 62
     4
370
    25
100
AcDbLine
 10
59.67047934261487
 20
120.0507011369588
 30
0.0
 11
73.66705972410185
 21
120.0507011369588
 31
0.0
  0
LINE
  5
2E2
330
1F
100
AcDbEntity
  8
Layer0016
  6
Continuous
 62
     4
370
    25
100
AcDbLine
 10
62.03364639991784
 20
122.2780874977588
 30
0.0
 11
60.25501405328785
 21
120.1096685433588
 31
0.0
  0
LINE
  5
2E3
330
1F
100
AcDbEntity
  8
Layer0016
  6
Continuous
 62
     4
370
    25
100
AcDbLine
 10
64.42555117422884
 20
121.8962498358588
 30
0.0
 11
64.73875117422884
 21
122.2780874977588
 31
0.0
  0
LINE
  5
2E4
330
1F
100
AcDbEntity
  8
Layer0016
  6
Continuous
 62
     4
370
    25
100
AcDbLine
 10
62.76087131311382
 20
121.8962498358588
 30
0.0
 11
64.42555117422884
 21
121.8962498358588
 31
0.0
  0
LINE
  5
2E5
330
1F
100
AcDbEntity
  8
Layer0016
  6
Continuous
 62
     4
370
    25
100
AcDbLine
 10
62.31717131311385
 20
121.3553131482588
 30
0.0
 11
62.76087131311382
 21
121.8962498358588
 31
0.0
  0
LINE
  5
2E6
330
1F
100
AcDbEntity
  8
Layer0016
  6
Continuous
 62
     4
370
    25
100
AcDbLine
 10
63.98185117422886
 20
121.3553131482588
 30
0.0
 11
62.31717131311385
 21
121.3553131482588
 31
0.0
  0
LINE
  5
2E7
330
1F
100
AcDbEntity
  8
Layer0016
  6
Continuous
 62
     4
370
    25
100
AcDbLine
 10
63.66865117422887
 20
120.9734754864588
 30
0.0
 11
63.98185117422886
 21
121.3553131482589
 31
0.0
  0
LINE
  5
2E8
330
1F
100
AcDbEntity
  8
Layer0016
  6
Continuous
 62
     4
370
    25
100
AcDbLine
 10
62.00397131311385
 20
120.9734754864588
 30
0.0
 11
63.66865117422887
 21
120.9734754864588
 31
0.0
  0
LINE
  5
2E9
330
1F
100
AcDbEntity
  8
Layer0016
  6
Continuous
 62
     4
370
    25
100
AcDbLine
 10
61.56027131311387
 20
120.4325387988588
 30
0.0
 11
62.00397131311385
 21
120.9734754864588
 31
0.0
  0
LINE
  5
2EA
330
1F
100
AcDbEntity
  8
Layer0016
  6
Continuous
 62
     4
370
    25
100
AcDbLine
 10
63.22495117422883
 20
120.4325387988588
 30
0.0
 11
61.56027131311387
 21
120.4325387988588
 31
0.0
  0
LINE
  5
2EB
330
1F
100
AcDbEntity
  8
Layer0016
  6
Continuous
 62
     4
370
    25
100
AcDbLine
 10
63.22495117422883
 20
120.4325387988588
 30
0.0
 11
63.12055117422884
 21
120.3052595782588
 31
0.0
  0
LINE
  5
2EC
330
1F
100
AcDbEntity
  8
Layer0016
  6
Continuous
 62
     4
370
    25
100
AcDbLine
 10
62.03364639991784
 20
122.2780874977588
 30
0.0
 11
65.35242832225586
 21
122.2780874977588
 31
0.0
  0
LINE
  5
2ED
330
1F
100
AcDbEntity
  8
Layer0016
  6
Continuous
 62
     4
370
    25
100
AcDbLine
 10
62.68385613758417
 20
122.9498389398588
 30
0.0
 11
63.27551476263486
 21
122.9498389398588
 31
0.0
  0
LINE
  5
2EE
330
1F
100
AcDbEntity
  8
Layer0016
  6
Continuous
 62
     4
370
    25
100
AcDbLine
 10
56.77324418636587
 20
120.0507011369588
 30
0.0
 11
55.73281927317586
 21
120.0507011369588
 31
0.0
  0
LINE
  5
2EF
330
1F
100
AcDbEntity
  8
Layer0016
  6
Continuous
 62
     4
370
    25
100
AcDbLine
 10
58.34281927317588
 20
123.2326816523588
 30
0.0
 11
55.73281927317586
 21
120.0507011369588
 31
0.0
  0
LINE
  5
2F0
330
1F
100
AcDbEntity
  8
Layer0016
  6
Continuous
 62
     4
370
    25
100
AcDbLine
 10
59.38324418636884
 20
123.2326816523588
 30
0.0
 11
58.34281927317588
 21
123.2326816523588
 31
0.0
  0
LINE
  5
2F1
330
1F
100
AcDbEntity
  8
Layer0016
  6
Continuous
 62
     4
370
    25
100
AcDbLine
 10
58.15654418636584
 20
121.7371508101588
 30
0.0
 11
59.38324418636884
 21
123.2326816523588
 31
0.0
  0
LINE
  5
2F2
330
1F
100
AcDbEntity
  8
Layer0016
  6
Continuous
 62
     4
370
    25
100
AcDbLine
 10
62.28047934261483
 20
123.2326816523588
 30
0.0
 11
58.15654418636584
 21
121.7371508101588
 31
0.0
  0
LINE
  5
2F3
330
1F
100
AcDbEntity
  8
Layer0016
  6
Continuous
 62
     4
370
    25
100
AcDbLine
 10
64.05545521771583
 20
123.2326816523588
 30
0.0
 11
62.28047934261483
 21
123.2326816523588
 31
0.0
  0
LINE
  5
2F4
330
1F
100
AcDbEntity
  8
Layer0016
  6
Continuous
 62
     4
370
    25
100
AcDbLine
 10
63.26576550694486
 20
122.9463034059589
 30
0.0
 11
64.05545521771583
 21
123.2326816523588
 31
0.0
  0
LINE
  5
2F5
330
1F
100
AcDbEntity
  8
Layer0016
  6
Continuous
 62
     4
370
    25
100
AcDbLine
 10
62.67410688191185
 20
122.9463034059588
 30
0.0
 11
63.26576550694486
 21
122.9463034059588
 31
0.0
  0
LINE
  5
2F6
330
1F
100
AcDbEntity
  8
Layer0016
  6
Continuous
 62
     4
370
    25
100
AcDbLine
 10
58.94463153366988
 20
121.5938220508588
 30
0.0
 11
62.67410688191185
 21
122.9463034059588
 31
0.0
  0
LINE
  5
2F7
330
1F
100
AcDbEntity
  8
Layer0016
  6
Continuous
 62
     4
370
    25
100
AcDbLine
 10
58.94463153366982
 20
121.5938220508588
 30
0.0
 11
60.25501405328785
 21
120.1096685433588
 31
0.0
  0
LINE
  5
2F8
330
1F
100
AcDbEntity
  8
Layer0016
  6
Continuous
 62
     4
370
    25
100
AcDbLine
 10
58.46242842446887
 20
121.4189527585589
 30
0.0
 11
59.67047934261487
 21
120.0507011369588
 31
0.0
  0
LINE
  5
2F9
330
1F
100
AcDbEntity
  8
Layer0016
  6
Continuous
 62
     4
370
    25
100
AcDbLine
 10
57.65552331910587
 20
121.1263314087589
 30
0.0
 11
58.46242842446887
 21
121.4189527585589
 31
0.0
  0
LINE
  5
2FA
330
1F
100
AcDbEntity
  8
Layer0016
  6
Continuous
 62
     4
370
    25
100
AcDbLine
 10
56.77324418636587
 20
120.0507011369588
 30
0.0
 11
57.65552331910587
 21
121.1263314087588
 31
0.0
  0
LINE
  5
2FB
330
1F
100
AcDbEntity
  8
Layer0016
  6
Continuous
 62
     4
370
    25
100
AcDbLine
 10
54.90047934261585
 20
120.0507011369588
 30
0.0
 11
55.31664930789586
 21
120.0507011369588
 31
0.0
  0
LINE
  5
2FC
330
1F
100
AcDbEntity
  8
Layer0016
  6
Continuous
 62
     4
370
    25
100
AcDbLine
 10
57.92664930789587
 20
123.2326816523588
 30
0.0
 11
55.31664930789586
 21
120.0507011369588
 31
0.0
  0
LINE
  5
2FD
330
1F
100
AcDbEntity
  8
Layer0016
  6
Continuous
 62
     4
370
    25
100
AcDbLine
 10
57.51047934261587
 20
123.2326816523588
 30
0.0
 11
57.92664930789587
 21
123.2326816523588
 31
0.0
  0
LINE
  5
2FE
330
1F
100
AcDbEntity
  8
Layer0016
  6
Continuous
 62
     4
370
    25
100
AcDbLine
 10
54.90047934261585
 20
120.0507011369588
 30
0.0
 11
57.51047934261587
 21
123.2326816523588
 31
0.0
  0
LINE
  5
2FF
330
1F
100
AcDbEntity
  8
Layer0016
  6
Continuous
 62
     4
370
    25
100
AcDbLine
 10
50.40047934261585
 20
113.6416913946588
 30
0.0
 11
86.40047934261582
 21
113.6416913946588
 31
0.0
  0
LINE
  5
300
330
1F
100
AcDbEntity
  8
Layer0016
  6
Continuous
 62
     4
370
    25
100
AcDbLine
 10
52.40047934261585
 20
-65.35830860534125
 30
0.0
 11
84.73078216189498
 21
-65.35830860534125
 31
0.0
  0
LINE
  5
301
330
1F
100
AcDbEntity
  8
Layer0016
  6
Continuous
 62
     4
370
    25
100
AcDbLine
 10
50.40047934261585
 20
-15.35830860534125
 30
0.0
 11
86.40047934261582
 21
-15.35830860534125
 31
0.0
  0
LINE
  5
302
330
1F
100
AcDbEntity
  8
Layer0016
  6
Continuous
 62
     4
370
    25
100
AcDbLine
 10
-179.5995243629963
 20
-26.85830860534136
 30
0.0
 11
-183.5995207664691
 21
-30.85830860534136
 31
0.0
  0
LINE
  5
303
330
1F
100
AcDbEntity
  8
Layer0016
  6
Continuous
 62
     4
370
    25
100
AcDbLine
 10
-183.5995206573841
 20
-26.85830860534136
 30
0.0
 11
-179.5995206573841
 21
-30.85830860534136
 31
0.0
  0
ARC
  5
304
330
1F
100
AcDbEntity
  8
Layer0016
  6
Continuous
 62
     4
370
    25
100
AcDbCircle
 10
-88.62736437647429
 20
120.6416913946588
 30
0.0
 40
11.01666666666634
100
AcDbArc
 50
155.3989447155557
 51
204.6010552844443
  0
LINE
  5
305
330
1F
100
AcDbEntity
  8
Layer0016
  6
Continuous
 62
     4
370
    25
100
AcDbLine
 10
-0.0440310431408193
 20
-24.10830860534126
 30
0.0
 11
-0.0440310431408193
 21
-56.60830860534126
 31
0.0
  0
LINE
  5
306
330
1F
100
AcDbEntity
  8
Layer0016
  6
Continuous
 62
     4
370
    25
100
AcDbLine
 10
-4.719854343140824
 20
-25.19445471699677
 30
0.0
 11
-14.24403104314082
 21
-25.19445471699677
 31
0.0
  0
LINE
  5
307
330
1F
100
AcDbEntity
  8
Layer0016
  6
Continuous
 62
     4
370
    25
100
AcDbLine
 10
-14.89972134314083
 20
-25.28979451699677
 30
0.0
 11
-14.24403104314082
 21
-25.19445471699677
 31
0.0
  0
LINE
  5
308
330
1F
100
AcDbEntity
  8
Layer0016
  6
Continuous
 62
     4
370
    25
100
AcDbLine
 10
-15.48144304314081
 20
-25.56415311699677
 30
0.0
 11
-14.89972134314083
 21
-25.28979451699677
 31
0.0
  0
LINE
  5
309
330
1F
100
AcDbEntity
  8
Layer0016
  6
Continuous
 62
     4
370
    25
100
AcDbLine
 10
-2.986451043140818
 20
-24.78173421699676
 30
0.0
 11
-2.565651043140818
 21
-24.50414331699677
 31
0.0
  0
LINE
  5
30A
330
1F
100
AcDbEntity
  8
Layer0016
  6
Continuous
 62
     4
370
    25
100
AcDbLine
 10
-3.294651843140826
 20
-24.92654591699677
 30
0.0
 11
-2.986451043140818
 21
-24.78173421699676
 31
0.0
  0
LINE
  5
30B
330
1F
100
AcDbEntity
  8
Layer0016
  6
Continuous
 62
     4
370
    25
100
AcDbLine
 10
-3.648280143140823
 20
-25.04799811699678
 30
0.0
 11
-3.294651843140826
 21
-24.92654591699677
 31
0.0
  0
LINE
  5
30C
330
1F
100
AcDbEntity
  8
Layer0016
  6
Continuous
 62
     4
370
    25
100
AcDbLine
 10
-4.151461343140824
 20
-25.15442851699677
 30
0.0
 11
-3.648280143140823
 21
-25.04799811699678
 31
0.0
  0
LINE
  5
30D
330
1F
100
AcDbEntity
  8
Layer0016
  6
Continuous
 62
     4
370
    25
100
AcDbLine
 10
-4.719854343140824
 20
-25.19445471699677
 30
0.0
 11
-4.151461343140824
 21
-25.15442851699677
 31
0.0
  0
ARC
  5
30E
330
1F
100
AcDbEntity
  8
Layer0016
  6
Continuous
 62
     4
370
    25
100
AcDbCircle
 10
-3.817537049343116
 20
-22.80303557497363
 30
0.0
 40
2.097592528959179
100
AcDbArc
 50
338.5001465836921
 51
39.37665531894971
  0
LINE
  5
30F
330
1F
100
AcDbEntity
  8
Layer0016
  6
Continuous
 62
     4
370
    25
100
AcDbLine
 10
-2.022085043140819
 20
-23.88838761699678
 30
0.0
 11
-1.865898143140825
 21
-23.57180081699677
 31
0.0
  0
LINE
  5
310
330
1F
100
AcDbEntity
  8
Layer0016
  6
Continuous
 62
     4
370
    25
100
AcDbLine
 10
-2.247644643140831
 20
-24.19862551699677
 30
0.0
 11
-2.022085043140819
 21
-23.88838761699678
 31
0.0
  0
LINE
  5
311
330
1F
100
AcDbEntity
  8
Layer0016
  6
Continuous
 62
     4
370
    25
100
AcDbLine
 10
-2.565651043140818
 20
-24.50414331699677
 30
0.0
 11
-2.247644643140831
 21
-24.19862551699677
 31
0.0
  0
LINE
  5
312
330
1F
100
AcDbEntity
  8
Layer0016
  6
Continuous
 62
     4
370
    25
100
AcDbLine
 10
-2.631127743140823
 20
-21.05418791699678
 30
0.0
 11
-2.927325343140822
 21
-20.86020541699677
 31
0.0
  0
LINE
  5
313
330
1F
100
AcDbEntity
  8
Layer0016
  6
Continuous
 62
     4
370
    25
100
AcDbLine
 10
-2.196114543140823
 20
-21.47229011699677
 30
0.0
 11
-2.631127743140823
 21
-21.05418791699678
 31
0.0
  0
LINE
  5
314
330
1F
100
AcDbEntity
  8
Layer0016
  6
Continuous
 62
     4
370
    25
100
AcDbLine
 10
-2.927325343140822
 20
-20.86020541699677
 30
0.0
 11
-3.298933743140822
 21
-20.68091321699677
 31
0.0
  0
LINE
  5
315
330
1F
100
AcDbEntity
  8
Layer0016
  6
Continuous
 62
     4
370
    25
100
AcDbLine
 10
-3.298933743140822
 20
-20.68091321699677
 30
0.0
 11
-3.824793343140826
 21
-20.51565481699677
 31
0.0
  0
ARC
  5
316
330
1F
100
AcDbEntity
  8
Layer0016
  6
Continuous
 62
     4
370
    25
100
AcDbCircle
 10
-4.712734246044178
 20
-24.37141302627959
 30
0.0
 40
3.956679215642917
100
AcDbArc
 50
77.03147887954069
 51
90.10310457616153
  0
LINE
  5
317
330
1F
100
AcDbEntity
  8
Layer0016
  6
Continuous
 62
     4
370
    25
100
AcDbLine
 10
-4.719854343140824
 20
-20.41474021699677
 30
0.0
 11
-14.24403104314082
 21
-20.41474021699677
 31
0.0
  0
LINE
  5
318
330
1F
100
AcDbEntity
  8
Layer0016
  6
Continuous
 62
     4
370
    25
100
AcDbLine
 10
-14.89972134314083
 20
-20.52364631699677
 30
0.0
 11
-14.24403104314082
 21
-20.41474021699677
 31
0.0
  0
LINE
  5
319
330
1F
100
AcDbEntity
  8
Layer0016
  6
Continuous
 62
     4
370
    25
100
AcDbLine
 10
-15.48144304314081
 20
-20.83727741699677
 30
0.0
 11
-14.89972134314083
 21
-20.52364631699677
 31
0.0
  0
LINE
  5
31A
330
1F
100
AcDbEntity
  8
Layer0016
  6
Continuous
 62
     4
370
    25
100
AcDbLine
 10
-15.92758334314082
 20
-21.32210851699677
 30
0.0
 11
-15.48144304314081
 21
-20.83727741699677
 31
0.0
  0
LINE
  5
31B
330
1F
100
AcDbEntity
  8
Layer0016
  6
Continuous
 62
     4
370
    25
100
AcDbLine
 10
-16.18945874314082
 20
-21.92985691699677
 30
0.0
 11
-15.92758334314082
 21
-21.32210851699677
 31
0.0
  0
LINE
  5
31C
330
1F
100
AcDbEntity
  8
Layer0016
  6
Continuous
 62
     4
370
    25
100
AcDbLine
 10
-16.24397184314083
 20
-22.37316371699677
 30
0.0
 11
-16.18945874314082
 21
-21.92985691699677
 31
0.0
  0
LINE
  5
31D
330
1F
100
AcDbEntity
  8
Layer0016
  6
Continuous
 62
     4
370
    25
100
AcDbLine
 10
-15.92758334314082
 20
-25.98766511699678
 30
0.0
 11
-15.48144304314081
 21
-25.56415311699677
 31
0.0
  0
LINE
  5
31E
330
1F
100
AcDbEntity
  8
Layer0016
  6
Continuous
 62
     4
370
    25
100
AcDbLine
 10
-16.18945874314082
 20
-26.51746571699676
 30
0.0
 11
-15.92758334314082
 21
-25.98766511699678
 31
0.0
  0
LINE
  5
31F
330
1F
100
AcDbEntity
  8
Layer0016
  6
Continuous
 62
     4
370
    25
100
AcDbLine
 10
-16.24397184314083
 20
-26.90312481699678
 30
0.0
 11
-16.18945874314082
 21
-26.51746571699676
 31
0.0
  0
LINE
  5
320
330
1F
100
AcDbEntity
  8
Layer0016
  6
Continuous
 62
     4
370
    25
100
AcDbLine
 10
-4.719854343140824
 20
-27.31769751699677
 30
0.0
 11
-14.24403104314082
 21
-27.31769751699677
 31
0.0
  0
LINE
  5
321
330
1F
100
AcDbEntity
  8
Layer0016
  6
Continuous
 62
     4
370
    25
100
AcDbLine
 10
-14.89972134314083
 20
-27.37637421699678
 30
0.0
 11
-14.24403104314082
 21
-27.31769751699677
 31
0.0
  0
LINE
  5
322
330
1F
100
AcDbEntity
  8
Layer0016
  6
Continuous
 62
     4
370
    25
100
AcDbLine
 10
-15.48144304314081
 20
-27.54555701699676
 30
0.0
 11
-14.89972134314083
 21
-27.37637421699678
 31
0.0
  0
LINE
  5
323
330
1F
100
AcDbEntity
  8
Layer0016
  6
Continuous
 62
     4
370
    25
100
AcDbLine
 10
-15.92758334314082
 20
-27.80769981699677
 30
0.0
 11
-15.48144304314081
 21
-27.54555701699676
 31
0.0
  0
LINE
  5
324
330
1F
100
AcDbEntity
  8
Layer0016
  6
Continuous
 62
     4
370
    25
100
AcDbLine
 10
-16.18945874314082
 20
-28.13738521699677
 30
0.0
 11
-15.92758334314082
 21
-27.80769981699677
 31
0.0
  0
LINE
  5
325
330
1F
100
AcDbEntity
  8
Layer0016
  6
Continuous
 62
     4
370
    25
100
AcDbLine
 10
-16.24397184314083
 20
-28.37865651699677
 30
0.0
 11
-16.18945874314082
 21
-28.13738521699677
 31
0.0
  0
LINE
  5
326
330
1F
100
AcDbEntity
  8
Layer0016
  6
Continuous
 62
     4
370
    25
100
AcDbLine
 10
-4.466808043140816
 20
-27.33668371699677
 30
0.0
 11
-4.719854343140824
 21
-27.31769751699677
 31
0.0
  0
LINE
  5
327
330
1F
100
AcDbEntity
  8
Layer0016
  6
Continuous
 62
     4
370
    25
100
AcDbLine
 10
-4.128373743140827
 20
-27.42243451699677
 30
0.0
 11
-4.466808043140816
 21
-27.33668371699677
 31
0.0
  0
LINE
  5
328
330
1F
100
AcDbEntity
  8
Layer0016
  6
Continuous
 62
     4
370
    25
100
AcDbLine
 10
-3.824793343140826
 20
-27.56132701699677
 30
0.0
 11
-4.128373743140827
 21
-27.42243451699677
 31
0.0
  0
LINE
  5
329
330
1F
100
AcDbEntity
  8
Layer0016
  6
Continuous
 62
     4
370
    25
100
AcDbLine
 10
-3.298933743140822
 20
-27.96029601699678
 30
0.0
 11
-3.824793343140826
 21
-27.56132701699677
 31
0.0
  0
LINE
  5
32A
330
1F
100
AcDbEntity
  8
Layer0016
  6
Continuous
 62
     4
370
    25
100
AcDbLine
 10
-2.927325343140822
 20
-28.39314571699677
 30
0.0
 11
-3.298933743140822
 21
-27.96029601699678
 31
0.0
  0
LINE
  5
32B
330
1F
100
AcDbEntity
  8
Layer0016
  6
Continuous
 62
     4
370
    25
100
AcDbLine
 10
-2.631127743140823
 20
-28.86146091699677
 30
0.0
 11
-2.927325343140822
 21
-28.39314571699677
 31
0.0
  0
LINE
  5
32C
330
1F
100
AcDbEntity
  8
Layer0016
  6
Continuous
 62
     4
370
    25
100
AcDbLine
 10
-2.196114543140823
 20
-29.87084891699677
 30
0.0
 11
-2.631127743140823
 21
-28.86146091699677
 31
0.0
  0
LINE
  5
32D
330
1F
100
AcDbEntity
  8
Layer0016
  6
Continuous
 62
     4
370
    25
100
AcDbLine
 10
-1.960547643140814
 20
-30.73446951699676
 30
0.0
 11
-2.196114543140823
 21
-29.87084891699677
 31
0.0
  0
LINE
  5
32E
330
1F
100
AcDbEntity
  8
Layer0016
  6
Continuous
 62
     4
370
    25
100
AcDbLine
 10
-1.810955343140819
 20
-31.61482701699677
 30
0.0
 11
-1.960547643140814
 21
-30.73446951699676
 31
0.0
  0
ARC
  5
32F
330
1F
100
AcDbEntity
  8
Layer0016
  6
Continuous
 62
     4
370
    25
100
AcDbCircle
 10
-13.57706121218069
 20
-33.08318246711205
 30
0.0
 40
11.8573738681606
100
AcDbArc
 50
350.9929955494487
 51
7.113471590014293
  0
LINE
  5
330
330
1F
100
AcDbEntity
  8
Layer0016
  6
Continuous
 62
     4
370
    25
100
AcDbLine
 10
-4.719854343140824
 20
-53.39891961699678
 30
0.0
 11
-14.24403104314082
 21
-53.39891961699678
 31
0.0
  0
LINE
  5
331
330
1F
100
AcDbEntity
  8
Layer0016
  6
Continuous
 62
     4
370
    25
100
AcDbLine
 10
-4.719854343140824
 20
-55.52216241699678
 30
0.0
 11
-14.24403104314082
 21
-55.52216241699678
 31
0.0
  0
LINE
  5
332
330
1F
100
AcDbEntity
  8
Layer0016
  6
Continuous
 62
     4
370
    25
100
AcDbLine
 10
-16.18945874314082
 20
-54.19915151699678
 30
0.0
 11
-16.24397184314083
 21
-53.81349241699678
 31
0.0
  0
LINE
  5
333
330
1F
100
AcDbEntity
  8
Layer0016
  6
Continuous
 62
     4
370
    25
100
AcDbLine
 10
-15.92758334314082
 20
-54.72895211699678
 30
0.0
 11
-16.18945874314082
 21
-54.19915151699678
 31
0.0
  0
LINE
  5
334
330
1F
100
AcDbEntity
  8
Layer0016
  6
Continuous
 62
     4
370
    25
100
AcDbLine
 10
-15.48144304314081
 20
-55.15246411699677
 30
0.0
 11
-15.92758334314082
 21
-54.72895211699678
 31
0.0
  0
LINE
  5
335
330
1F
100
AcDbEntity
  8
Layer0016
  6
Continuous
 62
     4
370
    25
100
AcDbLine
 10
-14.89972134314083
 20
-55.42682271699678
 30
0.0
 11
-15.48144304314081
 21
-55.15246411699677
 31
0.0
  0
LINE
  5
336
330
1F
100
AcDbEntity
  8
Layer0016
  6
Continuous
 62
     4
370
    25
100
AcDbLine
 10
-14.24403104314082
 20
-55.52216241699678
 30
0.0
 11
-14.89972134314083
 21
-55.42682271699678
 31
0.0
  0
LINE
  5
337
330
1F
100
AcDbEntity
  8
Layer0016
  6
Continuous
 62
     4
370
    25
100
AcDbLine
 10
-16.18945874314082
 20
-52.57923201699678
 30
0.0
 11
-16.24397184314083
 21
-52.33796071699678
 31
0.0
  0
LINE
  5
338
330
1F
100
AcDbEntity
  8
Layer0016
  6
Continuous
 62
     4
370
    25
100
AcDbLine
 10
-15.92758334314082
 20
-52.90891741699677
 30
0.0
 11
-16.18945874314082
 21
-52.57923201699678
 31
0.0
  0
LINE
  5
339
330
1F
100
AcDbEntity
  8
Layer0016
  6
Continuous
 62
     4
370
    25
100
AcDbLine
 10
-15.48144304314081
 20
-53.17106011699677
 30
0.0
 11
-15.92758334314082
 21
-52.90891741699677
 31
0.0
  0
LINE
  5
33A
330
1F
100
AcDbEntity
  8
Layer0016
  6
Continuous
 62
     4
370
    25
100
AcDbLine
 10
-14.89972134314083
 20
-53.34024301699678
 30
0.0
 11
-15.48144304314081
 21
-53.17106011699677
 31
0.0
  0
LINE
  5
33B
330
1F
100
AcDbEntity
  8
Layer0016
  6
Continuous
 62
     4
370
    25
100
AcDbLine
 10
-14.24403104314082
 20
-53.39891961699678
 30
0.0
 11
-14.89972134314083
 21
-53.34024301699678
 31
0.0
  0
LINE
  5
33C
330
1F
100
AcDbEntity
  8
Layer0016
  6
Continuous
 62
     4
370
    25
100
AcDbLine
 10
-4.719854343140824
 20
-60.30187701699677
 30
0.0
 11
-14.24403104314082
 21
-60.30187701699677
 31
0.0
  0
LINE
  5
33D
330
1F
100
AcDbEntity
  8
Layer0016
  6
Continuous
 62
     4
370
    25
100
AcDbLine
 10
-14.89972134314083
 20
-60.19297091699677
 30
0.0
 11
-15.48144304314081
 21
-59.87933981699678
 31
0.0
  0
LINE
  5
33E
330
1F
100
AcDbEntity
  8
Layer0016
  6
Continuous
 62
     4
370
    25
100
AcDbLine
 10
-14.24403104314082
 20
-60.30187701699677
 30
0.0
 11
-14.89972134314083
 21
-60.19297091699677
 31
0.0
  0
LINE
  5
33F
330
1F
100
AcDbEntity
  8
Layer0016
  6
Continuous
 62
     4
370
    25
100
AcDbLine
 10
-15.48144304314081
 20
-59.87933981699678
 30
0.0
 11
-15.92758334314082
 21
-59.39450871699678
 31
0.0
  0
ARC
  5
340
330
1F
100
AcDbEntity
  8
Layer0016
  6
Continuous
 62
     4
370
    25
100
AcDbCircle
 10
-14.28869704286409
 20
-58.32802721436616
 30
0.0
 40
1.955334012563588
100
AcDbArc
 50
180.0064231407718
 51
213.0534823985488
  0
LINE
  5
341
330
1F
100
AcDbEntity
  8
Layer0016
  6
Continuous
 62
     4
370
    25
100
AcDbLine
 10
-2.565651043140818
 20
-51.73236041699678
 30
0.0
 11
-2.247644643140831
 21
-50.99477511699678
 31
0.0
  0
LINE
  5
342
330
1F
100
AcDbEntity
  8
Layer0016
  6
Continuous
 62
     4
370
    25
100
AcDbLine
 10
-2.986451043140818
 20
-52.40252401699678
 30
0.0
 11
-2.565651043140818
 21
-51.73236041699678
 31
0.0
  0
LINE
  5
343
330
1F
100
AcDbEntity
  8
Layer0016
  6
Continuous
 62
     4
370
    25
100
AcDbLine
 10
-3.294651843140826
 20
-52.75213041699678
 30
0.0
 11
-2.986451043140818
 21
-52.40252401699678
 31
0.0
  0
LINE
  5
344
330
1F
100
AcDbEntity
  8
Layer0016
  6
Continuous
 62
     4
370
    25
100
AcDbLine
 10
-3.648280143140823
 20
-53.04534201699678
 30
0.0
 11
-3.294651843140826
 21
-52.75213041699678
 31
0.0
  0
LINE
  5
345
330
1F
100
AcDbEntity
  8
Layer0016
  6
Continuous
 62
     4
370
    25
100
AcDbLine
 10
-4.151461343140824
 20
-53.30228771699677
 30
0.0
 11
-3.648280143140823
 21
-53.04534201699678
 31
0.0
  0
LINE
  5
346
330
1F
100
AcDbEntity
  8
Layer0016
  6
Continuous
 62
     4
370
    25
100
AcDbLine
 10
-4.719854343140824
 20
-53.39891961699678
 30
0.0
 11
-4.151461343140824
 21
-53.30228771699677
 31
0.0
  0
ARC
  5
347
330
1F
100
AcDbEntity
  8
Layer0016
  6
Continuous
 62
     4
370
    25
100
AcDbCircle
 10
-4.712734246044207
 20
-59.47883522628
 30
0.0
 40
3.956679215643316
100
AcDbArc
 50
77.0314788795416
 51
90.1031045761611
  0
LINE
  5
348
330
1F
100
AcDbEntity
  8
Layer0016
  6
Continuous
 62
     4
370
    25
100
AcDbLine
 10
-3.298933743140822
 20
-55.78833541699677
 30
0.0
 11
-3.824793343140826
 21
-55.62307701699677
 31
0.0
  0
LINE
  5
349
330
1F
100
AcDbEntity
  8
Layer0016
  6
Continuous
 62
     4
370
    25
100
AcDbLine
 10
-2.927325343140822
 20
-55.96762761699678
 30
0.0
 11
-3.298933743140822
 21
-55.78833541699677
 31
0.0
  0
LINE
  5
34A
330
1F
100
AcDbEntity
  8
Layer0016
  6
Continuous
 62
     4
370
    25
100
AcDbLine
 10
-2.631127743140823
 20
-56.16161011699677
 30
0.0
 11
-2.927325343140822
 21
-55.96762761699678
 31
0.0
  0
LINE
  5
34B
330
1F
100
AcDbEntity
  8
Layer0016
  6
Continuous
 62
     4
370
    25
100
AcDbLine
 10
-2.196114543140823
 20
-56.57971231699678
 30
0.0
 11
-2.631127743140823
 21
-56.16161011699677
 31
0.0
  0
ARC
  5
34C
330
1F
100
AcDbEntity
  8
Layer0016
  6
Continuous
 62
     4
370
    25
100
AcDbCircle
 10
-3.817537185377702
 20
-57.9104578329859
 30
0.0
 40
2.097592670916737
100
AcDbArc
 50
338.5001468784309
 51
39.37665418648421
  0
LINE
  5
34D
330
1F
100
AcDbEntity
  8
Layer0016
  6
Continuous
 62
     4
370
    25
100
AcDbLine
 10
-2.247644643140831
 20
-50.99477511699678
 30
0.0
 11
-2.022085043140819
 21
-50.24579461699678
 31
0.0
  0
LINE
  5
34E
330
1F
100
AcDbEntity
  8
Layer0016
  6
Continuous
 62
     4
370
    25
100
AcDbLine
 10
-2.022085043140819
 20
-35.70382421699678
 30
0.0
 11
-1.865898143140825
 21
-34.93951611699677
 31
0.0
  0
LINE
  5
34F
330
1F
100
AcDbEntity
  8
Layer0016
  6
Continuous
 62
     4
370
    25
100
AcDbLine
 10
-2.247644643140831
 20
-36.45280471699678
 30
0.0
 11
-2.022085043140819
 21
-35.70382421699678
 31
0.0
  0
LINE
  5
350
330
1F
100
AcDbEntity
  8
Layer0016
  6
Continuous
 62
     4
370
    25
100
AcDbLine
 10
-2.565651043140818
 20
-37.19039001699677
 30
0.0
 11
-2.247644643140831
 21
-36.45280471699678
 31
0.0
  0
LINE
  5
351
330
1F
100
AcDbEntity
  8
Layer0016
  6
Continuous
 62
     4
370
    25
100
AcDbLine
 10
-2.986451043140818
 20
-37.86055361699678
 30
0.0
 11
-2.565651043140818
 21
-37.19039001699677
 31
0.0
  0
LINE
  5
352
330
1F
100
AcDbEntity
  8
Layer0016
  6
Continuous
 62
     4
370
    25
100
AcDbLine
 10
-3.294651843140826
 20
-38.21015991699677
 30
0.0
 11
-2.986451043140818
 21
-37.86055361699678
 31
0.0
  0
LINE
  5
353
330
1F
100
AcDbEntity
  8
Layer0016
  6
Continuous
 62
     4
370
    25
100
AcDbLine
 10
-3.648280143140823
 20
-38.50337151699678
 30
0.0
 11
-3.294651843140826
 21
-38.21015991699677
 31
0.0
  0
LINE
  5
354
330
1F
100
AcDbEntity
  8
Layer0016
  6
Continuous
 62
     4
370
    25
100
AcDbLine
 10
-4.151461343140824
 20
-38.76031731699678
 30
0.0
 11
-3.648280143140823
 21
-38.50337151699678
 31
0.0
  0
LINE
  5
355
330
1F
100
AcDbEntity
  8
Layer0016
  6
Continuous
 62
     4
370
    25
100
AcDbLine
 10
-4.719854343140824
 20
-38.85694921699678
 30
0.0
 11
-14.24403104314082
 21
-38.85694921699678
 31
0.0
  0
LINE
  5
356
330
1F
100
AcDbEntity
  8
Layer0016
  6
Continuous
 62
     4
370
    25
100
AcDbLine
 10
-4.719854343140824
 20
-38.85694921699678
 30
0.0
 11
-4.151461343140824
 21
-38.76031731699678
 31
0.0
  0
LINE
  5
357
330
1F
100
AcDbEntity
  8
Layer0016
  6
Continuous
 62
     4
370
    25
100
AcDbLine
 10
-14.89972134314083
 20
-38.88287391699677
 30
0.0
 11
-14.24403104314082
 21
-38.85694921699678
 31
0.0
  0
LINE
  5
358
330
1F
100
AcDbEntity
  8
Layer0016
  6
Continuous
 62
     4
370
    25
100
AcDbLine
 10
-15.48144304314081
 20
-38.95724441699677
 30
0.0
 11
-14.89972134314083
 21
-38.88287391699677
 31
0.0
  0
LINE
  5
359
330
1F
100
AcDbEntity
  8
Layer0016
  6
Continuous
 62
     4
370
    25
100
AcDbLine
 10
-15.92758334314082
 20
-39.07134971699678
 30
0.0
 11
-15.48144304314081
 21
-38.95724441699677
 31
0.0
  0
LINE
  5
35A
330
1F
100
AcDbEntity
  8
Layer0016
  6
Continuous
 62
     4
370
    25
100
AcDbLine
 10
-16.18945874314082
 20
-39.21285251699678
 30
0.0
 11
-15.92758334314082
 21
-39.07134971699678
 31
0.0
  0
LINE
  5
35B
330
1F
100
AcDbEntity
  8
Layer0016
  6
Continuous
 62
     4
370
    25
100
AcDbLine
 10
-4.719854343140824
 20
-41.85966791699677
 30
0.0
 11
-14.24403104314082
 21
-41.85966791699677
 31
0.0
  0
LINE
  5
35C
330
1F
100
AcDbEntity
  8
Layer0016
  6
Continuous
 62
     4
370
    25
100
AcDbLine
 10
-14.89972134314083
 20
-41.83374321699678
 30
0.0
 11
-14.24403104314082
 21
-41.85966791699677
 31
0.0
  0
LINE
  5
35D
330
1F
100
AcDbEntity
  8
Layer0016
  6
Continuous
 62
     4
370
    25
100
AcDbLine
 10
-15.48144304314081
 20
-41.75937281699677
 30
0.0
 11
-14.89972134314083
 21
-41.83374321699678
 31
0.0
  0
LINE
  5
35E
330
1F
100
AcDbEntity
  8
Layer0016
  6
Continuous
 62
     4
370
    25
100
AcDbLine
 10
-15.92758334314082
 20
-41.64526741699677
 30
0.0
 11
-15.48144304314081
 21
-41.75937281699677
 31
0.0
  0
LINE
  5
35F
330
1F
100
AcDbEntity
  8
Layer0016
  6
Continuous
 62
     4
370
    25
100
AcDbLine
 10
-16.18945874314082
 20
-41.50376461699678
 30
0.0
 11
-15.92758334314082
 21
-41.64526741699677
 31
0.0
  0
LINE
  5
360
330
1F
100
AcDbEntity
  8
Layer0016
  6
Continuous
 62
     4
370
    25
100
AcDbLine
 10
-16.24397184314083
 20
-41.40166701699678
 30
0.0
 11
-16.18945874314082
 21
-41.50376461699678
 31
0.0
  0
LINE
  5
361
330
1F
100
AcDbEntity
  8
Layer0016
  6
Continuous
 62
     4
370
    25
100
AcDbLine
 10
-4.466808043140816
 20
-41.87865411699677
 30
0.0
 11
-4.719854343140824
 21
-41.85966791699677
 31
0.0
  0
LINE
  5
362
330
1F
100
AcDbEntity
  8
Layer0016
  6
Continuous
 62
     4
370
    25
100
AcDbLine
 10
-4.128373743140827
 20
-41.96440491699677
 30
0.0
 11
-4.466808043140816
 21
-41.87865411699677
 31
0.0
  0
LINE
  5
363
330
1F
100
AcDbEntity
  8
Layer0016
  6
Continuous
 62
     4
370
    25
100
AcDbLine
 10
-3.824793343140826
 20
-42.10329741699678
 30
0.0
 11
-4.128373743140827
 21
-41.96440491699677
 31
0.0
  0
LINE
  5
364
330
1F
100
AcDbEntity
  8
Layer0016
  6
Continuous
 62
     4
370
    25
100
AcDbLine
 10
-3.298933743140822
 20
-42.50226641699678
 30
0.0
 11
-3.824793343140826
 21
-42.10329741699678
 31
0.0
  0
LINE
  5
365
330
1F
100
AcDbEntity
  8
Layer0016
  6
Continuous
 62
     4
370
    25
100
AcDbLine
 10
-2.927325343140822
 20
-42.93511611699678
 30
0.0
 11
-3.298933743140822
 21
-42.50226641699678
 31
0.0
  0
LINE
  5
366
330
1F
100
AcDbEntity
  8
Layer0016
  6
Continuous
 62
     4
370
    25
100
AcDbLine
 10
-2.631127743140823
 20
-43.40343131699677
 30
0.0
 11
-2.927325343140822
 21
-42.93511611699678
 31
0.0
  0
LINE
  5
367
330
1F
100
AcDbEntity
  8
Layer0016
  6
Continuous
 62
     4
370
    25
100
AcDbLine
 10
-2.196114543140823
 20
-44.41281931699677
 30
0.0
 11
-2.631127743140823
 21
-43.40343131699677
 31
0.0
  0
LINE
  5
368
330
1F
100
AcDbEntity
  8
Layer0016
  6
Continuous
 62
     4
370
    25
100
AcDbLine
 10
-1.960547643140814
 20
-45.27643991699678
 30
0.0
 11
-2.196114543140823
 21
-44.41281931699677
 31
0.0
  0
LINE
  5
369
330
1F
100
AcDbEntity
  8
Layer0016
  6
Continuous
 62
     4
370
    25
100
AcDbLine
 10
-1.810955343140819
 20
-46.15679751699678
 30
0.0
 11
-1.960547643140814
 21
-45.27643991699678
 31
0.0
  0
ARC
  5
36A
330
1F
100
AcDbEntity
  8
Layer0016
  6
Continuous
 62
     4
370
    25
100
AcDbCircle
 10
-13.57706061299211
 20
-47.62515292117925
 30
0.0
 40
11.85737326789599
100
AcDbArc
 50
350.9929953542057
 51
7.11347172831397
  0
LINE
  5
36B
330
1F
100
AcDbEntity
  8
Layer0016
  6
Continuous
 62
     4
370
    25
100
AcDbLine
 10
-2.022085043140819
 20
-50.24579461699678
 30
0.0
 11
-1.865898143140825
 21
-49.48148651699678
 31
0.0
  0
LINE
  5
36C
330
1F
100
AcDbEntity
  8
Layer0016
  6
Continuous
 62
     4
370
    25
100
AcDbLine
 10
-2.022085043140819
 20
-58.99580981699677
 30
0.0
 11
-1.865898143140825
 21
-58.67922311699678
 31
0.0
  0
LINE
  5
36D
330
1F
100
AcDbEntity
  8
Layer0016
  6
Continuous
 62
     4
370
    25
100
AcDbLine
 10
-2.247644643140831
 20
-59.30604771699677
 30
0.0
 11
-2.022085043140819
 21
-58.99580981699677
 31
0.0
  0
LINE
  5
36E
330
1F
100
AcDbEntity
  8
Layer0016
  6
Continuous
 62
     4
370
    25
100
AcDbLine
 10
-2.565651043140818
 20
-59.61156561699677
 30
0.0
 11
-2.247644643140831
 21
-59.30604771699677
 31
0.0
  0
LINE
  5
36F
330
1F
100
AcDbEntity
  8
Layer0016
  6
Continuous
 62
     4
370
    25
100
AcDbLine
 10
-2.986451043140818
 20
-59.88915641699677
 30
0.0
 11
-2.565651043140818
 21
-59.61156561699677
 31
0.0
  0
LINE
  5
370
330
1F
100
AcDbEntity
  8
Layer0016
  6
Continuous
 62
     4
370
    25
100
AcDbLine
 10
-3.294651843140826
 20
-60.03396811699677
 30
0.0
 11
-2.986451043140818
 21
-59.88915641699677
 31
0.0
  0
LINE
  5
371
330
1F
100
AcDbEntity
  8
Layer0016
  6
Continuous
 62
     4
370
    25
100
AcDbLine
 10
-3.648280143140823
 20
-60.15542031699678
 30
0.0
 11
-3.294651843140826
 21
-60.03396811699677
 31
0.0
  0
LINE
  5
372
330
1F
100
AcDbEntity
  8
Layer0016
  6
Continuous
 62
     4
370
    25
100
AcDbLine
 10
-4.151461343140824
 20
-60.26185071699678
 30
0.0
 11
-3.648280143140823
 21
-60.15542031699678
 31
0.0
  0
LINE
  5
373
330
1F
100
AcDbEntity
  8
Layer0016
  6
Continuous
 62
     4
370
    25
100
AcDbLine
 10
-4.719854343140824
 20
-60.30187701699677
 30
0.0
 11
-4.151461343140824
 21
-60.26185071699678
 31
0.0
  0
LINE
  5
374
330
1F
100
AcDbEntity
  8
Layer0016
  6
Continuous
 62
     4
370
    25
100
AcDbLine
 10
-87.64403104314066
 20
-27.35830860534125
 30
0.0
 11
-86.1440310431408
 21
-27.35830860534125
 31
0.0
  0
LINE
  5
375
330
1F
100
AcDbEntity
  8
Layer0016
  6
Continuous
 62
     4
370
    25
100
AcDbLine
 10
-86.1440310431408
 20
-30.35830860534125
 30
0.0
 11
-87.64403104314066
 21
-30.35830860534125
 31
0.0
  0
LINE
  5
376
330
1F
100
AcDbEntity
  8
Layer0016
  6
Continuous
 62
     4
370
    25
100
AcDbLine
 10
-87.64403104314066
 20
-50.35830860534124
 30
0.0
 11
-86.1440310431408
 21
-50.35830860534124
 31
0.0
  0
LINE
  5
377
330
1F
100
AcDbEntity
  8
Layer0016
  6
Continuous
 62
     4
370
    25
100
AcDbLine
 10
-86.1440310431408
 20
-53.35830860534124
 30
0.0
 11
-87.64403104314066
 21
-53.35830860534124
 31
0.0
  0
LINE
  5
378
330
1F
100
AcDbEntity
  8
Layer0016
  6
Continuous
 62
     4
370
    25
100
AcDbLine
 10
-86.14403104314081
 20
122.6416913946587
 30
0.0
 11
-87.64403104314066
 21
122.6416913946587
 31
0.0
  0
LINE
  5
379
330
1F
100
AcDbEntity
  8
Layer0016
  6
Continuous
 62
     4
370
    25
100
AcDbLine
 10
-87.64403104314066
 20
118.6416913946587
 30
0.0
 11
-86.14403104314081
 21
118.6416913946587
 31
0.0
  0
CIRCLE
  5
37A
330
1F
100
AcDbEntity
  8
Layer0016
  6
Continuous
 62
     4
370
    25
100
AcDbCircle
 10
-181.5995225647327
 20
-28.85830860534136
 30
0.0
 40
4.0
  0
LINE
  5
37B
330
1F
100
AcDbEntity
  8
Layer0016
  6
Continuous
 62
     4
370
    25
100
AcDbLine
 10
-183.5995206573841
 20
-49.85831051269171
 30
0.0
 11
-179.5995206573841
 21
-53.85831051269171
 31
0.0
  0
CIRCLE
  5
37C
330
1F
100
AcDbEntity
  8
Layer0016
  6
Continuous
 62
     4
370
    25
100
AcDbCircle
 10
-181.5995225647327
 20
-51.85831051269171
 30
0.0
 40
4.0
  0
LINE
  5
37D
330
1F
100
AcDbEntity
  8
Layer0016
  6
Continuous
 62
     4
370
    25
100
AcDbLine
 10
-179.5995243629963
 20
-49.85831051269171
 30
0.0
 11
-183.5995207664691
 21
-53.85831051269171
 31
0.0
  0
ARC
  5
37E
330
1F
100
AcDbEntity
  8
Layer0016
  6
Continuous
 62
     3
370
    50
100
AcDbCircle
 10
-48.86709236805271
 20
130.5363255948244
 30
0.0
 40
2.0
100
AcDbArc
 50
45.00000000000058
 51
88.95837332399067
  0
LINE
  5
37F
330
1F
100
AcDbEntity
  8
Layer0016
  6
Continuous
 62
     3
370
    50
100
AcDbLine
 10
-54.64403104314081
 20
132.6416913946587
 30
0.0
 11
-48.8307347407177
 21
132.535995098251
 31
0.0
  0
LINE
  5
380
330
1F
100
AcDbEntity
  8
Layer0016
  6
Continuous
 62
     3
370
    50
100
AcDbLine
 10
-27.72981748076776
 20
-65.9440950429682
 30
0.0
 11
-38.28621213901297
 21
-76.50048970121341
 31
0.0
  0
ARC
  5
381
330
1F
100
AcDbEntity
  8
Layer0016
  6
Continuous
 62
     3
370
    50
100
AcDbCircle
 10
-39.70042570138602
 20
-75.08627613884028
 30
0.0
 40
2.0
100
AcDbArc
 50
271.0416266760101
 51
314.9999999999983
  0
LINE
  5
382
330
1F
100
AcDbEntity
  8
Layer0016
  6
Continuous
 62
     3
370
    50
100
AcDbLine
 10
-39.66406807405102
 20
-77.08594564226692
 30
0.0
 11
-54.64403104314081
 21
-77.35830860534128
 31
0.0
  0
ARC
  5
383
330
1F
100
AcDbEntity
  8
Layer0016
  6
Continuous
 62
     3
370
    50
100
AcDbCircle
 10
-29.14403104314098
 20
98.6416913946588
 30
0.0
 40
8.0
100
AcDbArc
 50
327.9425566037863
 51
32.05744339621359
  0
ARC
  5
384
330
1F
100
AcDbEntity
  8
Layer0016
  6
Continuous
 62
     3
370
    50
100
AcDbCircle
 10
-23.63517453747662
 20
102.0916913946588
 30
0.0
 40
1.5
100
AcDbArc
 50
32.05744339621349
 51
90.95530591894915
  0
LINE
  5
385
330
1F
100
AcDbEntity
  8
Layer0016
  6
Continuous
 62
     3
370
    50
100
AcDbLine
 10
-29.14403104314093
 20
103.5000409523708
 30
0.0
 11
-23.66018322919084
 21
103.5914829019486
 31
0.0
  0
ARC
  5
386
330
1F
100
AcDbEntity
  8
Layer0016
  6
Continuous
 62
     3
370
    50
100
AcDbCircle
 10
-23.63517453747667
 20
95.19169139465876
 30
0.0
 40
1.5
100
AcDbArc
 50
269.044694081051
 51
327.9425566037863
  0
LINE
  5
387
330
1F
100
AcDbEntity
  8
Layer0016
  6
Continuous
 62
     3
370
    50
100
AcDbLine
 10
-29.14403104314098
 20
93.78334183694673
 30
0.0
 11
-23.66018322919089
 21
93.69189988736892
 31
0.0
  0
ARC
  5
388
330
1F
100
AcDbEntity
  8
Layer0016
  6
Continuous
 62
     3
370
    50
100
AcDbCircle
 10
-29.14403104314098
 20
80.6416913946588
 30
0.0
 40
8.0
100
AcDbArc
 50
327.9425566037863
 51
32.05744339621359
  0
ARC
  5
389
330
1F
100
AcDbEntity
  8
Layer0016
  6
Continuous
 62
     3
370
    50
100
AcDbCircle
 10
-23.63517453747667
 20
84.0916913946588
 30
0.0
 40
1.5
100
AcDbArc
 50
32.05744339621349
 51
90.95530591894915
  0
LINE
  5
38A
330
1F
100
AcDbEntity
  8
Layer0016
  6
Continuous
 62
     3
370
    50
100
AcDbLine
 10
-29.14403104314098
 20
85.50004095237082
 30
0.0
 11
-23.66018322919089
 21
85.59148290194864
 31
0.0
  0
ARC
  5
38B
330
1F
100
AcDbEntity
  8
Layer0016
  6
Continuous
 62
     3
370
    50
100
AcDbCircle
 10
-23.63517453747667
 20
77.19169139465876
 30
0.0
 40
1.5
100
AcDbArc
 50
269.044694081051
 51
327.9425566037863
  0
LINE
  5
38C
330
1F
100
AcDbEntity
  8
Layer0016
  6
Continuous
 62
     3
370
    50
100
AcDbLine
 10
-29.14403104314098
 20
75.78334183694673
 30
0.0
 11
-23.66018322919089
 21
75.69189988736892
 31
0.0
  0
ARC
  5
38D
330
1F
100
AcDbEntity
  8
Layer0016
  6
Continuous
 62
     3
370
    50
100
AcDbCircle
 10
-29.14403104314098
 20
63.64169139465875
 30
0.0
 40
8.0
100
AcDbArc
 50
327.9425566037863
 51
32.05744339621359
  0
ARC
  5
38E
330
1F
100
AcDbEntity
  8
Layer0016
  6
Continuous
 62
     3
370
    50
100
AcDbCircle
 10
-23.63517453747667
 20
67.0916913946588
 30
0.0
 40
1.5
100
AcDbArc
 50
32.05744339621349
 51
90.95530591894915
  0
LINE
  5
38F
330
1F
100
AcDbEntity
  8
Layer0016
  6
Continuous
 62
     3
370
    50
100
AcDbLine
 10
-29.14403104314098
 20
68.50004095237082
 30
0.0
 11
-23.66018322919089
 21
68.59148290194864
 31
0.0
  0
ARC
  5
390
330
1F
100
AcDbEntity
  8
Layer0016
  6
Continuous
 62
     3
370
    50
100
AcDbCircle
 10
-23.63517453747667
 20
60.19169139465876
 30
0.0
 40
1.5
100
AcDbArc
 50
269.044694081051
 51
327.9425566037863
  0
LINE
  5
391
330
1F
100
AcDbEntity
  8
Layer0016
  6
Continuous
 62
     3
370
    50
100
AcDbLine
 10
-29.14403104314098
 20
58.78334183694668
 30
0.0
 11
-23.66018322919089
 21
58.69189988736892
 31
0.0
  0
ARC
  5
392
330
1F
100
AcDbEntity
  8
Layer0016
  6
Continuous
 62
     3
370
    50
100
AcDbCircle
 10
-29.14403104314098
 20
46.64169139465874
 30
0.0
 40
8.0
100
AcDbArc
 50
327.9425566037863
 51
32.05744339621359
  0
ARC
  5
393
330
1F
100
AcDbEntity
  8
Layer0016
  6
Continuous
 62
     3
370
    50
100
AcDbCircle
 10
-23.63517453747667
 20
50.09169139465874
 30
0.0
 40
1.5
100
AcDbArc
 50
32.05744339621349
 51
90.95530591894915
  0
LINE
  5
394
330
1F
100
AcDbEntity
  8
Layer0016
  6
Continuous
 62
     3
370
    50
100
AcDbLine
 10
-29.14403104314098
 20
51.50004095237082
 30
0.0
 11
-23.66018322919089
 21
51.59148290194858
 31
0.0
  0
ARC
  5
395
330
1F
100
AcDbEntity
  8
Layer0016
  6
Continuous
 62
     3
370
    50
100
AcDbCircle
 10
-23.63517453747667
 20
43.19169139465875
 30
0.0
 40
1.5
100
AcDbArc
 50
269.044694081051
 51
327.9425566037863
  0
LINE
  5
396
330
1F
100
AcDbEntity
  8
Layer0016
  6
Continuous
 62
     3
370
    50
100
AcDbLine
 10
-29.14403104314098
 20
41.78334183694667
 30
0.0
 11
-23.66018322919089
 21
41.69189988736891
 31
0.0
  0
ARC
  5
397
330
1F
100
AcDbEntity
  8
Layer0016
  6
Continuous
 62
     3
370
    50
100
AcDbCircle
 10
-29.14403104314098
 20
29.64169139465874
 30
0.0
 40
8.0
100
AcDbArc
 50
327.9425566037863
 51
32.05744339621359
  0
ARC
  5
398
330
1F
100
AcDbEntity
  8
Layer0016
  6
Continuous
 62
     3
370
    50
100
AcDbCircle
 10
-23.63517453747667
 20
33.09169139465873
 30
0.0
 40
1.5
100
AcDbArc
 50
32.05744339621349
 51
90.95530591894915
  0
LINE
  5
399
330
1F
100
AcDbEntity
  8
Layer0016
  6
Continuous
 62
     3
370
    50
100
AcDbLine
 10
-29.14403104314098
 20
34.50004095237082
 30
0.0
 11
-23.66018322919089
 21
34.59148290194857
 31
0.0
  0
ARC
  5
39A
330
1F
100
AcDbEntity
  8
Layer0016
  6
Continuous
 62
     3
370
    50
100
AcDbCircle
 10
-23.63517453747667
 20
26.19169139465873
 30
0.0
 40
1.5
100
AcDbArc
 50
269.044694081051
 51
327.9425566037863
  0
LINE
  5
39B
330
1F
100
AcDbEntity
  8
Layer0016
  6
Continuous
 62
     3
370
    50
100
AcDbLine
 10
-29.14403104314098
 20
24.78334183694667
 30
0.0
 11
-23.66018322919089
 21
24.69189988736888
 31
0.0
  0
ARC
  5
39C
330
1F
100
AcDbEntity
  8
Layer0016
  6
Continuous
 62
     3
370
    50
100
AcDbCircle
 10
-29.14403104314098
 20
12.64169139465871
 30
0.0
 40
8.0
100
AcDbArc
 50
327.9425566037863
 51
32.05744339621359
  0
ARC
  5
39D
330
1F
100
AcDbEntity
  8
Layer0016
  6
Continuous
 62
     3
370
    50
100
AcDbCircle
 10
-23.63517453747667
 20
16.0916913946587
 30
0.0
 40
1.5
100
AcDbArc
 50
32.05744339621349
 51
90.95530591894915
  0
LINE
  5
39E
330
1F
100
AcDbEntity
  8
Layer0016
  6
Continuous
 62
     3
370
    50
100
AcDbLine
 10
-29.14403104314098
 20
17.50004095237076
 30
0.0
 11
-23.66018322919089
 21
17.59148290194855
 31
0.0
  0
ARC
  5
39F
330
1F
100
AcDbEntity
  8
Layer0016
  6
Continuous
 62
     3
370
    50
100
AcDbCircle
 10
-23.63517453747667
 20
9.191691394658697
 30
0.0
 40
1.5
100
AcDbArc
 50
269.044694081051
 51
327.9425566037863
  0
LINE
  5
3A0
330
1F
100
AcDbEntity
  8
Layer0016
  6
Continuous
 62
     3
370
    50
100
AcDbLine
 10
-29.14403104314098
 20
7.78334183694664
 30
0.0
 11
-23.66018322919089
 21
7.691899887368855
 31
0.0
  0
ARC
  5
3A1
330
1F
100
AcDbEntity
  8
Layer0016
  6
Continuous
 62
     3
370
    50
100
AcDbCircle
 10
-29.14403104314098
 20
-4.358308605341286
 30
0.0
 40
8.0
100
AcDbArc
 50
327.9425566037863
 51
32.05744339621359
  0
ARC
  5
3A2
330
1F
100
AcDbEntity
  8
Layer0016
  6
Continuous
 62
     3
370
    50
100
AcDbCircle
 10
-23.63517453747667
 20
-0.908308605341297
 30
0.0
 40
1.5
100
AcDbArc
 50
32.05744339621349
 51
90.95530591894915
  0
LINE
  5
3A3
330
1F
100
AcDbEntity
  8
Layer0016
  6
Continuous
 62
     3
370
    50
100
AcDbLine
 10
-29.14403104314098
 20
0.5000409523707603
 30
0.0
 11
-23.66018322919089
 21
0.5914829019485452
 31
0.0
  0
ARC
  5
3A4
330
1F
100
AcDbEntity
  8
Layer0016
  6
Continuous
 62
     3
370
    50
100
AcDbCircle
 10
-23.63517453747667
 20
-7.808308605341303
 30
0.0
 40
1.5
100
AcDbArc
 50
269.044694081051
 51
327.9425566037863
  0
LINE
  5
3A5
330
1F
100
AcDbEntity
  8
Layer0016
  6
Continuous
 62
     3
370
    50
100
AcDbLine
 10
-28.35436051589031
 20
-9.2298257444644
 30
0.0
 11
-23.66018322919089
 21
-9.308100112631145
 31
0.0
  0
LINE
  5
3A6
330
1F
100
AcDbEntity
  8
Layer0016
  6
Continuous
 62
     3
370
    50
100
AcDbLine
 10
-29.14403104314081
 20
112.8132642699125
 30
0.0
 11
-29.14403104314081
 21
1.254939120494861
 31
0.0
  0
LINE
  5
3A7
330
1F
100
AcDbEntity
  8
Layer0016
  6
Continuous
 62
     3
370
    50
100
AcDbLine
 10
-27.14403104314081
 20
-15.59736042585808
 30
0.0
 11
-27.14403104314081
 21
-64.5298814805951
 31
0.0
  0
ARC
  5
3A8
330
1F
100
AcDbEntity
  8
Layer0016
  6
Continuous
 62
     3
370
    50
100
AcDbCircle
 10
40.85596895685913
 20
1.254939120494861
 30
0.0
 40
70.0
100
AcDbArc
 50
180.0
 51
193.5362027373813
  0
LINE
  5
3A9
330
1F
100
AcDbEntity
  8
Layer0016
  6
Continuous
 62
     3
370
    50
100
AcDbLine
 10
-29.72981748076771
 20
114.2274778322856
 30
0.0
 11
-47.4528788056796
 21
131.9505391571975
 31
0.0
  0
ARC
  5
3AA
330
1F
100
AcDbEntity
  8
Layer0016
  6
Continuous
 62
     3
370
    50
100
AcDbCircle
 10
-31.14403104314081
 20
112.8132642699125
 30
0.0
 40
2.0
100
AcDbArc
 50
0.0
 51
44.99999999999942
  0
ARC
  5
3AB
330
1F
100
AcDbEntity
  8
Layer0016
  6
Continuous
 62
     3
370
    50
100
AcDbCircle
 10
-29.14403104314081
 20
-15.59736042585808
 30
0.0
 40
2.0
100
AcDbArc
 50
0.0
 51
13.53620273738228
  0
ARC
  5
3AC
330
1F
100
AcDbEntity
  8
Layer0016
  6
Continuous
 62
     3
370
    50
100
AcDbCircle
 10
-29.14403104314081
 20
-64.5298814805951
 30
0.0
 40
2.0
100
AcDbArc
 50
314.9999999999994
 51
0.0
  0
LINE
  5
3AD
330
1F
100
AcDbEntity
  8
Layer0016
  6
Continuous
 62
     3
370
    50
100
AcDbLine
 10
-55.64403104314086
 20
117.1416913946587
 30
0.0
 11
-86.14403104314081
 21
117.1416913946587
 31
0.0
  0
LINE
  5
3AE
330
1F
100
AcDbEntity
  8
Layer0016
  6
Continuous
 62
     3
370
    50
100
AcDbLine
 10
-55.64403104314086
 20
124.1416913946587
 30
0.0
 11
-86.14403104314081
 21
124.1416913946587
 31
0.0
  0
LINE
  5
3AF
330
1F
100
AcDbEntity
  8
Layer0016
  6
Continuous
 62
     3
370
    50
100
AcDbLine
 10
-98.64403104314064
 20
133.6416913946587
 30
0.0
 11
-98.64403104314064
 21
107.6416913946587
 31
0.0
  0
LINE
  5
3B0
330
1F
100
AcDbEntity
  8
Layer0016
  6
Continuous
 62
     3
370
    50
100
AcDbLine
 10
-96.64403104314064
 20
135.6416913946587
 30
0.0
 11
-88.64403104314066
 21
135.6416913946587
 31
0.0
  0
LINE
  5
3B1
330
1F
100
AcDbEntity
  8
Layer0016
  6
Continuous
 62
     3
370
    50
100
AcDbLine
 10
-88.64403104314066
 20
105.6416913946587
 30
0.0
 11
-96.64403104314064
 21
105.6416913946587
 31
0.0
  0
ARC
  5
3B2
330
1F
100
AcDbEntity
  8
Layer0016
  6
Continuous
 62
     3
370
    50
100
AcDbCircle
 10
-96.64403104314064
 20
133.6416913946587
 30
0.0
 40
2.0
100
AcDbArc
 50
90.0
 51
180.0
  0
ARC
  5
3B3
330
1F
100
AcDbEntity
  8
Layer0016
  6
Continuous
 62
     3
370
    50
100
AcDbCircle
 10
-96.64403104314064
 20
107.6416913946587
 30
0.0
 40
2.0
100
AcDbArc
 50
180.0
 51
270.0
  0
CIRCLE
  5
3B4
330
1F
100
AcDbEntity
  8
Layer0016
  6
Continuous
 62
     3
370
    50
100
AcDbCircle
 10
-181.5995206573841
 20
120.6416913946513
 30
0.0
 40
15.0
  0
CIRCLE
  5
3B5
330
1F
100
AcDbEntity
  8
Layer0016
  6
Continuous
 62
     3
370
    50
100
AcDbCircle
 10
68.4004793426158
 20
98.64169139465884
 30
0.0
 40
4.95
  0
CIRCLE
  5
3B6
330
1F
100
AcDbEntity
  8
Layer0016
  6
Continuous
 62
     3
370
    50
100
AcDbCircle
 10
60.1504793426158
 20
80.64169139465884
 30
0.0
 40
4.95
  0
CIRCLE
  5
3B7
330
1F
100
AcDbEntity
  8
Layer0016
  6
Continuous
 62
     3
370
    50
100
AcDbCircle
 10
76.6504793426158
 20
80.64169139465884
 30
0.0
 40
4.95
  0
CIRCLE
  5
3B8
330
1F
100
AcDbEntity
  8
Layer0016
  6
Continuous
 62
     3
370
    50
100
AcDbCircle
 10
60.1504793426158
 20
63.64169139465878
 30
0.0
 40
4.95
  0
CIRCLE
  5
3B9
330
1F
100
AcDbEntity
  8
Layer0016
  6
Continuous
 62
     3
370
    50
100
AcDbCircle
 10
76.6504793426158
 20
63.64169139465878
 30
0.0
 40
4.95
  0
CIRCLE
  5
3BA
330
1F
100
AcDbEntity
  8
Layer0016
  6
Continuous
 62
     3
370
    50
100
AcDbCircle
 10
60.1504793426158
 20
46.64169139465874
 30
0.0
 40
4.95
  0
CIRCLE
  5
3BB
330
1F
100
AcDbEntity
  8
Layer0016
  6
Continuous
 62
     3
370
    50
100
AcDbCircle
 10
76.6504793426158
 20
46.64169139465874
 30
0.0
 40
4.95
  0
CIRCLE
  5
3BC
330
1F
100
AcDbEntity
  8
Layer0016
  6
Continuous
 62
     3
370
    50
100
AcDbCircle
 10
60.1504793426158
 20
29.64169139465874
 30
0.0
 40
4.95
  0
CIRCLE
  5
3BD
330
1F
100
AcDbEntity
  8
Layer0016
  6
Continuous
 62
     3
370
    50
100
AcDbCircle
 10
76.6504793426158
 20
29.64169139465874
 30
0.0
 40
4.95
  0
CIRCLE
  5
3BE
330
1F
100
AcDbEntity
  8
Layer0016
  6
Continuous
 62
     3
370
    50
100
AcDbCircle
 10
60.1504793426158
 20
12.64169139465874
 30
0.0
 40
4.95
  0
CIRCLE
  5
3BF
330
1F
100
AcDbEntity
  8
Layer0016
  6
Continuous
 62
     3
370
    50
100
AcDbCircle
 10
76.6504793426158
 20
12.64169139465874
 30
0.0
 40
4.95
  0
CIRCLE
  5
3C0
330
1F
100
AcDbEntity
  8
Layer0016
  6
Continuous
 62
     3
370
    50
100
AcDbCircle
 10
60.1504793426158
 20
-4.35830860534125
 30
0.0
 40
4.95
  0
CIRCLE
  5
3C1
330
1F
100
AcDbEntity
  8
Layer0016
  6
Continuous
 62
     3
370
    50
100
AcDbCircle
 10
76.6504793426158
 20
-4.35830860534125
 30
0.0
 40
4.95
  0
ARC
  5
3C2
330
1F
100
AcDbEntity
  8
Layer0016
  6
Continuous
 62
     3
370
    50
100
AcDbCircle
 10
68.40047934261585
 20
112.6416913946588
 30
0.0
 40
20.0
100
AcDbArc
 50
0.0
 51
180.0
  0
LINE
  5
3C3
330
1F
100
AcDbEntity
  8
Layer0016
  6
Continuous
 62
     3
370
    50
100
AcDbLine
 10
48.40047934261585
 20
112.6416913946588
 30
0.0
 11
48.40047934261585
 21
-57.35830860534124
 31
0.0
  0
LINE
  5
3C4
330
1F
100
AcDbEntity
  8
Layer0016
  6
Continuous
 62
     3
370
    50
100
AcDbLine
 10
88.40047934261582
 20
112.6416913946588
 30
0.0
 11
88.40047934261582
 21
-57.35830860534125
 31
0.0
  0
ARC
  5
3C5
330
1F
100
AcDbEntity
  8
Layer0016
  6
Continuous
 62
     3
370
    50
100
AcDbCircle
 10
68.40047934261585
 20
-57.35830860534125
 30
0.0
 40
20.0
100
AcDbArc
 50
180.0
 51
0.0
  0
CIRCLE
  5
3C6
330
1F
100
AcDbEntity
  8
Layer0016
  6
Continuous
 62
     3
370
    50
100
AcDbCircle
 10
188.4004793426158
 20
120.6416913946587
 30
0.0
 40
6.0
  0
LINE
  5
3C7
330
1F
100
AcDbEntity
  8
Layer0016
  6
Continuous
 62
     3
370
    50
100
AcDbLine
 10
218.4004793426158
 20
112.6416913946588
 30
0.0
 11
218.4004793426158
 21
-57.35830860534126
 31
0.0
  0
LINE
  5
3C8
330
1F
100
AcDbEntity
  8
Layer0016
  6
Continuous
 62
     3
370
    50
100
AcDbLine
 10
158.4004793426158
 20
-57.35830860534125
 30
0.0
 11
158.4004793426158
 21
112.6416913946588
 31
0.0
  0
ARC
  5
3C9
330
1F
100
AcDbEntity
  8
Layer0016
  6
Continuous
 62
     3
370
    50
100
AcDbCircle
 10
188.4004793426157
 20
112.6416913946588
 30
0.0
 40
29.99999999999999
100
AcDbArc
 50
0.0000000000000035
 51
180.0
  0
ARC
  5
3CA
330
1F
100
AcDbEntity
  8
Layer0016
  6
Continuous
 62
     3
370
    50
100
AcDbCircle
 10
188.4004793426158
 20
-57.35830860534126
 30
0.0
 40
29.99999999999999
100
AcDbArc
 50
180.0
 51
0.0
  0
LINE
  5
3CB
330
1F
100
AcDbEntity
  8
Layer0016
  6
Continuous
 62
     3
370
    50
100
AcDbLine
 10
38.40047934261582
 20
-57.35830860534125
 30
0.0
 11
38.4004793426158
 21
112.6416913946588
 31
0.0
  0
ARC
  5
3CC
330
1F
100
AcDbEntity
  8
Layer0016
  6
Continuous
 62
     3
370
    50
100
AcDbCircle
 10
68.40047934261577
 20
112.6416913946588
 30
0.0
 40
29.99999999999999
100
AcDbArc
 50
0.0000000000000035
 51
180.0
  0
LINE
  5
3CD
330
1F
100
AcDbEntity
  8
Layer0016
  6
Continuous
 62
     3
370
    50
100
AcDbLine
 10
98.4004793426158
 20
112.6416913946588
 30
0.0
 11
98.40047934261582
 21
-57.35830860534126
 31
0.0
  0
ARC
  5
3CE
330
1F
100
AcDbEntity
  8
Layer0016
  6
Continuous
 62
     3
370
    50
100
AcDbCircle
 10
68.4004793426158
 20
-57.35830860534126
 30
0.0
 40
29.99999999999999
100
AcDbArc
 50
180.0
 51
0.0
  0
LINE
  5
3CF
330
1F
100
AcDbEntity
  8
Layer0016
  6
Continuous
 62
     3
370
    50
100
AcDbLine
 10
-211.599520657384
 20
-57.35830860534124
 30
0.0
 11
-211.5995206573841
 21
112.6416913946588
 31
0.0
  0
ARC
  5
3D0
330
1F
100
AcDbEntity
  8
Layer0016
  6
Continuous
 62
     3
370
    50
100
AcDbCircle
 10
-181.5995206573841
 20
112.6416913946588
 30
0.0
 40
29.99999999999999
100
AcDbArc
 50
0.0000000000000035
 51
180.0
  0
LINE
  5
3D1
330
1F
100
AcDbEntity
  8
Layer0016
  6
Continuous
 62
     3
370
    50
100
AcDbLine
 10
-151.5995206573841
 20
112.6416913946588
 30
0.0
 11
-151.599520657384
 21
-57.35830860534126
 31
0.0
  0
ARC
  5
3D2
330
1F
100
AcDbEntity
  8
Layer0016
  6
Continuous
 62
     3
370
    50
100
AcDbCircle
 10
-181.5995206573841
 20
-57.35830860534126
 30
0.0
 40
29.99999999999999
100
AcDbArc
 50
180.0
 51
0.0
  0
ARC
  5
3D3
330
1F
100
AcDbEntity
  8
Layer0016
  6
Continuous
 62
     3
370
    50
100
AcDbCircle
 10
-199.0995206573841
 20
-41.85830860534137
 30
0.0
 40
0.5
100
AcDbArc
 50
179.9999999999999
 51
269.9999999999998
  0
ARC
  5
3D4
330
1F
100
AcDbEntity
  8
Layer0016
  6
Continuous
 62
     3
370
    50
100
AcDbCircle
 10
-181.5995206573841
 20
-40.35830860534137
 30
0.0
 40
6.75
100
AcDbArc
 50
197.2352852570877
 51
342.7647147429119
  0
ARC
  5
3D5
330
1F
100
AcDbEntity
  8
Layer0016
  6
Continuous
 62
     3
370
    50
100
AcDbCircle
 10
-173.0995206573841
 20
-41.85830860534137
 30
0.0
 40
0.5
100
AcDbArc
 50
269.9999999999998
 51
359.9999999999997
  0
LINE
  5
3D6
330
1F
100
AcDbEntity
  8
Layer0016
  6
Continuous
 62
     3
370
    50
100
AcDbLine
 10
-199.0995206573841
 20
-38.35830860534137
 30
0.0
 11
-173.0995206573841
 21
-38.35830860534137
 31
0.0
  0
ARC
  5
3D7
330
1F
100
AcDbEntity
  8
Layer0016
  6
Continuous
 62
     3
370
    50
100
AcDbCircle
 10
-173.0995206573841
 20
-38.85830860534137
 30
0.0
 40
0.5
100
AcDbArc
 50
359.9999999999998
 51
90.0
  0
ARC
  5
3D8
330
1F
100
AcDbEntity
  8
Layer0016
  6
Continuous
 62
     3
370
    50
100
AcDbCircle
 10
-199.0995206573841
 20
-38.85830860534137
 30
0.0
 40
0.5
100
AcDbArc
 50
90.0
 51
179.9999999999969
  0
LINE
  5
3D9
330
1F
100
AcDbEntity
  8
Layer0016
  6
Continuous
 62
     3
370
    50
100
AcDbLine
 10
-172.5995206573841
 20
-41.85830860534137
 30
0.0
 11
-172.5995206573841
 21
-38.85830860534137
 31
0.0
  0
ARC
  5
3DA
330
1F
100
AcDbEntity
  8
Layer0016
  6
Continuous
 62
     3
370
    50
100
AcDbCircle
 10
-181.5995206573841
 20
-40.35830860534137
 30
0.0
 40
6.75
100
AcDbArc
 50
17.23528525708748
 51
162.7647147429121
  0
CIRCLE
  5
3DB
330
1F
100
AcDbEntity
  8
Layer0016
  6
Continuous
 62
     3
370
    50
100
AcDbCircle
 10
-186.0995206573841
 20
-40.35830860534137
 30
0.0
 40
17.95000076293945
  0
CIRCLE
  5
3DC
330
1F
100
AcDbEntity
  8
Layer0016
  6
Continuous
 62
     3
370
    50
100
AcDbCircle
 10
-186.0995206573841
 20
-40.35830860534137
 30
0.0
 40
22.5
  0
LINE
  5
3DD
330
1F
100
AcDbEntity
  8
Layer0016
  6
Continuous
 62
     3
370
    50
100
AcDbLine
 10
-199.0995206573841
 20
-42.35830860534137
 30
0.0
 11
-173.0995206573841
 21
-42.35830860534137
 31
0.0
  0
LINE
  5
3DE
330
1F
100
AcDbEntity
  8
Layer0016
  6
Continuous
 62
     3
370
    50
100
AcDbLine
 10
-199.5995206573841
 20
-41.85830860534137
 30
0.0
 11
-199.5995206573841
 21
-38.85830860534137
 31
0.0
  0
LINE
  5
3DF
330
1F
100
AcDbEntity
  8
Layer0016
  6
Continuous
 62
     3
370
    50
100
AcDbLine
 10
-86.14403104314081
 20
124.1416913946587
 30
0.0
 11
-86.14403104314081
 21
117.1416913946587
 31
0.0
  0
LINE
  5
3E0
330
1F
100
AcDbEntity
  8
Layer0016
  6
Continuous
 62
     3
370
    50
100
AcDbLine
 10
-88.64403104314066
 20
142.6416913946588
 30
0.0
 11
-87.64403104314066
 21
142.6416913946588
 31
0.0
  0
LINE
  5
3E1
330
1F
100
AcDbEntity
  8
Layer0016
  6
Continuous
 62
     3
370
    50
100
AcDbLine
 10
-55.64403104314086
 20
142.6416913946588
 30
0.0
 11
-54.64403104314081
 21
142.6416913946588
 31
0.0
  0
LINE
  5
3E2
330
1F
100
AcDbEntity
  8
Layer0016
  6
Continuous
 62
     3
370
    50
100
AcDbLine
 10
-55.64403104314086
 20
-87.35830860534125
 30
0.0
 11
-54.64403104314081
 21
-87.35830860534125
 31
0.0
  0
LINE
  5
3E3
330
1F
100
AcDbEntity
  8
Layer0016
  6
Continuous
 62
     3
370
    50
100
AcDbLine
 10
-87.64403104314066
 20
-87.35830860534125
 30
0.0
 11
-88.64403104314066
 21
-87.35830860534125
 31
0.0
  0
LINE
  5
3E4
330
1F
100
AcDbEntity
  8
Layer0016
  6
Continuous
 62
     3
370
    50
100
AcDbLine
 10
-54.64403104314081
 20
142.6416913946588
 30
0.0
 11
-54.64403104314081
 21
-87.35830860534125
 31
0.0
  0
LINE
  5
3E5
330
1F
100
AcDbEntity
  8
Layer0016
  6
Continuous
 62
     3
370
    50
100
AcDbLine
 10
-88.64403104314066
 20
142.6416913946588
 30
0.0
 11
-88.64403104314066
 21
-87.35830860534125
 31
0.0
  0
LINE
  5
3E6
330
1F
100
AcDbEntity
  8
Layer0016
  6
Continuous
 62
     3
370
    50
100
AcDbLine
 10
-55.64403104314086
 20
-87.35830860534125
 30
0.0
 11
-55.64403104314086
 21
142.6416913946588
 31
0.0
  0
LINE
  5
3E7
330
1F
100
AcDbEntity
  8
Layer0016
  6
Continuous
 62
     3
370
    50
100
AcDbLine
 10
-87.64403104314066
 20
142.6416913946588
 30
0.0
 11
-87.64403104314066
 21
-87.35830860534125
 31
0.0
  0
LINE
  5
3E8
330
1F
100
AcDbEntity
  8
Layer0016
  6
Continuous
 62
     3
370
    50
100
AcDbLine
 10
-106.644024939625
 20
-33.60830860534125
 30
0.0
 11
-103.144024939625
 21
-33.60830860534125
 31
0.0
  0
LINE
  5
3E9
330
1F
100
AcDbEntity
  8
Layer0016
  6
Continuous
 62
     3
370
    50
100
AcDbLine
 10
-106.644024939625
 20
-47.10830860534125
 30
0.0
 11
-103.144024939625
 21
-47.10830860534128
 31
0.0
  0
LINE
  5
3EA
330
1F
100
AcDbEntity
  8
Layer0016
  6
Continuous
 62
     3
370
    50
100
AcDbLine
 10
-103.1440310431407
 20
-56.80830631652289
 30
0.0
 11
-103.1440310431407
 21
-23.90830479064398
 31
0.0
  0
LINE
  5
3EB
330
1F
100
AcDbEntity
  8
Layer0016
  6
Continuous
 62
     3
370
    50
100
AcDbLine
 10
-89.14403104314064
 20
-17.85830555358339
 30
0.0
 11
-88.64403104314066
 21
-17.85830555358342
 31
0.0
  0
ARC
  5
3EC
330
1F
100
AcDbEntity
  8
Layer0016
  6
Continuous
 62
     3
370
    50
100
AcDbCircle
 10
-89.14403104314066
 20
-19.35830555358339
 30
0.0
 40
1.5
100
AcDbArc
 50
89.99999999999957
 51
180.0
  0
LINE
  5
3ED
330
1F
100
AcDbEntity
  8
Layer0016
  6
Continuous
 62
     3
370
    50
100
AcDbLine
 10
-90.64403104314064
 20
-61.35830555358345
 30
0.0
 11
-90.64403104314066
 21
-19.35830555358339
 31
0.0
  0
LINE
  5
3EE
330
1F
100
AcDbEntity
  8
Layer0016
  6
Continuous
 62
     3
370
    50
100
AcDbLine
 10
-89.14403104314063
 20
-62.85830555358345
 30
0.0
 11
-88.64403104314066
 21
-62.85830555358345
 31
0.0
  0
ARC
  5
3EF
330
1F
100
AcDbEntity
  8
Layer0016
  6
Continuous
 62
     3
370
    50
100
AcDbCircle
 10
-89.14403104314064
 20
-61.35830555358345
 30
0.0
 40
1.5
100
AcDbArc
 50
180.0
 51
270.0000000000007
  0
LINE
  5
3F0
330
1F
100
AcDbEntity
  8
Layer0016
  6
Continuous
 62
     3
370
    50
100
AcDbLine
 10
-105.644024939625
 20
-38.35830860534137
 30
0.0
 11
-105.644024939625
 21
-42.35830860534137
 31
0.0
  0
LINE
  5
3F1
330
1F
100
AcDbEntity
  8
Layer0016
  6
Continuous
 62
     3
370
    50
100
AcDbLine
 10
-101.6440310431407
 20
-58.30830631652289
 30
0.0
 11
-93.14403104314064
 21
-58.30830631652289
 31
0.0
  0
LINE
  5
3F2
330
1F
100
AcDbEntity
  8
Layer0016
  6
Continuous
 62
     3
370
    50
100
AcDbLine
 10
-93.14403104314064
 20
-22.40830479064398
 30
0.0
 11
-101.6440310431407
 21
-22.40830479064398
 31
0.0
  0
ARC
  5
3F3
330
1F
100
AcDbEntity
  8
Layer0016
  6
Continuous
 62
     3
370
    50
100
AcDbCircle
 10
-93.14403104314064
 20
-19.90830479064398
 30
0.0
 40
2.5
100
AcDbArc
 50
270.0
 51
0.0
  0
ARC
  5
3F4
330
1F
100
AcDbEntity
  8
Layer0016
  6
Continuous
 62
     3
370
    50
100
AcDbCircle
 10
-93.14403104314064
 20
-60.80830631652289
 30
0.0
 40
2.5
100
AcDbArc
 50
0.0
 51
90.0
  0
ARC
  5
3F5
330
1F
100
AcDbEntity
  8
Layer0016
  6
Continuous
 62
     3
370
    50
100
AcDbCircle
 10
-101.6440310431407
 20
-23.90830479064398
 30
0.0
 40
1.5
100
AcDbArc
 50
90.0
 51
180.0
  0
ARC
  5
3F6
330
1F
100
AcDbEntity
  8
Layer0016
  6
Continuous
 62
     3
370
    50
100
AcDbCircle
 10
-101.6440310431407
 20
-56.80830631652289
 30
0.0
 40
1.5
100
AcDbArc
 50
180.0
 51
270.0
  0
LINE
  5
3F7
330
1F
100
AcDbEntity
  8
Layer0016
  6
Continuous
 62
     3
370
    50
100
AcDbLine
 10
-119.144024939625
 20
-38.85830860534137
 30
0.0
 11
-119.144024939625
 21
-41.85830860534137
 31
0.0
  0
LINE
  5
3F8
330
1F
100
AcDbEntity
  8
Layer0016
  6
Continuous
 62
     3
370
    50
100
AcDbLine
 10
-118.644024939625
 20
-38.35830860534137
 30
0.0
 11
-105.644024939625
 21
-38.35830860534137
 31
0.0
  0
LINE
  5
3F9
330
1F
100
AcDbEntity
  8
Layer0016
  6
Continuous
 62
     3
370
    50
100
AcDbLine
 10
-118.644024939625
 20
-42.35830860534137
 30
0.0
 11
-105.644024939625
 21
-42.35830860534137
 31
0.0
  0
ARC
  5
3FA
330
1F
100
AcDbEntity
  8
Layer0016
  6
Continuous
 62
     3
370
    50
100
AcDbCircle
 10
-118.644024939625
 20
-38.85830860534137
 30
0.0
 40
0.5
100
AcDbArc
 50
90.0
 51
180.0
  0
ARC
  5
3FB
330
1F
100
AcDbEntity
  8
Layer0016
  6
Continuous
 62
     3
370
    50
100
AcDbCircle
 10
-118.644024939625
 20
-41.85830860534137
 30
0.0
 40
0.5
100
AcDbArc
 50
180.0
 51
270.0
  0
LINE
  5
3FC
330
1F
100
AcDbEntity
  8
Layer0016
  6
Continuous
 62
     3
370
    50
100
AcDbLine
 10
-106.644024939625
 20
-47.10830860534125
 30
0.0
 11
-106.644024939625
 21
-42.35830860534137
 31
0.0
  0
LINE
  5
3FD
330
1F
100
AcDbEntity
  8
Layer0016
  6
Continuous
 62
     3
370
    50
100
AcDbLine
 10
-106.644024939625
 20
-38.35830860534137
 30
0.0
 11
-106.644024939625
 21
-33.60830860534125
 31
0.0
  0
LINE
  5
3FE
330
1F
100
AcDbEntity
  8
Layer0016
  6
Continuous
 62
     3
370
    50
100
AcDbLine
 10
-86.1440310431408
 20
-25.85830860534124
 30
0.0
 11
-55.64403104314086
 21
-25.85830860534125
 31
0.0
  0
LINE
  5
3FF
330
1F
100
AcDbEntity
  8
Layer0016
  6
Continuous
 62
     3
370
    50
100
AcDbLine
 10
-55.64403104314086
 20
-31.85830860534125
 30
0.0
 11
-86.1440310431408
 21
-31.85830860534124
 31
0.0
  0
LINE
  5
400
330
1F
100
AcDbEntity
  8
Layer0016
  6
Continuous
 62
     3
370
    50
100
AcDbLine
 10
-86.1440310431408
 20
-48.85830860534124
 30
0.0
 11
-55.64403104314086
 21
-48.85830860534124
 31
0.0
  0
LINE
  5
401
330
1F
100
AcDbEntity
  8
Layer0016
  6
Continuous
 62
     3
370
    50
100
AcDbLine
 10
-55.64403104314086
 20
-54.85830860534124
 30
0.0
 11
-86.1440310431408
 21
-54.85830860534124
 31
0.0
  0
LINE
  5
402
330
1F
100
AcDbEntity
  8
Layer0016
  6
Continuous
 62
     3
370
    50
100
AcDbLine
 10
-86.1440310431408
 20
-25.85830860534124
 30
0.0
 11
-86.1440310431408
 21
-31.85830860534124
 31
0.0
  0
LINE
  5
403
330
1F
100
AcDbEntity
  8
Layer0016
  6
Continuous
 62
     3
370
    50
100
AcDbLine
 10
-86.1440310431408
 20
-48.85830860534124
 30
0.0
 11
-86.1440310431408
 21
-54.85830860534124
 31
0.0
  0
LINE
  5
404
330
1F
100
AcDbEntity
  8
Layer0016
  6
Continuous
 62
     3
370
    50
100
AcDbLine
 10
-80.14403104314066
 20
-35.35830860534125
 30
0.0
 11
-80.14403104314066
 21
-45.35830860534124
 31
0.0
  0
LINE
  5
405
330
1F
100
AcDbEntity
  8
Layer0016
  6
Continuous
 62
     3
370
    50
100
AcDbLine
 10
-80.64403104314066
 20
-34.85830860534125
 30
0.0
 11
-87.64403104314066
 21
-34.85830860534125
 31
0.0
  0
LINE
  5
406
330
1F
100
AcDbEntity
  8
Layer0016
  6
Continuous
 62
     3
370
    50
100
AcDbLine
 10
-87.64403104314066
 20
-45.85830860534124
 30
0.0
 11
-80.64403104314066
 21
-45.85830860534124
 31
0.0
  0
ARC
  5
407
330
1F
100
AcDbEntity
  8
Layer0016
  6
Continuous
 62
     3
370
    50
100
AcDbCircle
 10
-80.64403104314066
 20
-35.35830860534125
 30
0.0
 40
0.5
100
AcDbArc
 50
0.0
 51
90.0
  0
ARC
  5
408
330
1F
100
AcDbEntity
  8
Layer0016
  6
Continuous
 62
     3
370
    50
100
AcDbCircle
 10
-80.64403104314066
 20
-45.35830860534124
 30
0.0
 40
0.5
100
AcDbArc
 50
270.0
 51
0.0
  0
LINE
  5
409
330
1F
100
AcDbEntity
  8
Layer0016
  6
Continuous
 62
     3
370
    50
100
AcDbLine
 10
-61.54403104314081
 20
-45.62513877195175
 30
0.0
 11
-61.54403104314081
 21
-35.09147843873072
 31
0.0
  0
LINE
  5
40A
330
1F
100
AcDbEntity
  8
Layer0016
  6
Continuous
 62
     3
370
    50
100
AcDbLine
 10
-61.06114429830103
 20
-34.59177138805221
 30
0.0
 11
-55.64403104314086
 21
-34.40625381082069
 31
0.0
  0
LINE
  5
40B
330
1F
100
AcDbEntity
  8
Layer0016
  6
Continuous
 62
     3
370
    50
100
AcDbLine
 10
-61.06114429830103
 20
-46.12484582263026
 30
0.0
 11
-55.64403104314086
 21
-46.31036339986179
 31
0.0
  0
ARC
  5
40C
330
1F
100
AcDbEntity
  8
Layer0016
  6
Continuous
 62
     3
370
    50
100
AcDbCircle
 10
-61.04403104314081
 20
-35.09147843873072
 30
0.0
 40
0.5
100
AcDbArc
 50
91.96141766776981
 51
180.0
  0
ARC
  5
40D
330
1F
100
AcDbEntity
  8
Layer0016
  6
Continuous
 62
     3
370
    50
100
AcDbCircle
 10
-61.04403104314081
 20
-45.62513877195175
 30
0.0
 40
0.5
100
AcDbArc
 50
180.0
 51
268.0385823322302
  0
LINE
  5
40E
330
1F
100
AcDbEntity
  8
Layer0016
  6
Continuous
 62
     3
370
    50
100
AcDbLine
 10
-61.54403104314081
 20
-37.35310478529844
 30
0.0
 11
-80.14403104314066
 21
-37.35310478529844
 31
0.0
  0
LINE
  5
40F
330
1F
100
AcDbEntity
  8
Layer0016
  6
Continuous
 62
     3
370
    50
100
AcDbLine
 10
-61.54403104314081
 20
-41.94929886301098
 30
0.0
 11
-80.14403104314066
 21
-41.94929886301098
 31
0.0
  0
LINE
  5
410
330
1F
100
AcDbEntity
  8
Layer0016
  6
Continuous
 62
     3
370
    50
100
AcDbLine
 10
-61.54403104314081
 20
-43.36351242538409
 30
0.0
 11
-80.14403104314066
 21
-43.36351242538409
 31
0.0
  0
CIRCLE
  5
411
330
1F
100
AcDbEntity
  8
Layer0016
  6
Continuous
 62
     3
370
    50
100
AcDbCircle
 10
188.4004793426157
 20
-40.35830860534125
 30
0.0
 40
16.5
  0
LINE
  5
412
330
1F
100
AcDbEntity
  8
Layer0016
  6
Continuous
 62
     3
370
    50
100
AcDbLine
 10
55.3598682963848
 20
-25.19445475676704
 30
0.0
 11
66.89911995897339
 21
-20.41474021848657
 31
0.0
  0
CIRCLE
  5
413
330
1F
100
AcDbEntity
  8
Layer0016
  6
Continuous
 62
     3
370
    50
100
AcDbCircle
 10
68.40047934261577
 20
-40.35830860534125
 30
0.0
 40
17.75
  0
CIRCLE
  5
414
330
1F
100
AcDbEntity
  8
Layer0016
  6
Continuous
 62
     3
370
    50
100
AcDbCircle
 10
68.4004793426158
 20
-40.35830860534125
 30
0.0
 40
16.25
  0
LINE
  5
415
330
1F
100
AcDbEntity
  8
Layer0016
  6
Continuous
 62
     3
370
    50
100
AcDbLine
 10
48.45691095576115
 20
-38.85694922169868
 30
0.0
 11
53.23662549404153
 21
-27.31769755911031
 31
0.0
  0
ARC
  5
416
330
1F
100
AcDbEntity
  8
Layer0016
  6
Continuous
 62
     3
370
    50
100
AcDbCircle
 10
68.4004793426158
 20
-40.35830860534124
 30
0.0
 40
20.0
100
AcDbArc
 50
130.694872338767
 51
139.3051276612333
  0
CIRCLE
  5
417
330
1F
100
AcDbEntity
  8
Layer0016
  6
Continuous
 62
     3
370
    50
100
AcDbCircle
 10
68.40047934261582
 20
-28.63771843375989
 30
0.0
 40
1.980175128343562
  0
LINE
  5
418
330
1F
100
AcDbEntity
  8
Layer0016
  6
Continuous
 62
     3
370
    50
100
AcDbLine
 10
69.90183872625826
 20
-20.41474021848657
 30
0.0
 11
81.44109038884676
 21
-25.19445475676702
 31
0.0
  0
ARC
  5
419
330
1F
100
AcDbEntity
  8
Layer0016
  6
Continuous
 62
     3
370
    50
100
AcDbCircle
 10
68.4004793426158
 20
-40.35830860534124
 30
0.0
 40
20.0
100
AcDbArc
 50
85.6948723387668
 51
94.30512766123304
  0
LINE
  5
41A
330
1F
100
AcDbEntity
  8
Layer0016
  6
Continuous
 62
     3
370
    50
100
AcDbLine
 10
83.56433319119
 20
-27.31769755911027
 30
0.0
 11
88.34404772947045
 21
-38.85694922169873
 31
0.0
  0
ARC
  5
41B
330
1F
100
AcDbEntity
  8
Layer0016
  6
Continuous
 62
     3
370
    50
100
AcDbCircle
 10
68.4004793426158
 20
-40.35830860534124
 30
0.0
 40
20.0
100
AcDbArc
 50
40.69487233876688
 51
49.30512766123315
  0
ARC
  5
41C
330
1F
100
AcDbEntity
  8
Layer0016
  6
Continuous
 62
     3
370
    50
100
AcDbCircle
 10
68.40047934261574
 20
-40.35830860534124
 30
0.0
 40
20.0
100
AcDbArc
 50
355.694872338767
 51
4.30512766123343
  0
LINE
  5
41D
330
1F
100
AcDbEntity
  8
Layer0016
  6
Continuous
 62
     3
370
    50
100
AcDbLine
 10
88.34404772947047
 20
-41.85966798898363
 30
0.0
 11
83.56433319118995
 21
-53.39891965157226
 31
0.0
  0
LINE
  5
41E
330
1F
100
AcDbEntity
  8
Layer0016
  6
Continuous
 62
     3
370
    50
100
AcDbLine
 10
81.44109038884673
 20
-55.52216245391547
 30
0.0
 11
69.90183872625826
 21
-60.3018769921959
 31
0.0
  0
ARC
  5
41F
330
1F
100
AcDbEntity
  8
Layer0016
  6
Continuous
 62
     3
370
    50
100
AcDbCircle
 10
68.4004793426158
 20
-40.35830860534124
 30
0.0
 40
20.0
100
AcDbArc
 50
310.6948723387668
 51
319.3051276612329
  0
LINE
  5
420
330
1F
100
AcDbEntity
  8
Layer0016
  6
Continuous
 62
     3
370
    50
100
AcDbLine
 10
66.89911995897333
 20
-60.3018769921959
 30
0.0
 11
55.35986829638486
 21
-55.52216245391547
 31
0.0
  0
ARC
  5
421
330
1F
100
AcDbEntity
  8
Layer0016
  6
Continuous
 62
     3
370
    50
100
AcDbCircle
 10
68.4004793426158
 20
-40.35830860534124
 30
0.0
 40
20.0
100
AcDbArc
 50
265.6948723387668
 51
274.3051276612332
  0
LINE
  5
422
330
1F
100
AcDbEntity
  8
Layer0016
  6
Continuous
 62
     3
370
    50
100
AcDbLine
 10
53.23662549404162
 20
-53.39891965157224
 30
0.0
 11
48.45691095576112
 21
-41.85966798898362
 31
0.0
  0
ARC
  5
423
330
1F
100
AcDbEntity
  8
Layer0016
  6
Continuous
 62
     3
370
    50
100
AcDbCircle
 10
68.4004793426158
 20
-40.35830860534124
 30
0.0
 40
20.0
100
AcDbArc
 50
220.694872338767
 51
229.3051276612332
  0
ARC
  5
424
330
1F
100
AcDbEntity
  8
Layer0016
  6
Continuous
 62
     3
370
    50
100
AcDbCircle
 10
68.4004793426158
 20
-40.35830860534124
 30
0.0
 40
20.0
100
AcDbArc
 50
175.6948723387666
 51
184.305127661233
  0
LINE
  5
425
330
1F
100
AcDbEntity
  8
Layer0016
  6
Continuous
 62
     3
370
    50
100
AcDbLine
 10
-16.74403104314082
 20
-23.35830860534126
 30
0.0
 11
-26.74403104314082
 21
-23.35830860534126
 31
0.0
  0
LINE
  5
426
330
1F
100
AcDbEntity
  8
Layer0016
  6
Continuous
 62
     3
370
    50
100
AcDbLine
 10
-16.24403104314082
 20
-22.35830860534126
 30
0.0
 11
-16.24403104314082
 21
-58.35830860534126
 31
0.0
  0
LINE
  5
427
330
1F
100
AcDbEntity
  8
Layer0016
  6
Continuous
 62
     3
370
    50
100
AcDbLine
 10
-0.5440310431408193
 20
-22.60830860534125
 30
0.0
 11
-0.5440310431408193
 21
-58.10830860534126
 31
0.0
  0
ARC
  5
428
330
1F
100
AcDbEntity
  8
Layer0016
  6
Continuous
 62
     3
370
    50
100
AcDbCircle
 10
-65.05965604314082
 20
-40.35830860534126
 30
0.0
 40
67.015625
100
AcDbArc
 50
345.9669965105542
 51
14.03300348944582
  0
LINE
  5
429
330
1F
100
AcDbEntity
  8
Layer0016
  6
Continuous
 62
     3
370
    50
100
AcDbLine
 10
-0.5440310431408193
 20
-24.10830860534126
 30
0.0
 11
-0.0440310431408193
 21
-24.10830860534126
 31
0.0
  0
LINE
  5
42A
330
1F
100
AcDbEntity
  8
Layer0016
  6
Continuous
 62
     3
370
    50
100
AcDbLine
 10
-14.24403104314082
 20
-20.35830860534126
 30
0.0
 11
-4.719854315263333
 21
-20.35830860534126
 31
0.0
  0
ARC
  5
42B
330
1F
100
AcDbEntity
  8
Layer0016
  6
Continuous
 62
     3
370
    50
100
AcDbCircle
 10
-14.24403104314082
 20
-22.35830860534126
 30
0.0
 40
2.0
100
AcDbArc
 50
90.0
 51
180.0
  0
ARC
  5
42C
330
1F
100
AcDbEntity
  8
Layer0016
  6
Continuous
 62
     3
370
    50
100
AcDbCircle
 10
-4.719854315263333
 20
-25.35830860534126
 30
0.0
 40
5.0
100
AcDbArc
 50
33.36701296923179
 51
90.0
  0
ARC
  5
42D
330
1F
100
AcDbEntity
  8
Layer0016
  6
Continuous
 62
     3
370
    50
100
AcDbCircle
 10
-16.74403104314082
 20
-22.85830860534126
 30
0.0
 40
0.5
100
AcDbArc
 50
270.0
 51
0.0
  0
ARC
  5
42E
330
1F
100
AcDbEntity
  8
Layer0016
  6
Continuous
 62
     3
370
    50
100
AcDbCircle
 10
-26.74403104314082
 20
-23.85830860534126
 30
0.0
 40
0.5
100
AcDbArc
 50
90.0
 51
143.1301023541537
  0
LINE
  5
42F
330
1F
100
AcDbEntity
  8
Layer0016
  6
Continuous
 62
     3
370
    50
100
AcDbLine
 10
-26.74403104314082
 20
-57.35830860534125
 30
0.0
 11
-16.74403104314082
 21
-57.35830860534126
 31
0.0
  0
ARC
  5
430
330
1F
100
AcDbEntity
  8
Layer0016
  6
Continuous
 62
     3
370
    50
100
AcDbCircle
 10
-26.74403104314082
 20
-56.85830860534125
 30
0.0
 40
0.5
100
AcDbArc
 50
216.8698976458456
 51
270.0
  0
LINE
  5
431
330
1F
100
AcDbEntity
  8
Layer0016
  6
Continuous
 62
     3
370
    50
100
AcDbLine
 10
-4.719854315263333
 20
-60.35830860534126
 30
0.0
 11
-14.24403104314082
 21
-60.35830860534126
 31
0.0
  0
ARC
  5
432
330
1F
100
AcDbEntity
  8
Layer0016
  6
Continuous
 62
     3
370
    50
100
AcDbCircle
 10
-14.24403104314082
 20
-58.35830860534126
 30
0.0
 40
2.0
100
AcDbArc
 50
180.0
 51
270.0
  0
ARC
  5
433
330
1F
100
AcDbEntity
  8
Layer0016
  6
Continuous
 62
     3
370
    50
100
AcDbCircle
 10
-16.74403104314082
 20
-57.85830860534126
 30
0.0
 40
0.5
100
AcDbArc
 50
0.0
 51
90.0
  0
LINE
  5
434
330
1F
100
AcDbEntity
  8
Layer0016
  6
Continuous
 62
     3
370
    50
100
AcDbLine
 10
-0.0440310431408193
 20
-56.60830860534126
 30
0.0
 11
-0.5440310431408193
 21
-56.60830860534126
 31
0.0
  0
ARC
  5
435
330
1F
100
AcDbEntity
  8
Layer0016
  6
Continuous
 62
     3
370
    50
100
AcDbCircle
 10
-4.719854315263333
 20
-55.35830860534126
 30
0.0
 40
5.0
100
AcDbArc
 50
270.0
 51
326.6329870307682
  0
POINT
  5
436
330
1F
100
AcDbEntity
  8
Layer0016
  6
Continuous
 62
     5
100
AcDbPoint
 10
-297.0
 20
-220.0
 30
0.0
  0
TEXT
  5
437
330
1F
100
AcDbEntity
  8
0
 62
     2
100
AcDbText
 10
184.4004793426158
 20
-113.8583086053413
 30
0.0
 40
5.0
  1
板厚1.0mm
 41
0.7649228247507172
  7
dcStyle0
 72
     5
 11
212.4004793426158
 21
-113.8583086053413
 31
0.0
100
AcDbText
  0
INSERT
  5
438
330
1F
100
AcDbEntity
  8
Layer0016
  6
Continuous
100
AcDbBlockReference
  2
DC_FILL_GROUP_1
 10
0.0
 20
0.0
 30
0.0
  0
INSERT
  5
439
330
1F
100
AcDbEntity
  8
Layer0016
  6
Continuous
100
AcDbBlockReference
  2
DC_FILL_GROUP_2
 10
0.0
 20
0.0
 30
0.0
  0
INSERT
  5
43A
330
1F
100
AcDbEntity
  8
Layer0016
  6
Continuous
100
AcDbBlockReference
  2
DC_FILL_GROUP_3
 10
0.0
 20
0.0
 30
0.0
  0
INSERT
  5
43B
330
1F
100
AcDbEntity
  8
Layer0016
  6
Continuous
100
AcDbBlockReference
  2
DC_FILL_GROUP_4
 10
0.0
 20
0.0
 30
0.0
  0
INSERT
  5
43C
330
1F
100
AcDbEntity
  8
Layer0016
  6
Continuous
100
AcDbBlockReference
  2
DC_FILL_GROUP_5
 10
0.0
 20
0.0
 30
0.0
  0
INSERT
  5
43D
330
1F
100
AcDbEntity
  8
Layer0016
  6
Continuous
100
AcDbBlockReference
  2
DC_FILL_GROUP_6
 10
0.0
 20
0.0
 30
0.0
  0
INSERT
  5
43E
330
1F
100
AcDbEntity
  8
Layer0016
  6
Continuous
100
AcDbBlockReference
  2
DC_FILL_GROUP_7
 10
0.0
 20
0.0
 30
0.0
  0
INSERT
  5
43F
330
1F
100
AcDbEntity
  8
Layer0016
  6
Continuous
100
AcDbBlockReference
  2
DC_FILL_GROUP_8
 10
0.0
 20
0.0
 30
0.0
  0
INSERT
  5
440
330
1F
100
AcDbEntity
  8
Layer0016
  6
Continuous
100
AcDbBlockReference
  2
DC_FILL_GROUP_9
 10
0.0
 20
0.0
 30
0.0
  0
INSERT
  5
441
330
1F
100
AcDbEntity
  8
Layer0016
  6
Continuous
100
AcDbBlockReference
  2
DC_FILL_GROUP_10
 10
0.0
 20
0.0
 30
0.0
  0
INSERT
  5
442
330
1F
100
AcDbEntity
  8
Layer0016
  6
Continuous
100
AcDbBlockReference
  2
DC_FILL_GROUP_11
 10
0.0
 20
0.0
 30
0.0
  0
INSERT
  5
443
330
1F
100
AcDbEntity
  8
Layer0016
  6
Continuous
100
AcDbBlockReference
  2
DC_FILL_GROUP_12
 10
0.0
 20
0.0
 30
0.0
  0
INSERT
  5
444
330
1F
100
AcDbEntity
  8
Layer0016
  6
Continuous
100
AcDbBlockReference
  2
DC_FILL_GROUP_13
 10
0.0
 20
0.0
 30
0.0
  0
DIMENSION
  5
445
330
1F
100
AcDbEntity
  8
Layer0016
  6
Continuous
370
    25
100
AcDbDimension
  2
*D14
 10
233.4004793426158
 20
-40.35830860534125
 30
0.0
 11
233.4004793426158
 21
51.14169139465876
 31
0.0
 70
   160
 71
     8
 42
-1.0
  3
dc_Rotated
100
AcDbAlignedDimension
 13
188.4004793426158
 23
142.6416913946587
 33
0.0
 14
223.9004793426158
 24
-40.35830860534125
 34
0.0
 50
90.0
100
AcDbRotatedDimension
1001
ACAD
1000
DSTYLE
1002
{
1070
   274
1070
     4
1070
    41
1040
3.000001882570243
1070
    79
1070
     2
1070
   343
1005
1D1
1070
   344
1005
1D1
1070
   176
1070
     4
1070
   177
1070
     4
1070
   178
1070
     2
1070
   271
1070
     2
1070
    44
1040
1.0
1070
    42
1040
1.0
1070
   147
1040
1.0
1070
   173
1070
     1
1070
    77
1070
     3
1070
    73
1070
     0
1070
   172
1070
     1
1070
    74
1070
     0
1070
   283
1070
     0
1070
   340
1005
1FD
1070
   140
1040
3.0
1070
   284
1070
     8
1070
   288
1070
     1
1070
    78
1070
     8
1070
    90
1070
     1
1002
}
  0
DIMENSION
  5
447
330
1F
100
AcDbEntity
  8
Layer0016
  6
Continuous
370
    25
100
AcDbDimension
  2
*D15
 10
233.4004793426158
 20
-87.35830860534125
 30
0.0
 11
233.4004793426158
 21
-63.85830860534125
 31
0.0
 70
   160
 71
     8
 42
-1.0
  3
dc_Rotated
100
AcDbAlignedDimension
 13
223.9004793426158
 23
-40.35830860534125
 33
0.0
 14
188.4004793426158
 24
-87.35830860534125
 34
0.0
 50
90.0
100
AcDbRotatedDimension
1001
ACAD
1000
DSTYLE
1002
{
1070
   274
1070
     4
1070
    41
1040
3.000001882570243
1070
    79
1070
     2
1070
   343
1005
1D1
1070
   344
1005
1D1
1070
   176
1070
     4
1070
   177
1070
     4
1070
   178
1070
     2
1070
   271
1070
     2
1070
    44
1040
1.0
1070
    42
1040
1.0
1070
   147
1040
1.0
1070
   173
1070
     1
1070
    77
1070
     3
1070
    73
1070
     0
1070
   172
1070
     1
1070
    74
1070
     0
1070
   283
1070
     0
1070
   340
1005
1FD
1070
   140
1040
3.0
1070
   284
1070
     8
1070
   288
1070
     1
1070
    78
1070
     8
1070
    90
1070
     1
1002
}
  0
DIMENSION
  5
448
330
1F
100
AcDbEntity
  8
Layer0016
  6
Continuous
370
    13
100
AcDbDimension
  2
*D16
 10
241.4004793426158
 20
142.6416913946587
 30
0.0
 11
241.4004793426158
 21
27.64169139465876
 31
0.0
 70
   160
 71
     8
 42
-1.0
  3
dc_Rotated
100
AcDbAlignedDimension
 13
188.4004793426158
 23
-87.35830860534125
 33
0.0
 14
188.4004793426158
 24
142.6416913946587
 34
0.0
 50
90.0
100
AcDbRotatedDimension
1001
ACAD
1000
DSTYLE
1002
{
1070
   274
1070
     4
1070
    41
1040
3.000001882570243
1070
    79
1070
     2
1070
   343
1005
1D1
1070
   344
1005
1D1
1070
   176
1070
     4
1070
   177
1070
     4
1070
   178
1070
     2
1070
   271
1070
     2
1070
    44
1040
1.0
1070
    42
1040
1.0
1070
   147
1040
1.0
1070
   173
1070
     1
1070
    77
1070
     3
1070
    73
1070
     0
1070
   172
1070
     1
1070
    74
1070
     0
1070
   283
1070
     0
1070
   340
1005
1FD
1070
   140
1040
3.0
1070
   284
1070
     8
1070
   288
1070
     1
1070
    78
1070
     8
1070
    90
1070
     1
1002
}
  0
DIMENSION
  5
449
330
1F
100
AcDbEntity
  8
Layer0016
  6
Continuous
370
    13
100
AcDbDimension
  2
*D17
 10
158.4004793426157
 20
157.6416913946587
 30
0.0
 11
188.4004793426158
 21
157.6416913946587
 31
0.0
 70
   160
 71
     8
 42
-1.0
  3
dc_Rotated
100
AcDbAlignedDimension
 13
218.4004793426158
 23
112.6416913946588
 33
0.0
 14
158.4004793426158
 24
112.6416913946588
 34
0.0
100
AcDbRotatedDimension
1001
ACAD
1000
DSTYLE
1002
{
1070
   274
1070
     4
1070
    41
1040
3.000001882570243
1070
    79
1070
     2
1070
   343
1005
1D1
1070
   344
1005
1D1
1070
   176
1070
     4
1070
   177
1070
     4
1070
   178
1070
     2
1070
   271
1070
     2
1070
    44
1040
1.0
1070
    42
1040
1.0
1070
   147
1040
1.0
1070
   173
1070
     1
1070
    77
1070
     3
1070
    73
1070
     0
1070
   172
1070
     1
1070
    74
1070
     0
1070
   283
1070
     0
1070
   340
1005
1FD
1070
   140
1040
3.0
1070
   284
1070
     8
1070
   288
1070
     1
1070
    78
1070
     8
1070
    90
1070
     1
1002
}
  0
DIMENSION
  5
44A
330
1F
100
AcDbEntity
  8
Layer0016
  6
Continuous
370
    13
100
AcDbDimension
  2
*D18
 10
88.40047934261582
 20
157.6416913946588
 30
0.0
 11
68.40047934261584
 21
157.6416913946588
 31
0.0
 70
   160
 71
     8
 42
-1.0
  3
dc_Rotated
100
AcDbAlignedDimension
 13
48.40047934261585
 23
112.6416913946588
 33
0.0
 14
88.40047934261582
 24
112.6416913946588
 34
0.0
100
AcDbRotatedDimension
1001
ACAD
1000
DSTYLE
1002
{
1070
   274
1070
     4
1070
    41
1040
3.000001882570243
1070
    79
1070
     2
1070
   343
1005
1D1
1070
   344
1005
1D1
1070
   176
1070
     4
1070
   177
1070
     4
1070
   178
1070
     2
1070
   271
1070
     2
1070
    44
1040
1.0
1070
    42
1040
1.0
1070
   147
1040
1.0
1070
   173
1070
     1
1070
    77
1070
     3
1070
    73
1070
     0
1070
   172
1070
     1
1070
    74
1070
     0
1070
   283
1070
     0
1070
   340
1005
1FD
1070
   140
1040
3.0
1070
   284
1070
     8
1070
   288
1070
     1
1070
    78
1070
     8
1070
    90
1070
     1
1002
}
  0
DIMENSION
  5
44B
330
1F
100
AcDbEntity
  8
Layer0016
  6
Continuous
370
    25
100
AcDbDimension
  2
*D19
 10
113.4004793426158
 20
-40.35830860534125
 30
0.0
 11
113.4004793426158
 21
-58.85830860534126
 31
0.0
 70
   160
 71
     8
 42
-1.0
  3
dc_Rotated
100
AcDbAlignedDimension
 13
68.40047934261585
 23
-77.35830860534125
 33
0.0
 14
106.4004793426158
 24
-40.35830860534125
 34
0.0
 50
90.0
100
AcDbRotatedDimension
1001
ACAD
1000
DSTYLE
1002
{
1070
   274
1070
     4
1070
    41
1040
3.000001882570243
1070
    79
1070
     2
1070
   343
1005
1D1
1070
   344
1005
1D1
1070
   176
1070
     4
1070
   177
1070
     4
1070
   178
1070
     2
1070
   271
1070
     2
1070
    44
1040
1.0
1070
    42
1040
1.0
1070
   147
1040
1.0
1070
   173
1070
     1
1070
    77
1070
     3
1070
    73
1070
     0
1070
   172
1070
     1
1070
    74
1070
     0
1070
   283
1070
     0
1070
   340
1005
1FD
1070
   140
1040
3.0
1070
   284
1070
     8
1070
   288
1070
     1
1070
    78
1070
     8
1070
    90
1070
     1
1002
}
  0
DIMENSION
  5
44C
330
1F
100
AcDbEntity
  8
Layer0016
  6
Continuous
370
    25
100
AcDbDimension
  2
*D20
 10
113.4004793426158
 20
132.6416913946588
 30
0.0
 11
113.4004793426158
 21
46.14169139465876
 31
0.0
 70
   160
 71
     8
 42
-1.0
  3
dc_Rotated
100
AcDbAlignedDimension
 13
106.4004793426158
 23
-40.35830860534125
 33
0.0
 14
68.40047934261585
 24
132.6416913946588
 34
0.0
 50
90.0
100
AcDbRotatedDimension
1001
ACAD
1000
DSTYLE
1002
{
1070
   274
1070
     4
1070
    41
1040
3.000001882570243
1070
    79
1070
     2
1070
   343
1005
1D1
1070
   344
1005
1D1
1070
   176
1070
     4
1070
   177
1070
     4
1070
   178
1070
     2
1070
   271
1070
     2
1070
    44
1040
1.0
1070
    42
1040
1.0
1070
   147
1040
1.0
1070
   173
1070
     1
1070
    77
1070
     3
1070
    73
1070
     0
1070
   172
1070
     1
1070
    74
1070
     0
1070
   283
1070
     0
1070
   340
1005
1FD
1070
   140
1040
3.0
1070
   284
1070
     8
1070
   288
1070
     1
1070
    78
1070
     8
1070
    90
1070
     1
1002
}
  0
DIMENSION
  5
44D
330
1F
100
AcDbEntity
  8
Layer0016
  6
Continuous
370
    13
100
AcDbDimension
  2
*D21
 10
121.4004793426158
 20
132.6416913946588
 30
0.0
 11
121.4004793426158
 21
27.64169139465876
 31
0.0
 70
   160
 71
     8
 42
-1.0
  3
dc_Rotated
100
AcDbAlignedDimension
 13
68.40047934261585
 23
-77.35830860534125
 33
0.0
 14
68.40047934261585
 24
132.6416913946588
 34
0.0
 50
90.0
100
AcDbRotatedDimension
1001
ACAD
1000
DSTYLE
1002
{
1070
   274
1070
     4
1070
    41
1040
3.000001882570243
1070
    79
1070
     2
1070
   343
1005
1D1
1070
   344
1005
1D1
1070
   176
1070
     4
1070
   177
1070
     4
1070
   178
1070
     2
1070
   271
1070
     2
1070
    44
1040
1.0
1070
    42
1040
1.0
1070
   147
1040
1.0
1070
   173
1070
     1
1070
    77
1070
     3
1070
    73
1070
     0
1070
   172
1070
     1
1070
    74
1070
     0
1070
   283
1070
     0
1070
   340
1005
1FD
1070
   140
1040
3.0
1070
   284
1070
     8
1070
   288
1070
     1
1070
    78
1070
     8
1070
    90
1070
     1
1002
}
  0
DIMENSION
  5
44E
330
1F
100
AcDbEntity
  8
Layer0016
  6
Continuous
370
    13
100
AcDbDimension
  2
*D22
 10
-196.5995206573841
 20
157.6416913946588
 30
0.0
 11
-181.5995206573841
 21
157.6416913946588
 31
0.0
 70
   160
  1
φ<>
 71
     8
 42
-1.0
  3
dc_Rotated
100
AcDbAlignedDimension
 13
-166.5995206573841
 23
120.6416913946513
 33
0.0
 14
-196.5995206573841
 24
120.6416913946513
 34
0.0
100
AcDbRotatedDimension
1001
ACAD
1000
DSTYLE
1002
{
1070
   274
1070
     4
1070
    41
1040
3.000001882570243
1070
    79
1070
     2
1070
   343
1005
1D1
1070
   344
1005
1D1
1070
   176
1070
     4
1070
   177
1070
     4
1070
   178
1070
     2
1070
   271
1070
     2
1070
    44
1040
1.0
1070
    42
1040
1.0
1070
   147
1040
1.0
1070
   173
1070
     1
1070
    77
1070
     3
1070
    73
1070
     0
1070
   172
1070
     1
1070
    74
1070
     0
1070
   283
1070
     0
1070
   340
1005
1FD
1070
   140
1040
3.0
1070
   284
1070
     8
1070
   288
1070
     1
1070
    78
1070
     8
1070
    90
1070
     1
1002
}
  0
DIMENSION
  5
44F
330
1F
100
AcDbEntity
  8
Layer0016
  6
Continuous
370
    13
100
AcDbDimension
  2
*D23
 10
-234.599520657384
 20
-40.35830860533469
 30
0.0
 11
-234.599520657384
 21
40.14169139465832
 31
0.0
 70
   160
 71
     8
 42
-1.0
  3
dc_Rotated
100
AcDbAlignedDimension
 13
-204.5995206573841
 23
120.6416913946513
 33
0.0
 14
-219.599520657384
 24
-40.35830860533469
 34
0.0
 50
90.0
100
AcDbRotatedDimension
1001
ACAD
1000
DSTYLE
1002
{
1070
   274
1070
     4
1070
    41
1040
3.000001882570243
1070
    79
1070
     2
1070
   343
1005
1D1
1070
   344
1005
1D1
1070
   176
1070
     4
1070
   177
1070
     4
1070
   178
1070
     2
1070
   271
1070
     2
1070
    44
1040
1.0
1070
    42
1040
1.0
1070
   147
1040
1.0
1070
   173
1070
     1
1070
    77
1070
     3
1070
    73
1070
     0
1070
   172
1070
     1
1070
    74
1070
     0
1070
   283
1070
     0
1070
   340
1005
1FD
1070
   140
1040
3.0
1070
   284
1070
     8
1070
   288
1070
     1
1070
    78
1070
     8
1070
    90
1070
     1
1002
}
  0
DIMENSION
  5
450
330
1F
100
AcDbEntity
  8
Layer0016
  6
Continuous
370
    13
100
AcDbDimension
  2
*D24
 10
-163.5995206573841
 20
-102.3583086053413
 30
0.0
 11
-186.0995206573841
 21
-102.3583086053413
 31
0.0
 70
   160
  1
φ<>
 71
     8
 42
-1.0
  3
dc_Rotated
100
AcDbAlignedDimension
 13
-208.5995206573841
 23
-40.35830860534137
 33
0.0
 14
-163.5995206573841
 24
-40.35830860534531
 34
0.0
100
AcDbRotatedDimension
1001
ACAD
1000
DSTYLE
1002
{
1070
   274
1070
     4
1070
    41
1040
3.000001882570243
1070
    79
1070
     2
1070
   343
1005
1D1
1070
   344
1005
1D1
1070
   176
1070
     4
1070
   177
1070
     4
1070
   178
1070
     2
1070
   271
1070
     2
1070
    44
1040
1.0
1070
    42
1040
1.0
1070
   147
1040
1.0
1070
   173
1070
     1
1070
    77
1070
     3
1070
    73
1070
     0
1070
   172
1070
     1
1070
    74
1070
     0
1070
   283
1070
     0
1070
   340
1005
1FD
1070
   140
1040
3.0
1070
   284
1070
     8
1070
   288
1070
     1
1070
    78
1070
     8
1070
    90
1070
     1
1002
}
  0
DIMENSION
  5
451
330
1F
100
AcDbEntity
  8
Layer0016
  6
Continuous
370
    25
100
AcDbDimension
  2
*D25
 10
-226.599520657384
 20
-40.35830860533469
 30
0.0
 11
-226.599520657384
 21
-46.10830860533803
 31
0.0
 70
   160
 71
     8
 42
-1.0
  3
dc_Rotated
100
AcDbAlignedDimension
 13
-189.5995225647327
 23
-51.85830860534137
 33
0.0
 14
-219.599520657384
 24
-40.35830860533469
 34
0.0
 50
90.0
100
AcDbRotatedDimension
1001
ACAD
1000
DSTYLE
1002
{
1070
   274
1070
     4
1070
    41
1040
3.000001882570243
1070
    79
1070
     2
1070
   343
1005
1D1
1070
   344
1005
1D1
1070
   176
1070
     4
1070
   177
1070
     4
1070
   178
1070
     2
1070
   271
1070
     2
1070
    44
1040
1.0
1070
    42
1040
1.0
1070
   147
1040
1.0
1070
   173
1070
     1
1070
    77
1070
     3
1070
    73
1070
     0
1070
   172
1070
     1
1070
    74
1070
     0
1070
   283
1070
     0
1070
   340
1005
1FD
1070
   140
1040
3.0
1070
   284
1070
     8
1070
   288
1070
     1
1070
    78
1070
     8
1070
    90
1070
     1
1002
}
  0
DIMENSION
  5
452
330
1F
100
AcDbEntity
  8
Layer0016
  6
Continuous
370
    25
100
AcDbDimension
  2
*D26
 10
-226.599520657384
 20
-28.85830860534137
 30
0.0
 11
-226.599520657384
 21
-34.60830860533803
 31
0.0
 70
   160
 71
     8
 42
-1.0
  3
dc_Rotated
100
AcDbAlignedDimension
 13
-219.599520657384
 23
-40.35830860533469
 33
0.0
 14
-189.5995225647327
 24
-28.85830860534136
 34
0.0
 50
90.0
100
AcDbRotatedDimension
1001
ACAD
1000
DSTYLE
1002
{
1070
   274
1070
     4
1070
    41
1040
3.000001882570243
1070
    79
1070
     2
1070
   343
1005
1D1
1070
   344
1005
1D1
1070
   176
1070
     4
1070
   177
1070
     4
1070
   178
1070
     2
1070
   271
1070
     2
1070
    44
1040
1.0
1070
    42
1040
1.0
1070
   147
1040
1.0
1070
   173
1070
     1
1070
    77
1070
     3
1070
    73
1070
     0
1070
   172
1070
     1
1070
    74
1070
     0
1070
   283
1070
     0
1070
   340
1005
1FD
1070
   140
1040
3.0
1070
   284
1070
     8
1070
   288
1070
     1
1070
    78
1070
     8
1070
    90
1070
     1
1002
}
  0
DIMENSION
  5
453
330
1F
100
AcDbEntity
  8
Layer0016
  6
Continuous
370
    13
100
AcDbDimension
  2
*D27
 10
-27.14403104314081
 20
-102.3583086053413
 30
0.0
 11
-40.89403104314081
 21
-102.3583086053413
 31
0.0
 70
   160
 71
     8
 42
-1.0
  3
dc_Rotated
100
AcDbAlignedDimension
 13
-54.64403104314081
 23
-87.35830860534125
 33
0.0
 14
-27.14403104314081
 24
-64.5298814805951
 34
0.0
100
AcDbRotatedDimension
1001
ACAD
1000
DSTYLE
1002
{
1070
   274
1070
     4
1070
    41
1040
3.000001882570243
1070
    79
1070
     2
1070
   343
1005
1D1
1070
   344
1005
1D1
1070
   176
1070
     4
1070
   177
1070
     4
1070
   178
1070
     2
1070
   271
1070
     2
1070
    44
1040
1.0
1070
    42
1040
1.0
1070
   147
1040
1.0
1070
   173
1070
     1
1070
    77
1070
     3
1070
    73
1070
     0
1070
   172
1070
     1
1070
    74
1070
     0
1070
   283
1070
     0
1070
   340
1005
1FD
1070
   140
1040
3.0
1070
   284
1070
     8
1070
   288
1070
     1
1070
    78
1070
     8
1070
    90
1070
     1
1002
}
  0
DIMENSION
  5
454
330
1F
100
AcDbEntity
  8
Layer0016
  6
Continuous
370
    25
100
AcDbDimension
  2
*D28
 10
-54.64403104314081
 20
157.6416913946588
 30
0.0
 11
-63.14181104314086
 21
157.6416913946588
 31
0.0
 70
   160
  1
t=<>
 71
     8
 42
-1.0
  3
dc_Rotated
100
AcDbAlignedDimension
 13
-55.64403104314086
 23
142.6416913946588
 33
0.0
 14
-54.64403104314081
 24
142.6416913946588
 34
0.0
100
AcDbRotatedDimension
1001
ACAD
1000
DSTYLE
1002
{
1070
   274
1070
     4
1070
    41
1040
3.000001882570243
1070
    79
1070
     2
1070
   343
1005
1D1
1070
   344
1005
1D1
1070
   176
1070
     4
1070
   177
1070
     4
1070
   178
1070
     2
1070
   271
1070
     2
1070
    44
1040
1.0
1070
    42
1040
1.0
1070
   147
1040
1.0
1070
   173
1070
     1
1070
    77
1070
     3
1070
    73
1070
     0
1070
   172
1070
     1
1070
    74
1070
     0
1070
   283
1070
     0
1070
   340
1005
1FD
1070
   140
1040
3.0
1070
   284
1070
     8
1070
   288
1070
     1
1070
    78
1070
     8
1070
    90
1070
     1
1002
}
  0
DIMENSION
  5
455
330
1F
100
AcDbEntity
  8
Layer0016
  6
Continuous
370
    25
100
AcDbDimension
  2
*D29
 10
-29.14403104314081
 20
157.6416913946588
 30
0.0
 11
-41.89403104314081
 21
157.6416913946588
 31
0.0
 70
   160
 71
     8
 42
-1.0
  3
dc_Rotated
100
AcDbAlignedDimension
 13
-54.64403104314081
 23
142.6416913946588
 33
0.0
 14
-29.14403104314081
 24
112.8132642699125
 34
0.0
100
AcDbRotatedDimension
1001
ACAD
1000
DSTYLE
1002
{
1070
   274
1070
     4
1070
    41
1040
3.000001882570243
1070
    79
1070
     2
1070
   343
1005
1D1
1070
   344
1005
1D1
1070
   176
1070
     4
1070
   177
1070
     4
1070
   178
1070
     2
1070
   271
1070
     2
1070
    44
1040
1.0
1070
    42
1040
1.0
1070
   147
1040
1.0
1070
   173
1070
     1
1070
    77
1070
     3
1070
    73
1070
     0
1070
   172
1070
     1
1070
    74
1070
     0
1070
   283
1070
     0
1070
   340
1005
1FD
1070
   140
1040
3.0
1070
   284
1070
     8
1070
   288
1070
     1
1070
    78
1070
     8
1070
    90
1070
     1
1002
}
  0
DIMENSION
  5
456
330
1F
100
AcDbEntity
  8
Layer0016
  6
Continuous
370
    25
100
AcDbDimension
  2
*D30
 10
-88.64403104314066
 20
157.6416913946588
 30
0.0
 11
-93.64403104314064
 21
157.6416913946588
 31
0.0
 70
   160
 71
     8
 42
-1.0
  3
dc_Rotated
100
AcDbAlignedDimension
 13
-98.64403104314064
 23
133.6416913946587
 33
0.0
 14
-88.64403104314066
 24
142.6416913946588
 34
0.0
100
AcDbRotatedDimension
1001
ACAD
1000
DSTYLE
1002
{
1070
   274
1070
     4
1070
    41
1040
3.000001882570243
1070
    79
1070
     2
1070
   343
1005
1D1
1070
   344
1005
1D1
1070
   176
1070
     4
1070
   177
1070
     4
1070
   178
1070
     2
1070
   271
1070
     2
1070
    44
1040
1.0
1070
    42
1040
1.0
1070
   147
1040
1.0
1070
   173
1070
     1
1070
    77
1070
     3
1070
    73
1070
     0
1070
   172
1070
     1
1070
    74
1070
     0
1070
   283
1070
     0
1070
   340
1005
1FD
1070
   140
1040
3.0
1070
   284
1070
     8
1070
   288
1070
     1
1070
    78
1070
     8
1070
    90
1070
     1
1002
}
  0
DIMENSION
  5
457
330
1F
100
AcDbEntity
  8
Layer0016
  6
Continuous
370
    25
100
AcDbDimension
  2
*D31
 10
-87.64403104314066
 20
157.6416913946588
 30
0.0
 11
-80.14625104314067
 21
157.6416913946588
 31
0.0
 70
   160
  1
t=<>
 71
     8
 42
-1.0
  3
dc_Rotated
100
AcDbAlignedDimension
 13
-88.64403104314066
 23
142.6416913946588
 33
0.0
 14
-87.64403104314066
 24
142.6416913946588
 34
0.0
100
AcDbRotatedDimension
1001
ACAD
1000
DSTYLE
1002
{
1070
   274
1070
     4
1070
    41
1040
3.000001882570243
1070
    79
1070
     2
1070
   343
1005
1D1
1070
   344
1005
1D1
1070
   176
1070
     4
1070
   177
1070
     4
1070
   178
1070
     2
1070
   271
1070
     2
1070
    44
1040
1.0
1070
    42
1040
1.0
1070
   147
1040
1.0
1070
   173
1070
     1
1070
    77
1070
     3
1070
    73
1070
     0
1070
   172
1070
     1
1070
    74
1070
     0
1070
   283
1070
     0
1070
   340
1005
1FD
1070
   140
1040
3.0
1070
   284
1070
     8
1070
   288
1070
     1
1070
    78
1070
     8
1070
    90
1070
     1
1002
}
  0
DIMENSION
  5
458
330
1F
100
AcDbEntity
  8
Layer0016
  6
Continuous
370
    25
100
AcDbDimension
  2
*D33
 10
16.95596895685918
 20
-20.35830860534126
 30
0.0
 11
16.95596895685918
 21
-40.35830860534126
 31
0.0
 70
   160
  1
φ<>
 71
     8
 42
-1.0
  3
dc_Rotated
100
AcDbAlignedDimension
 13
-4.719854315263333
 23
-60.35830860534126
 33
0.0
 14
-4.719854315263333
 24
-20.35830860534126
 34
0.0
 50
90.0
100
AcDbRotatedDimension
1001
ACAD
1000
DSTYLE
1002
{
1070
   274
1070
     4
1070
    41
1040
3.000001882570243
1070
    79
1070
     2
1070
   343
1005
1D1
1070
   344
1005
1D1
1070
   176
1070
     4
1070
   177
1070
     4
1070
   178
1070
     2
1070
   271
1070
     2
1070
    44
1040
1.0
1070
    42
1040
1.0
1070
   147
1040
1.0
1070
   173
1070
     1
1070
    77
1070
     3
1070
    73
1070
     0
1070
   172
1070
     1
1070
    74
1070
     0
1070
   283
1070
     0
1070
   340
1005
1FD
1070
   140
1040
3.0
1070
   284
1070
     8
1070
   288
1070
     1
1070
    78
1070
     8
1070
    90
1070
     1
1002
}
  0
DIMENSION
  5
459
330
1F
100
AcDbEntity
  8
Layer0016
  6
Continuous
370
    25
100
AcDbDimension
  2
*D34
 10
-87.64403104314066
 20
165.6416913946588
 30
0.0
 11
-93.14403104314064
 21
165.6416913946588
 31
0.0
 70
   160
 71
     8
 42
-1.0
  3
dc_Rotated
100
AcDbAlignedDimension
 13
-98.64403104314064
 23
133.6416913946587
 33
0.0
 14
-87.64403104314066
 24
142.6416913946588
 34
0.0
100
AcDbRotatedDimension
1001
ACAD
1000
DSTYLE
1002
{
1070
   274
1070
     4
1070
    41
1040
3.000001882570243
1070
    79
1070
     2
1070
   343
1005
1D1
1070
   344
1005
1D1
1070
   176
1070
     4
1070
   177
1070
     4
1070
   178
1070
     2
1070
   271
1070
     2
1070
    44
1040
1.0
1070
    42
1040
1.0
1070
   147
1040
1.0
1070
   173
1070
     1
1070
    77
1070
     3
1070
    73
1070
     0
1070
   172
1070
     1
1070
    74
1070
     0
1070
   283
1070
     0
1070
   340
1005
1FD
1070
   140
1040
3.0
1070
   284
1070
     8
1070
   288
1070
     1
1070
    78
1070
     8
1070
    90
1070
     1
1002
}
  0
DIMENSION
  5
45A
330
1F
100
AcDbEntity
  8
Layer0016
  6
Continuous
370
    25
100
AcDbDimension
  2
*D35
 10
-55.64403104314086
 20
165.6416913946588
 30
0.0
 11
-71.64403104314076
 21
165.6416913946588
 31
0.0
 70
   160
  1
扉厚<>～40mm
 71
     8
 42
-1.0
  3
dc_Rotated
100
AcDbAlignedDimension
 13
-87.64403104314066
 23
142.6416913946588
 33
0.0
 14
-55.64403104314086
 24
142.6416913946588
 34
0.0
100
AcDbRotatedDimension
1001
ACAD
1000
DSTYLE
1002
{
1070
   274
1070
     4
1070
    41
1040
3.000001882570243
1070
    79
1070
     2
1070
   343
1005
1D1
1070
   344
1005
1D1
1070
   176
1070
     4
1070
   177
1070
     4
1070
   178
1070
     2
1070
   271
1070
     2
1070
    44
1040
1.0
1070
    42
1040
1.0
1070
   147
1040
1.0
1070
   173
1070
     1
1070
    77
1070
     3
1070
    73
1070
     0
1070
   172
1070
     1
1070
    74
1070
     0
1070
   283
1070
     0
1070
   340
1005
1FD
1070
   140
1040
4.0
1070
   284
1070
     8
1070
   288
1070
     1
1070
    78
1070
     8
1070
    90
1070
     1
1002
}
  0
DIMENSION
  5
45B
330
1F
100
AcDbEntity
  8
Layer0016
  6
Continuous
370
    25
100
AcDbDimension
  2
*D36
 10
1.955968956859181
 20
165.6416913946588
 30
0.0
 11
-26.84403104314084
 21
165.6416913946588
 31
0.0
 70
   160
  1
57.5
 71
     8
 42
-1.0
  3
dc_Rotated
100
AcDbAlignedDimension
 13
-55.64403104314086
 23
142.6416913946588
 33
0.0
 14
1.95596895685918
 24
-40.35830860534127
 34
0.0
100
AcDbRotatedDimension
1001
ACAD
1000
DSTYLE
1002
{
1070
   274
1070
     4
1070
    41
1040
3.000001882570243
1070
    79
1070
     2
1070
   343
1005
1D1
1070
   344
1005
1D1
1070
   176
1070
     4
1070
   177
1070
     4
1070
   178
1070
     2
1070
   271
1070
     2
1070
    44
1040
1.0
1070
    42
1040
1.0
1070
   147
1040
1.0
1070
   173
1070
     1
1070
    77
1070
     3
1070
    73
1070
     0
1070
   172
1070
     1
1070
    74
1070
     0
1070
   283
1070
     0
1070
   340
1005
1FD
1070
   140
1040
3.0
1070
   284
1070
     8
1070
   288
1070
     1
1070
    78
1070
     8
1070
    90
1070
     1
1002
}
  0
HATCH
  5
45C
330
1F
100
AcDbEntity
  8
Layer0016
 62
     4
100
AcDbHatch
 10
0.0
 20
0.0
 30
0.0
210
0.0
220
0.0
230
1.0
  2
SOLID
 70
     1
 71
     0
 91
        1
 92
        0
 93
       20
 72
     1
 10
66.40047936248394
 20
110.6416919907052
 11
70.40047942208858
 21
110.641691871496
 72
     2
 10
70.40047942208858
 20
109.3083585381626
 40
1.333333333333333
 50
270.0
 51
364.4117219387095
 73
     0
 72
     2
 10
71.4806030055644
 20
109.2250252843021
 40
0.2499999999999999
 50
4.411725785767796
 51
90.0
 73
     0
 72
     1
 10
71.4806030055644
 20
108.9750251253564
 11
70.35182931629438
 21
108.9750252843021
 72
     2
 10
70.35182931629438
 20
109.2250252843021
 40
0.2499999999999999
 50
90.0
 51
157.9756517215458
 73
     0
 72
     2
 10
69.73381279515834
 20
108.9750251253564
 40
0.4166666666666665
 50
22.02431283704329
 51
90.0
 73
     1
 72
     1
 10
69.73381279515834
 20
109.3916919907052
 11
67.06714608875532
 21
109.3916917920231
 72
     2
 10
67.06714608875532
 20
108.9750251253564
 40
0.4166666666666665
 50
90.0
 51
180.0
 73
     1
 72
     1
 10
66.65047942208858
 20
108.9750251253564
 11
66.65047942208864
 21
107.3083584586897
 72
     2
 10
67.06714608875532
 20
107.3083584586897
 40
0.4166666666666665
 50
180.0
 51
270.0
 73
     1
 72
     1
 10
67.06714608875532
 20
106.8916917920231
 11
69.73381279515834
 21
106.8916917920231
 72
     2
 10
69.73381279515834
 20
107.3083584586897
 40
0.4166666666666665
 50
270.0
 51
337.9757165521552
 73
     1
 72
     2
 10
70.35182931629438
 20
107.0583586971083
 40
0.2499999999999999
 50
202.0243128370433
 51
270.0
 73
     0
 72
     1
 10
70.35182931629438
 20
107.3083584586897
 11
71.4806030055644
 21
107.3083586971083
 72
     2
 10
71.4806030055644
 20
107.0583586971083
 40
0.2499999999999999
 50
270.0
 51
355.5883444959428
 73
     0
 72
     2
 10
70.40047942208858
 20
106.9750250458836
 40
1.333333333333333
 50
355.5882742142261
 51
450.0484566406832
 73
     0
 72
     1
 10
70.3993517849905
 20
105.6416921893874
 11
66.39714600928241
 21
105.6416921893874
 72
     2
 10
66.39714600928241
 20
106.9716921893874
 40
1.33
 50
90.0
 51
180.0
 73
     0
 72
     1
 10
65.06714600928242
 20
106.9716921893874
 11
65.06714602915062
 21
109.3083585381626
 72
     2
 10
66.40047936248394
 20
109.3083585381626
 40
1.333333333333333
 50
180.0
 51
270.0
 73
     0
 97
        0
 75
     0
 76
     1
 98
        0
  0
HATCH
  5
45D
330
1F
100
AcDbEntity
  8
Layer0016
 62
     4
100
AcDbHatch
 10
0.0
 20
0.0
 30
0.0
210
0.0
220
0.0
230
1.0
  2
SOLID
 70
     1
 71
     0
 91
        1
 92
        0
 93
       13
 72
     1
 10
56.01635219476114
 20
91.38367685527896
 11
56.0163520358154
 21
86.8836787626276
 72
     2
 10
55.7663520358154
 20
86.8836787626276
 40
0.2499999999999999
 50
0.0
 51
90.0
 73
     0
 72
     1
 10
55.7663520358154
 20
86.63367621949607
 11
54.43301917931925
 21
86.6336787626276
 72
     2
 10
54.43301917931925
 20
86.8836787626276
 40
0.2499999999999999
 50
90.0
 51
180.0
 73
     0
 72
     1
 10
54.18301902037351
 20
86.8836787626276
 11
54.18301886142777
 21
89.96700955282938
 72
     2
 10
53.93301886142777
 20
89.96700955282938
 40
0.2499999999999999
 50
0.0
 51
90.0
 73
     1
 72
     1
 10
53.93301886142777
 20
90.21701209596091
 11
53.76691617197898
 21
90.21701209596091
 72
     2
 10
53.76635235370682
 20
90.46701146017801
 40
0.2499999999999999
 50
89.87078226083327
 51
176.4084294829729
 73
     0
 72
     2
 10
53.76635235370682
 20
90.43568961671286
 40
0.2499999999999999
 50
183.5915705170271
 51
253.6907256881427
 73
     0
 72
     2
 10
53.22811049045609
 20
92.27522882671451
 40
1.666666666666666
 50
286.3092649333951
 51
332.279573920101
 73
     1
 72
     2
 10
54.92479723514603
 20
91.38367685527896
 40
0.2499999999999999
 50
207.720380027174
 51
269.8707822608333
 73
     0
 72
     1
 10
54.92423341687388
 20
91.63367621949607
 11
55.76578821754325
 21
91.63367621949607
 72
     2
 10
55.7663520358154
 20
91.38367685527896
 40
0.2499999999999999
 50
269.8707822608333
 51
360.0
 73
     0
 97
        0
 75
     0
 76
     1
 98
        0
  0
HATCH
  5
45E
330
1F
100
AcDbEntity
  8
Layer0016
 62
     4
100
AcDbHatch
 10
0.0
 20
0.0
 30
0.0
210
0.0
220
0.0
230
1.0
  2
SOLID
 70
     1
 71
     0
 91
        2
 92
        0
 93
       32
 72
     1
 10
83.64863760125456
 20
91.64168960651949
 11
79.6523202892484
 21
91.64168960651949
 72
     2
 10
79.65047886577861
 20
90.30835754475191
 40
1.333333333333333
 50
89.92087063000922
 51
180.0484566435686
 73
     1
 72
     1
 10
78.31714600928245
 20
90.30722990758669
 11
78.31714600928245
 21
87.97389721003621
 72
     2
 10
79.65047886577861
 20
87.97502484720144
 40
1.333333333333333
 50
179.9515433564314
 51
180.0484566435686
 73
     0
 72
     1
 10
78.31714600928245
 20
87.97615248436666
 11
78.31714600928245
 21
87.97389721003621
 72
     2
 10
79.65047886577861
 20
87.97502484720144
 40
1.333333333333333
 50
180.0484566435686
 51
270.0
 73
     1
 72
     1
 10
79.65047886577861
 20
86.64168960651949
 11
83.65047902472429
 21
86.64169151386811
 72
     2
 10
83.65047902472435
 20
87.97502484720144
 40
1.333333333333333
 50
269.9999999999976
 51
360.0
 73
     1
 72
     1
 10
84.98381267594908
 20
87.97502484720144
 11
84.98381235805766
 21
88.30835627318612
 72
     2
 10
83.65047902472435
 20
88.30835627318612
 40
1.333333333333333
 50
0.0
 51
90.0
 73
     1
 72
     1
 10
83.65047902472435
 20
89.64169151386812
 11
80.31601805484678
 21
89.64169151386812
 72
     2
 10
80.31714569139098
 20
90.14169024230233
 40
0.4999999999999996
 50
269.8707822608463
 51
270.1292177391537
 73
     1
 72
     1
 10
80.31827332793517
 20
89.64169151386812
 11
80.31601805484678
 21
89.64169151386812
 72
     2
 10
80.31714569139098
 20
90.14169024230233
 40
0.4999999999999996
 50
269.8707822608463
 51
270.1292177391537
 73
     1
 72
     1
 10
80.31827332793517
 20
89.64169151386812
 11
80.31601805484678
 21
89.64169151386812
 72
     2
 10
80.31714569139098
 20
90.14169024230233
 40
0.4999999999999996
 50
90.12921773915372
 51
270.0
 73
     0
 72
     1
 10
80.31714569139098
 20
90.64169214965096
 11
82.98381219911192
 21
90.64169024230233
 72
     2
 10
82.98381219911192
 20
90.14169024230233
 40
0.4999999999999996
 50
270.0
 51
340.5288407618004
 73
     0
 72
     2
 10
83.69091878938292
 20
90.39168960651949
 40
0.2499999999999998
 50
199.471220634491
 51
270.1292177333825
 73
     1
 72
     1
 10
83.69148260762984
 20
90.14169024230233
 11
83.690354971136
 21
90.14169024230233
 72
     2
 10
83.69091878938292
 20
90.39168960651949
 40
0.2499999999999998
 50
90.12921773338245
 51
160.5289021581868
 73
     0
 72
     2
 10
82.98381219911192
 20
90.14169024230233
 40
0.4999999999999996
 50
19.47122063449033
 51
90.0
 73
     1
 72
     1
 10
82.98381219911192
 20
90.64169214965096
 11
80.31714569139098
 21
90.64169024230233
 72
     2
 10
80.31714569139098
 20
90.14169024230233
 40
0.4999999999999996
 50
90.0
 51
270.1292177391537
 73
     1
 72
     1
 10
80.31827332793517
 20
89.64169151386812
 11
80.31601805484678
 21
89.64169151386812
 72
     2
 10
80.31714569139098
 20
90.14169024230233
 40
0.4999999999999996
 50
90.12921773915372
 51
270.0
 73
     0
 72
     1
 10
80.31714569139098
 20
90.64169214965096
 11
82.98381219911192
 21
90.64169024230233
 72
     2
 10
82.98381219911192
 20
90.14169024230233
 40
0.4999999999999996
 50
270.0
 51
340.5288407618004
 73
     0
 72
     2
 10
83.69091878938292
 20
90.39168960651949
 40
0.2499999999999998
 50
199.471220634491
 51
270.1292177333825
 73
     1
 72
     1
 10
83.69148260762984
 20
90.14169024230233
 11
84.73003878995314
 21
90.14169024230233
 72
     2
 10
84.73060260820006
 20
90.39168960651949
 40
0.2499999999999998
 50
269.8707822666175
 51
364.4120187015896
 73
     1
 72
     2
 10
83.65047902472435
 20
90.30835754475191
 40
1.333333333333333
 50
4.411725785781746
 51
90.07912936999078
 73
     1
 97
        0
 92
        0
 93
        5
 72
     2
 10
82.98381219911192
 20
88.14169214965096
 40
0.4999999999999996
 50
269.8707822637319
 51
270.1292177362681
 73
     0
 72
     1
 10
82.98493983563094
 20
88.64169087808523
 11
80.31601805487196
 21
88.64169087808523
 72
     2
 10
80.31714569139098
 20
88.14169214965096
 40
0.4999999999999996
 50
90.1292177362681
 51
270.0
 73
     1
 72
     1
 10
80.31714569139098
 20
87.64169024230233
 11
82.98381219911192
 21
87.64169214965096
 72
     2
 10
82.98381219911192
 20
88.14169214965096
 40
0.4999999999999996
 50
270.0
 51
450.1292177362681
 73
     1
 97
        0
 75
     0
 76
     1
 98
        0
  0
HATCH
  5
45F
330
1F
100
AcDbEntity
  8
Layer0016
 62
     4
100
AcDbHatch
 10
0.0
 20
0.0
 30
0.0
210
0.0
220
0.0
230
1.0
  2
SOLID
 70
     1
 71
     0
 91
        1
 92
        0
 93
       20
 72
     1
 10
56.9940992856481
 20
74.60745481645972
 11
53.1626070578931
 21
74.60745481645972
 72
     2
 10
53.16076563442331
 20
73.27412275469214
 40
1.333333333333333
 50
89.92087063000922
 51
185.2159304211861
 73
     1
 72
     2
 10
52.24789506837308
 20
73.19078910346735
 40
0.4166666666666665
 50
185.2159304211848
 51
270.0
 73
     1
 72
     1
 10
52.24789506837308
 20
72.77412243680067
 11
52.91456189398551
 21
72.77412243680068
 72
     2
 10
52.91456189398551
 20
73.19078910346735
 40
0.4166666666666665
 50
270.0
 51
354.7840613847765
 73
     1
 72
     2
 10
53.82743246003568
 20
73.10745545224256
 40
0.4999999999999997
 50
185.2159235928289
 51
270.0
 73
     0
 72
     1
 10
53.82743246003568
 20
73.60745577013404
 11
56.98676473542631
 21
73.60745545224256
 72
     2
 10
56.98676473542631
 20
73.10745545224256
 40
0.4999999999999997
 50
270.0
 51
439.0334011577262
 73
     0
 72
     1
 10
57.08188309214157
 20
72.61658632689877
 11
53.04546127497591
 21
71.84404439449503
 72
     2
 10
53.32743214214426
 20
70.37078527605445
 40
1.499999999999999
 50
100.834956445928
 51
179.9472470882238
 73
     1
 72
     1
 10
51.82743277792716
 20
70.37216634386009
 11
51.82743277792716
 21
69.85801958840617
 72
     2
 10
52.07743214214426
 20
69.85745577013404
 40
0.2499999999999999
 50
179.8707822608398
 51
269.8707822666175
 73
     1
 72
     1
 10
52.07686832389734
 20
69.60745640591688
 11
58.24353546740119
 21
69.60745640591688
 72
     2
 10
58.2440992856481
 20
69.85745577013404
 40
0.2499999999999999
 50
269.8707822666175
 51
360.0
 73
     1
 72
     1
 10
58.49409944459379
 20
69.85745577013404
 11
58.4940992856481
 21
70.35745608802546
 72
     2
 10
58.2440992856481
 20
70.35745608802546
 40
0.2499999999999999
 50
0.0
 51
89.87078226083328
 73
     1
 72
     1
 10
58.24466310392026
 20
70.60745545224256
 11
53.66076595231473
 21
70.60745608802547
 72
     2
 10
53.66076595231473
 20
70.77412275469214
 40
0.1666666666666666
 50
90.0
 51
256.7128966475258
 73
     0
 72
     1
 10
53.62246083905805
 20
70.93632785965549
 11
57.21265220215017
 21
71.62346265485827
 72
     2
 10
56.9940992856481
 20
73.10745545224256
 40
1.499999999999999
 50
278.3779293358174
 51
450.0
 73
     1
 97
        0
 75
     0
 76
     1
 98
        0
  0
HATCH
  5
460
330
1F
100
AcDbEntity
  8
Layer0016
 62
     4
100
AcDbHatch
 10
0.0
 20
0.0
 30
0.0
210
0.0
220
0.0
230
1.0
  2
SOLID
 70
     1
 71
     0
 91
        1
 92
        0
 93
       12
 72
     2
 10
84.73381188122045
 20
74.3916905601937
 40
0.2499999999999999
 50
270.0
 51
360.0
 73
     0
 72
     1
 10
84.98381283489476
 20
74.3916905601937
 11
84.98381188122045
 21
73.48674105406985
 72
     2
 10
84.73381188122045
 20
73.48674105406985
 40
0.2499999999999999
 50
0.0
 51
41.63354248120522
 73
     0
 72
     1
 10
84.92066449167038
 20
73.32064982642284
 11
81.72548489244099
 21
69.72607317460165
 72
     2
 10
81.53821296103416
 20
69.89169087808517
 40
0.2499999999999999
 50
41.48858445061882
 51
89.87078226661755
 73
     0
 72
     1
 10
81.53877677928108
 20
69.64169151386801
 11
80.4004795015615
 21
69.64169151386803
 72
     2
 10
80.4004795015615
 20
70.0583581805347
 40
0.4166666666666665
 50
90.0
 51
224.9127508843632
 73
     0
 72
     1
 10
80.10540349816068
 20
70.3525368754167
 11
82.85184265445469
 21
73.10735267964739
 72
     2
 10
82.73381219911192
 20
73.22502421141849
 40
0.1666666666666666
 50
315.0872491156329
 51
450.0
 73
     1
 72
     1
 10
82.73381219911192
 20
73.39169151386801
 11
78.94214616822813
 21
73.39169151386801
 72
     2
 10
78.94214616822813
 20
74.01669151386801
 40
0.6249999999999999
 50
90.0
 51
269.870782264296
 73
     0
 72
     1
 10
78.94073662258552
 20
74.64168992441085
 11
84.73381188122045
 21
74.6416905601937
 97
        0
 75
     0
 76
     1
 98
        0
  0
HATCH
  5
461
330
1F
100
AcDbEntity
  8
Layer0016
 62
     4
100
AcDbHatch
 10
0.0
 20
0.0
 30
0.0
210
0.0
220
0.0
230
1.0
  2
SOLID
 70
     1
 71
     0
 91
        1
 92
        0
 93
       21
 72
     1
 10
57.1504793426158
 20
57.64169187149592
 11
53.15047918367
 21
57.64169155360446
 72
     2
 10
53.15047918367
 20
56.30835822027112
 40
1.333333333333333
 50
90.0
 51
185.2159034834286
 73
     1
 72
     2
 10
52.23760782289119
 20
56.22502496641065
 40
0.4166666666666665
 50
185.2159085704496
 51
270.0
 73
     1
 72
     1
 10
52.23760782289119
 20
55.80835829974401
 11
52.90427464850362
 21
55.80835829974399
 72
     2
 10
52.90427464850362
 20
56.22502496641065
 40
0.4166666666666665
 50
270.0
 51
354.7841077080127
 73
     1
 72
     2
 10
53.81714600928242
 20
56.14169171255018
 40
0.4999999999999997
 50
185.2159085704551
 51
269.92087063001
 73
     0
 72
     1
 10
53.81645547548126
 20
56.64169123571302
 11
56.48312198320221
 21
56.64169123571302
 72
     2
 10
56.48381251700337
 20
56.14169171255018
 40
0.4999999999999997
 50
269.92087063001
 51
450.0
 73
     0
 72
     1
 10
56.48381251700337
 20
55.64169139465876
 11
55.1504793426158
 21
55.64169139465876
 72
     2
 10
55.1504793426158
 20
55.14169139465876
 40
0.4999999999999997
 50
90.0
 51
270.0
 73
     1
 72
     1
 10
55.1504793426158
 20
54.6416915536045
 11
56.48381251700337
 21
54.64169163307734
 72
     2
 10
56.48381251700337
 20
54.14169163307734
 40
0.4999999999999997
 50
270.0
 51
450.0
 73
     0
 72
     1
 10
56.48381251700337
 20
53.64169171255018
 11
53.81714600928242
 21
53.64169163307734
 72
     2
 10
53.81714600928242
 20
54.14169163307734
 40
0.4999999999999997
 50
90.0
 51
174.7841049949268
 73
     0
 72
     2
 10
52.90427464850362
 20
54.05835837921686
 40
0.4166666666666665
 50
5.215908570442845
 51
90.0
 73
     1
 72
     1
 10
52.90427464850362
 20
54.47502504588353
 11
52.23760782289119
 21
54.47502504588353
 72
     2
 10
52.23760782289119
 20
54.05835837921686
 40
0.4166666666666665
 50
90.0
 51
174.784129566381
 73
     1
 72
     2
 10
53.15047918367
 20
53.97502472799207
 40
1.333333333333333
 50
174.7840914295519
 51
270.0370093741511
 73
     1
 72
     1
 10
53.15134043085416
 20
52.64169167281378
 11
57.15047934261574
 21
52.64169139465874
 72
     2
 10
57.1504793426158
 20
53.97502472799207
 40
1.333333333333333
 50
269.9999999999976
 51
421.0449789347897
 73
     1
 72
     2
 10
57.1504793426158
 20
56.30835822027112
 40
1.333333333333333
 50
298.9550243718617
 51
450.0
 73
     1
 97
        0
 75
     0
 76
     1
 98
        0
  0
HATCH
  5
462
330
1F
100
AcDbEntity
  8
Layer0016
 62
     4
100
AcDbHatch
 10
0.0
 20
0.0
 30
0.0
210
0.0
220
0.0
230
1.0
  2
SOLID
 70
     1
 71
     0
 91
        3
 92
        0
 93
        6
 72
     1
 10
83.65047958103435
 20
57.64169171255023
 11
79.65047942208861
 21
57.64169139465878
 72
     2
 10
79.65047942208861
 20
56.30835806132544
 40
1.333333333333333
 50
90.0
 51
241.0449789347869
 73
     1
 72
     2
 10
79.65047942208861
 20
53.97502456904639
 40
1.333333333333333
 50
118.9550243718675
 51
270.0370093741511
 73
     1
 72
     1
 10
79.65134066927277
 20
52.6416915138681
 11
83.65047958103429
 21
52.64169123571305
 72
     2
 10
83.65047958103435
 20
53.97502456904639
 40
1.333333333333333
 50
269.9999999999976
 51
421.0449789347897
 73
     1
 72
     2
 10
83.65047958103435
 20
56.30835806132544
 40
1.333333333333333
 50
298.9550243718617
 51
450.0
 73
     1
 97
        0
 92
        0
 93
        5
 72
     2
 10
82.98381275542198
 20
56.1416915536045
 40
0.4999999999999997
 50
269.92087063001
 51
270.07912936999
 73
     0
 72
     1
 10
82.98450328922314
 20
56.64169107676734
 11
80.31645571389987
 21
56.64169107676734
 72
     2
 10
80.31714624770103
 20
56.1416915536045
 40
0.4999999999999997
 50
90.07912936998996
 51
270.0
 73
     1
 72
     1
 10
80.31714624770103
 20
55.64169123571308
 11
82.98381275542198
 21
55.6416915536045
 72
     2
 10
82.98381275542198
 20
56.1416915536045
 40
0.4999999999999997
 50
270.0
 51
450.07912936999
 73
     1
 97
        0
 92
        0
 93
        4
 72
     2
 10
82.98381275542198
 20
54.14169147413165
 40
0.4999999999999997
 50
269.9999999999935
 51
450.0
 73
     0
 72
     1
 10
82.98381275542198
 20
53.6416915536045
 11
80.31714624770103
 21
53.64169147413165
 72
     2
 10
80.31714624770103
 20
54.14169147413165
 40
0.4999999999999997
 50
90.0
 51
270.0
 73
     0
 72
     1
 10
80.31714624770103
 20
54.64169139465881
 11
82.98381275542192
 21
54.64169147413165
 97
        0
 75
     0
 76
     1
 98
        0
  0
HATCH
  5
463
330
1F
100
AcDbEntity
  8
Layer0016
 62
     4
100
AcDbHatch
 10
0.0
 20
0.0
 30
0.0
210
0.0
220
0.0
230
1.0
  2
SOLID
 70
     1
 71
     0
 91
        2
 92
        0
 93
       22
 72
     2
 10
57.46866084290619
 20
37.96700891704645
 40
0.2499999999999999
 50
180.1292177333841
 51
269.8707822608333
 73
     1
 72
     1
 10
57.46809702463403
 20
37.71700955282935
 11
58.21866131974335
 21
37.71700859915503
 72
     2
 10
58.21866131974335
 20
37.46700859915503
 40
0.2499999999999999
 50
270.0
 51
360.0
 73
     0
 72
     1
 10
58.46866147868903
 20
37.46700859915503
 11
58.46866131974335
 21
36.71700891704645
 72
     2
 10
58.21866131974335
 20
36.71700891704645
 40
0.2499999999999999
 50
0.0
 51
89.87078226083327
 73
     0
 72
     1
 10
58.2192251380155
 20
36.46700955282935
 11
57.46866084290619
 21
36.46700859915503
 72
     2
 10
57.46866084290619
 20
36.21700859915503
 40
0.2499999999999999
 50
90.0
 51
179.8707822666159
 73
     1
 72
     1
 10
57.21866147868903
 20
36.21757241740195
 11
57.21866131974335
 21
35.88367558371313
 72
     2
 10
56.96866131974335
 20
35.88367558371313
 40
0.2499999999999999
 50
0.0
 51
89.87078226661755
 73
     0
 72
     1
 10
56.96922513799026
 20
35.63367621949597
 11
55.96922529693595
 21
35.63367621949597
 72
     2
 10
55.96866147868903
 20
35.88367558371313
 40
0.2499999999999999
 50
89.87078226661755
 51
180.0
 73
     0
 72
     1
 10
55.71866131974335
 20
35.88367558371313
 11
55.71866116079767
 21
36.21700859915503
 72
     2
 10
55.46866116079767
 20
36.21700859915503
 40
0.2499999999999999
 50
0.0
 51
90.0
 73
     1
 72
     1
 10
55.46866116079767
 20
36.46700955282935
 11
52.21866147868903
 21
36.46700955282931
 72
     2
 10
52.21866147868903
 20
36.88367621949597
 40
0.4166666666666665
 50
90.0
 51
180.0
 73
     0
 72
     1
 10
51.8019948120224
 20
36.88367621949597
 11
51.80199481202234
 21
37.53430780620661
 72
     2
 10
52.21866147868903
 20
37.53430780620661
 40
0.4166666666666665
 50
180.0
 51
227.3532986467564
 73
     0
 72
     1
 10
51.93637986367693
 20
37.84078500733369
 11
54.84855434252157
 21
40.52305080740643
 72
     2
 10
55.13130840811212
 20
40.21700955282935
 40
0.4166666666666665
 50
227.26490012605
 51
270.0
 73
     0
 72
     1
 10
55.13130840811212
 20
40.63367621949599
 11
56.96866131974335
 21
40.63367606055029
 72
     2
 10
56.96866131974335
 20
40.38367606055029
 40
0.2499999999999999
 50
270.0
 51
360.0
 73
     0
 72
     1
 10
57.21866147868903
 20
40.38367606055029
 11
57.21866147868903
 21
37.96644509879953
 97
        0
 92
        0
 93
        3
 72
     1
 10
55.71866131974335
 20
39.62504562587824
 11
55.71866131974335
 21
37.71700955282935
 72
     1
 10
55.71866131974335
 20
37.71700955282935
 11
53.64707884344537
 21
37.71700955282935
 72
     1
 10
53.64707884344537
 20
37.71700955282935
 11
55.71866131974335
 21
39.62504562587824
 97
        0
 75
     0
 76
     1
 98
        0
  0
HATCH
  5
464
330
1F
100
AcDbEntity
  8
Layer0016
 62
     4
100
AcDbHatch
 10
0.0
 20
0.0
 30
0.0
210
0.0
220
0.0
230
1.0
  2
SOLID
 70
     1
 71
     0
 91
        2
 92
        0
 93
       40
 72
     1
 10
83.64652903453958
 20
40.641691513868
 11
79.6465288755939
 21
40.64169119597661
 72
     2
 10
79.6465288755939
 20
39.30835786264327
 40
1.333333333333333
 50
90.0
 51
179.9515433593171
 73
     1
 72
     1
 10
78.31319601909769
 20
39.30948549974134
 11
78.31319601909769
 21
38.97615248429945
 72
     2
 10
79.6465288755939
 20
38.97502484720138
 40
1.333333333333333
 50
179.9515433593171
 51
270.0
 73
     1
 72
     1
 10
79.6465288755939
 20
37.64169119597658
 11
82.97986220892722
 21
37.64169087808516
 72
     2
 10
82.97986220892722
 20
37.14169087808516
 40
0.4999999999999997
 50
270.0
 51
450.0
 73
     0
 72
     1
 10
82.97986220892722
 20
36.64169056019369
 11
80.31319570120627
 21
36.64169087808516
 72
     2
 10
80.31319570120627
 20
37.14169087808516
 40
0.4999999999999997
 50
90.0
 51
160.5288407618011
 73
     0
 72
     2
 10
79.60608911093527
 20
36.891691513868
 40
0.2499999999999999
 50
19.47122063449251
 51
89.87078226661752
 73
     1
 72
     1
 10
79.60665292918219
 20
37.14169087808516
 11
79.60552529268836
 21
37.14169087808516
 72
     2
 10
79.60608911093527
 20
36.891691513868
 40
0.2499999999999999
 50
269.8707822666175
 51
270.1292177333825
 73
     0
 72
     1
 10
79.60665292918219
 20
37.14169087808516
 11
79.60552529268836
 21
37.14169087808516
 72
     2
 10
79.60608911093527
 20
36.891691513868
 40
0.2499999999999999
 50
269.8707822666175
 51
340.5289021581867
 73
     0
 72
     2
 10
80.31319570120627
 20
37.14169087808516
 40
0.4999999999999997
 50
199.4712206344904
 51
270.0
 73
     1
 72
     1
 10
80.31319570120627
 20
36.64169056019369
 11
82.97986220892722
 21
36.64169087808516
 72
     2
 10
82.97986220892722
 20
37.14169087808516
 40
0.4999999999999997
 50
270.0
 51
450.0
 73
     1
 72
     1
 10
82.97986220892722
 20
37.64169119597658
 11
79.64652887559396
 21
37.64169151386804
 72
     2
 10
79.6465288755939
 20
38.97502484720138
 40
1.333333333333333
 50
89.99999999999756
 51
180.0484566406829
 73
     0
 72
     1
 10
78.31319601909769
 20
38.97615248429945
 11
78.31319601909769
 21
38.9738972101033
 72
     2
 10
79.6465288755939
 20
38.97502484720138
 40
1.333333333333333
 50
180.0484566406829
 51
270.0
 73
     1
 72
     1
 10
79.6465288755939
 20
37.64169119597658
 11
82.97986220892722
 21
37.64169087808516
 72
     2
 10
82.97986220892722
 20
37.14169087808516
 40
0.4999999999999997
 50
270.0
 51
450.0
 73
     0
 72
     1
 10
82.97986220892722
 20
36.64169056019369
 11
80.31319570120627
 21
36.64169087808516
 72
     2
 10
80.31319570120627
 20
37.14169087808516
 40
0.4999999999999997
 50
90.0
 51
160.5288407618011
 73
     0
 72
     2
 10
79.60608911093527
 20
36.891691513868
 40
0.2499999999999999
 50
19.47122063449251
 51
90.12921773338248
 73
     1
 72
     1
 10
79.60552529268836
 20
37.14169087808516
 11
79.60665292918219
 21
37.14169087808516
 72
     2
 10
79.60608911093527
 20
36.891691513868
 40
0.2499999999999999
 50
89.87078226661752
 51
90.12921773338248
 73
     1
 72
     1
 10
79.60552529268836
 20
37.14169087808516
 11
79.60665292918219
 21
37.14169087808516
 72
     2
 10
79.60608911093527
 20
36.891691513868
 40
0.2499999999999999
 50
89.87078226661752
 51
90.12921773338248
 73
     1
 72
     1
 10
79.60552529268836
 20
37.14169087808516
 11
79.60665292918219
 21
37.14169087808516
 72
     2
 10
79.60608911093527
 20
36.891691513868
 40
0.2499999999999999
 50
89.87078226661752
 51
90.12921773338248
 73
     1
 72
     1
 10
79.60552529268836
 20
37.14169087808516
 11
79.60665292918219
 21
37.14169087808516
 72
     2
 10
79.60608911093527
 20
36.891691513868
 40
0.2499999999999999
 50
89.87078226661752
 51
90.12921773338248
 73
     1
 72
     1
 10
79.60552529268836
 20
37.14169087808516
 11
78.56696911036505
 21
37.14169087808516
 72
     2
 10
78.56640529211813
 20
36.891691513868
 40
0.2499999999999999
 50
89.87078226661752
 51
184.4116555040854
 73
     1
 72
     2
 10
79.6465288755939
 20
36.9750251650928
 40
1.333333333333333
 50
184.4117257857817
 51
270.0
 73
     1
 72
     1
 10
79.6465288755939
 20
35.641691513868
 11
83.64652903453958
 21
35.64169183175946
 72
     2
 10
83.64652903453958
 20
36.9750251650928
 40
1.333333333333333
 50
270.0
 51
360.0
 73
     1
 72
     1
 10
84.97986268576437
 20
36.9750251650928
 11
84.9798623678729
 21
39.30835786264326
 72
     2
 10
83.64652903453958
 20
39.30835786264327
 40
1.333333333333333
 50
359.9999999999997
 51
450.0
 73
     1
 97
        0
 92
        0
 93
        4
 72
     2
 10
82.97986220892722
 20
39.14169135492232
 40
0.4999999999999997
 50
270.07912936999
 51
449.92087063001
 73
     0
 72
     1
 10
82.98055274272838
 20
38.64169183175948
 11
80.31388623500743
 21
38.64169183175948
 72
     2
 10
80.31319570120627
 20
39.14169135492232
 40
0.4999999999999997
 50
89.92087063001006
 51
269.92087063001
 73
     0
 72
     1
 10
80.3125051674051
 20
39.64169087808516
 11
82.98055274272838
 21
39.64169087808516
 97
        0
 75
     0
 76
     1
 98
        0
  0
HATCH
  5
465
330
1F
100
AcDbEntity
  8
Layer0016
 62
     4
100
AcDbHatch
 10
0.0
 20
0.0
 30
0.0
210
0.0
220
0.0
230
1.0
  2
SOLID
 70
     1
 71
     0
 91
        1
 92
        0
 93
       20
 72
     1
 10
53.47649791115444
 20
22.61678720738531
 11
53.47649791115444
 21
21.70011863337
 72
     1
 10
53.47649791115444
 20
21.70011863337
 11
56.93285086106263
 21
21.70011863337
 72
     2
 10
56.93483092659628
 20
20.1584532382691
 40
1.541666666666666
 50
269.9264111809115
 51
450.0
 73
     0
 72
     1
 10
56.93483092659628
 20
18.61678466425379
 11
53.14316410098397
 21
18.61678657160243
 72
     2
 10
53.14316410098397
 20
19.95011990493576
 40
1.333333333333333
 50
90.0
 51
183.5832669499249
 73
     0
 72
     1
 10
51.8124374028001
 20
20.03345196670334
 11
53.31682460040926
 21
20.03345196670334
 72
     2
 10
53.80983092659633
 20
20.11678720738531
 40
0.4999999999999997
 50
189.5942898933701
 51
270.0
 73
     1
 72
     1
 10
53.80983092659633
 20
19.61678530003668
 11
56.92749637637453
 21
19.61678657160244
 72
     2
 10
56.92749637637453
 20
20.1584532382691
 40
0.5416666666666664
 50
270.0
 51
449.8479498879167
 73
     1
 72
     1
 10
56.92893383619108
 20
20.70011799758713
 11
53.46219933824594
 21
20.70011799758712
 72
     2
 10
53.2264977522087
 20
20.7834532382691
 40
0.2499999999999999
 50
19.47168428377469
 51
89.87078226372543
 73
     0
 72
     1
 10
53.22706157046824
 20
20.53345387405197
 11
52.06039442696445
 21
20.53345387405197
 72
     2
 10
52.05983060870491
 20
20.7834532382691
 40
0.2499999999999999
 50
89.87078226372543
 51
179.8707822666152
 73
     0
 72
     1
 10
51.80983124448775
 20
20.78288942002218
 11
51.80983124448775
 21
23.36622148178975
 72
     2
 10
52.05983060870491
 20
23.36678530003668
 40
0.2499999999999999
 50
179.8707822666152
 51
269.8707822608333
 73
     0
 72
     1
 10
52.05926679043276
 20
23.61678466425379
 11
58.22593393393655
 21
23.61678466425379
 72
     2
 10
58.2264977522087
 20
23.36678530003668
 40
0.2499999999999999
 50
269.8707822608333
 51
360.0
 73
     0
 72
     1
 10
58.47649791115438
 20
23.36678530003668
 11
58.4764977522087
 21
22.86678657160242
 72
     2
 10
58.2264977522087
 20
22.86678657160242
 40
0.2499999999999999
 50
0.0
 51
89.87078226083327
 73
     0
 72
     1
 10
58.22706157048086
 20
22.61678720738531
 11
53.47649791115444
 21
22.61678720738531
 97
        0
 75
     0
 76
     1
 98
        0
  0
HATCH
  5
466
330
1F
100
AcDbEntity
  8
Layer0016
 62
     4
100
AcDbHatch
 10
0.0
 20
0.0
 30
0.0
210
0.0
220
0.0
230
1.0
  2
SOLID
 70
     1
 71
     0
 91
        2
 92
        0
 93
        8
 72
     2
 10
83.65047902472435
 20
22.30835945210042
 40
1.333333333333333
 50
270.0
 51
360.0
 73
     0
 72
     1
 10
84.98381267594914
 20
22.30835945210042
 11
84.98381235805766
 21
19.97502675454997
 72
     2
 10
83.65047902472435
 20
19.97502675454997
 40
1.333333333333333
 50
0.0
 51
90.0
 73
     0
 72
     1
 10
83.65047902472435
 20
18.641691513868
 11
79.65047886577867
 21
18.64169342121664
 72
     2
 10
79.65047886577867
 20
19.97502675454997
 40
1.333333333333333
 50
90.0
 51
179.951543359317
 73
     0
 72
     1
 10
78.31714600928245
 20
19.9738991174519
 11
78.31714600928245
 21
22.30723181500234
 72
     2
 10
79.65047886577867
 20
22.30835945210042
 40
1.333333333333333
 50
179.951543359317
 51
269.9208706300092
 73
     0
 72
     1
 10
79.64863744230888
 20
23.641691513868
 11
83.65047902472435
 21
23.64169278543375
 97
        0
 92
        0
 93
        8
 72
     2
 10
82.98381219911198
 20
21.97502484720134
 40
0.4166666666666665
 50
270.0
 51
360.0
 73
     0
 72
     1
 10
83.40047886577867
 20
21.97502484720134
 11
83.40047886577867
 21
20.30835818053467
 72
     2
 10
82.98381219911198
 20
20.30835818053467
 40
0.4166666666666665
 50
0.0
 51
90.0
 73
     0
 72
     1
 10
82.98381219911198
 20
19.891691513868
 11
80.31714569139103
 21
19.891691513868
 72
     2
 10
80.31714569139103
 20
20.30835818053467
 40
0.4166666666666665
 50
90.0
 51
180.0
 73
     0
 72
     1
 10
79.90047902472435
 20
20.30835818053467
 11
79.90047902472435
 21
21.97502484720134
 72
     2
 10
80.31714569139103
 20
21.97502484720134
 40
0.4166666666666665
 50
180.0
 51
270.0
 73
     0
 72
     1
 10
80.31714569139103
 20
22.391691513868
 11
82.98381219911198
 21
22.39169151386801
 97
        0
 75
     0
 76
     1
 98
        0
  0
HATCH
  5
467
330
1F
100
AcDbEntity
  8
Layer0016
 62
     4
100
AcDbHatch
 10
0.0
 20
0.0
 30
0.0
210
0.0
220
0.0
230
1.0
  2
SOLID
 70
     1
 71
     0
 91
        2
 92
        0
 93
       16
 72
     1
 10
56.3865576049449
 20
6.504660793157242
 11
58.42085894429314
 21
2.4886204120935
 72
     2
 10
57.90047902472438
 20
2.225025045883484
 40
0.583333333333333
 50
333.1357762636867
 51
450.0
 73
     0
 72
     1
 10
57.90047902472438
 20
1.641691076767273
 11
57.22859500455476
 21
1.641693619898788
 72
     2
 10
57.22859500455476
 20
1.891693619898788
 40
0.2499999999999999
 50
90.0
 51
153.1356774067597
 73
     0
 72
     1
 10
57.00557541786813
 20
1.778723885611329
 11
56.722278831311
 21
2.337994873338689
 72
     2
 10
56.49925906069697
 20
2.225025045883484
 40
0.2499999999999999
 50
26.86432259324319
 51
89.87078226227935
 73
     1
 72
     1
 10
56.49982287896282
 20
2.475024410100602
 11
53.801698579928
 21
2.475024410100559
 72
     2
 10
53.801698579928
 20
2.225024410100559
 40
0.25
 50
90.0
 51
153.1356693076011
 73
     1
 72
     1
 10
53.57867882528305
 20
2.33799426908115
 11
53.29538248164758
 21
1.778723760918422
 72
     2
 10
53.07236272700251
 20
1.891693619898788
 40
0.2499999999999999
 50
26.86433069234119
 51
90.0
 73
     0
 72
     1
 10
53.07236272700251
 20
1.641691076767273
 11
52.40047890551509
 21
1.641691712550151
 72
     2
 10
52.40047890551509
 20
2.225025045883484
 40
0.583333333333333
 50
90.0
 51
206.8642226084392
 73
     0
 72
     1
 10
51.88009887735964
 20
2.488620454225286
 11
53.91440027534728
 21
6.50466115082142
 72
     2
 10
54.13742024310054
 20
6.391691712550156
 40
0.2499999999999999
 50
206.8642226084428
 51
269.8707822622794
 73
     0
 72
     1
 10
54.13685642483469
 20
6.641691076767273
 11
56.16297376953199
 21
6.641691076767273
 72
     2
 10
56.16353758779783
 20
6.391691712550156
 40
0.2499999999999999
 50
269.8707822622794
 51
333.1358556312669
 73
     0
 97
        0
 92
        0
 93
        3
 72
     1
 10
55.15047891544916
 20
5.440983323267929
 11
54.28127073851843
 21
3.725024410100602
 72
     1
 10
54.28127073851843
 20
3.725024410100602
 11
56.01968714205046
 21
3.725024410100602
 72
     1
 10
56.01968714205046
 20
3.725024410100602
 11
55.15047891544916
 21
5.440983323267929
 97
        0
 75
     0
 76
     1
 98
        0
  0
HATCH
  5
468
330
1F
100
AcDbEntity
  8
Layer0016
 62
     4
100
AcDbHatch
 10
0.0
 20
0.0
 30
0.0
210
0.0
220
0.0
230
1.0
  2
SOLID
 70
     1
 71
     0
 91
        3
 92
        0
 93
        7
 72
     1
 10
78.56714616822813
 20
6.641691712550156
 11
83.65047942208861
 21
6.641691394658725
 72
     2
 10
83.65047942208861
 20
5.308358061325393
 40
1.333333333333333
 50
270.0
 51
421.0449474113972
 73
     0
 72
     2
 10
83.65047942208861
 20
2.975025363774932
 40
1.333333333333333
 50
298.9550525886025
 51
450.0
 73
     0
 72
     1
 10
83.65047942208861
 20
1.641691712550156
 11
78.56714600928245
 21
1.641691712550156
 72
     2
 10
78.56714600928245
 20
1.891691712550156
 40
0.25
 50
90.0
 51
180.0
 73
     0
 72
     1
 10
78.31714600928245
 20
1.891691712550156
 11
78.31714616822813
 21
6.391690758875839
 72
     2
 10
78.56714616822813
 20
6.391690758875839
 40
0.2499999999999999
 50
180.0
 51
270.0
 73
     0
 97
        0
 92
        0
 93
        4
 72
     1
 10
79.8171460688871
 20
5.641691076767287
 11
82.98381279515837
 21
5.641690758875839
 72
     2
 10
82.98381279515837
 20
5.141690758875839
 40
0.4999999999999997
 50
270.0
 51
450.1292177377142
 73
     0
 72
     1
 10
82.98268515862674
 20
4.641692030441604
 11
79.8171460688871
 21
4.641692030441604
 72
     1
 10
79.8171460688871
 20
4.641692030441604
 11
79.8171460688871
 21
5.641691076767287
 97
        0
 92
        0
 93
        4
 72
     1
 10
79.8171460688871
 20
3.641691394658721
 11
82.98381279515837
 21
3.641691076767287
 72
     2
 10
82.98381279515837
 20
3.141691076767287
 40
0.4999999999999997
 50
270.0
 51
450.07912936999
 73
     0
 72
     1
 10
82.98312226135721
 20
2.641691553604446
 11
79.8171460688871
 21
2.641691553604446
 72
     1
 10
79.8171460688871
 20
2.641691553604446
 11
79.8171460688871
 21
3.641691394658721
 97
        0
 75
     0
 76
     1
 98
        0
  0
INSERT
  5
469
330
1F
100
AcDbEntity
  8
0
  6
Continuous
100
AcDbBlockReference
  2
DC_GROUP_KL22291_14
 10
0.0
 20
0.0
 30
0.0
  0
LINE
  5
46A
330
1F
100
AcDbEntity
  8
Layer0016
  6
Continuous
 62
     2
370
    50
100
AcDbLine
 10
-87.64403104314066
 20
-26.85830860534125
 30
0.0
 11
-86.1440310431408
 21
-26.85830860534125
 31
0.0
  0
LINE
  5
46B
330
1F
100
AcDbEntity
  8
Layer0016
  6
Continuous
 62
     2
370
    50
100
AcDbLine
 10
-86.1440310431408
 20
-30.85830860534125
 30
0.0
 11
-87.64403104314066
 21
-30.85830860534125
 31
0.0
  0
LINE
  5
46C
330
1F
100
AcDbEntity
  8
Layer0016
  6
Continuous
 62
     2
370
    50
100
AcDbLine
 10
-87.64403104314066
 20
-49.85830860534124
 30
0.0
 11
-86.1440310431408
 21
-49.85830860534124
 31
0.0
  0
LINE
  5
46D
330
1F
100
AcDbEntity
  8
Layer0016
  6
Continuous
 62
     2
370
    50
100
AcDbLine
 10
-86.1440310431408
 20
-53.85830860534124
 30
0.0
 11
-87.64403104314066
 21
-53.85830860534124
 31
0.0
  0
LINE
  5
46E
330
1F
100
AcDbEntity
  8
Layer0016
  6
Continuous
 62
     2
370
    50
100
AcDbLine
 10
-87.64403104314066
 20
123.1416913946587
 30
0.0
 11
-86.14403104314081
 21
123.1416913946587
 31
0.0
  0
LINE
  5
46F
330
1F
100
AcDbEntity
  8
Layer0016
  6
Continuous
 62
     2
370
    50
100
AcDbLine
 10
-86.14403104314081
 20
118.1416913946587
 30
0.0
 11
-87.64403104314066
 21
118.1416913946587
 31
0.0
  0
INSERT
  5
470
330
1F
100
AcDbEntity
  8
0
  6
Continuous
100
AcDbBlockReference
  2
DC_GROUP_KL22291_15
 10
0.0
 20
0.0
 30
0.0
  0
VIEWPORT
  5
75
330
1B
100
AcDbEntity
 67
     1
  8
0
100
AcDbViewport
 10
-18.75
 20
-17.25
 30
0.0
 40
1672.5
 41
1219.5
 68
     1
 69
     1
 12
-18.75
 22
-17.25
 13
0.0
 23
0.0
 14
0.5
 24
0.5
 15
0.0
 25
0.0
 16
0.0
 26
0.0
 36
1.0
 17
0.0
 27
0.0
 37
0.0
 42
50.0
 43
0.0
 44
0.0
 45
1219.5
 50
0.0
 51
0.0
 72
   100
 90
   557152
  1

281
     0
 71
     1
 74
     0
110
0.0
120
0.0
130
0.0
111
1.0
121
0.0
131
0.0
112
0.0
122
1.0
132
0.0
 79
     0
146
0.0
  0
ENDSEC
  0
SECTION
  2
OBJECTS
  0
DICTIONARY
  5
C
330
0
100
AcDbDictionary
281
     1
  3
ACAD_GROUP
350
D
  3
ACAD_LAYOUT
350
1A
  3
ACAD_MATERIAL
350
3B
  3
ACAD_MLEADERSTYLE
350
473
  3
ACAD_MLINESTYLE
350
17
  3
ACAD_PLOTSETTINGS
350
19
  3
ACAD_PLOTSTYLENAME
350
E
  3
ACAD_SCALELIST
350
1D8
  3
ACAD_VISUALSTYLE
350
2A
  3
AcDbVariableDictionary
350
471
  0
DICTIONARY
  5
D
102
{ACAD_REACTORS
330
C
102
}
330
C
100
AcDbDictionary
281
     1
  0
DICTIONARY
  5
1A
102
{ACAD_REACTORS
330
C
102
}
330
C
100
AcDbDictionary
281
     1
  3
Layout1
350
1E
  3
Layout2
350
26
  3
Model
350
22
  0
DICTIONARY
  5
3B
102
{ACAD_REACTORS
330
C
102
}
330
C
100
AcDbDictionary
281
     1
  3
ByBlock
350
3D
  3
ByLayer
350
3C
  3
Global
350
3E
  0
DICTIONARY
  5
473
102
{ACAD_REACTORS
330
C
102
}
330
C
100
AcDbDictionary
281
     1
  0
DICTIONARY
  5
17
102
{ACAD_REACTORS
330
C
102
}
330
C
100
AcDbDictionary
281
     1
  3
Standard
350
18
  0
DICTIONARY
  5
19
102
{ACAD_REACTORS
330
C
102
}
330
C
100
AcDbDictionary
281
     1
  0
ACDBDICTIONARYWDFLT
  5
E
102
{ACAD_REACTORS
330
C
102
}
330
C
100
AcDbDictionary
281
     1
  3
Normal
350
F
100
AcDbDictionaryWithDefault
340
F
  0
DICTIONARY
  5
1D8
102
{ACAD_REACTORS
330
C
102
}
330
C
100
AcDbDictionary
281
     1
  3
A0
350
1D9
  3
A1
350
1DA
  3
A2
350
1DB
  3
A3
350
1DC
  3
A4
350
1DD
  3
A5
350
1DE
  3
A6
350
1DF
  3
A7
350
1E0
  3
A8
350
1E1
  3
A9
350
1E2
  3
B0
350
1E3
  3
B1
350
1E4
  3
B2
350
1E5
  3
B3
350
1E6
  3
B4
350
1E7
  3
B5
350
1E8
  3
B6
350
1E9
  3
B7
350
1EA
  3
B8
350
1EB
  3
B9
350
1EC
  3
C0
350
1ED
  3
C1
350
1EE
  3
C2
350
1EF
  3
C3
350
1F0
  3
C4
350
1F1
  3
C5
350
1F2
  3
C6
350
1F3
  3
C7
350
1F4
  3
C8
350
1F5
  3
C9
350
1F6
  3
D0
350
1F7
  3
D1
350
1F8
  3
D2
350
1F9
  0
DICTIONARY
  5
2A
102
{ACAD_REACTORS
330
C
102
}
330
C
100
AcDbDictionary
281
     1
  3
2dWireframe
350
2F
  3
3D Hidden
350
31
  3
3dWireframe
350
30
  3
Basic
350
32
  3
Brighten
350
36
  3
ColorChange
350
3A
  3
Conceptual
350
34
  3
Dim
350
35
  3
Facepattern
350
39
  3
Flat
350
2B
  3
FlatWithEdges
350
2C
  3
Gouraud
350
2D
  3
GouraudWithEdges
350
2E
  3
Linepattern
350
38
  3
Realistic
350
33
  3
Thicken
350
37
  0
DICTIONARY
  5
471
102
{ACAD_REACTORS
330
C
102
}
330
C
100
AcDbDictionary
281
     1
  3
CANNOSCALE
350
474
  3
DIMASSOC
350
475
  3
HIDETEXT
350
476
  0
LAYOUT
  5
1E
102
{ACAD_REACTORS
330
1A
102
}
330
1A
100
AcDbPlotSettings
  1

  2
none_device
  4

  6

 40
0.0
 41
0.0
 42
0.0
 43
0.0
 44
0.0
 45
0.0
 46
0.0
 47
0.0
 48
0.0
 49
0.0
140
0.0
141
0.0
142
1.0
143
1.0
 70
   688
 72
     0
 73
     0
 74
     5
  7

 75
    16
147
1.0
148
0.0
149
0.0
100
AcDbLayout
  1
Layout1
 70
     0
 71
     1
 10
0.0
 20
0.0
 11
12.0
 21
9.0
 12
0.0
 22
0.0
 32
0.0
 14
1.000000000000000E+20
 24
1.000000000000000E+20
 34
1.000000000000000E+20
 15
-1.000000000000000E+20
 25
-1.000000000000000E+20
 35
-1.000000000000000E+20
146
0.0
 13
0.0
 23
0.0
 33
0.0
 16
1.0
 26
0.0
 36
0.0
 17
0.0
 27
1.0
 37
0.0
 76
     0
330
1B
331
75
  0
LAYOUT
  5
26
102
{ACAD_REACTORS
330
1A
102
}
330
1A
100
AcDbPlotSettings
  1

  2
none_device
  4

  6

 40
0.0
 41
0.0
 42
0.0
 43
0.0
 44
0.0
 45
0.0
 46
0.0
 47
0.0
 48
0.0
 49
0.0
140
0.0
141
0.0
142
1.0
143
1.0
 70
   688
 72
     0
 73
     0
 74
     5
  7

 75
    16
147
1.0
148
0.0
149
0.0
100
AcDbLayout
  1
Layout2
 70
     1
 71
     2
 10
0.0
 20
0.0
 11
0.0
 21
0.0
 12
0.0
 22
0.0
 32
0.0
 14
0.0
 24
0.0
 34
0.0
 15
0.0
 25
0.0
 35
0.0
146
0.0
 13
0.0
 23
0.0
 33
0.0
 16
1.0
 26
0.0
 36
0.0
 17
0.0
 27
1.0
 37
0.0
 76
     0
330
23
  0
LAYOUT
  5
22
102
{ACAD_REACTORS
330
1A
102
}
330
1A
100
AcDbPlotSettings
  1

  2
none_device
  4

  6

 40
0.0
 41
0.0
 42
0.0
 43
0.0
 44
0.0
 45
0.0
 46
0.0
 47
0.0
 48
0.0
 49
0.0
140
0.0
141
0.0
142
1.0
143
1.0
 70
  1712
 72
     0
 73
     0
 74
     0
  7

 75
     0
147
1.0
148
0.0
149
0.0
100
AcDbLayout
  1
Model
 70
     1
 71
     0
 10
-297.0
 20
-210.0
 11
297.0
 21
210.0
 12
0.0
 22
0.0
 32
0.0
 14
-855.0
 24
-627.0
 34
0.0
 15
817.5
 25
592.5
 35
0.0
146
0.0
 13
0.0
 23
0.0
 33
0.0
 16
1.0
 26
0.0
 36
0.0
 17
0.0
 27
1.0
 37
0.0
 76
     0
330
1F
331
29
  0
MATERIAL
  5
3D
102
{ACAD_REACTORS
330
3B
102
}
102
{ACAD_XDICTIONARY
360
49A
102
}
330
3B
100
AcDbMaterial
  1
ByBlock
  0
MATERIAL
  5
3C
102
{ACAD_REACTORS
330
3B
102
}
102
{ACAD_XDICTIONARY
360
498
102
}
330
3B
100
AcDbMaterial
  1
ByLayer
  0
MATERIAL
  5
3E
102
{ACAD_REACTORS
330
3B
102
}
102
{ACAD_XDICTIONARY
360
49C
102
}
330
3B
100
AcDbMaterial
  1
Global
  0
MLINESTYLE
  5
18
102
{ACAD_REACTORS
330
17
102
}
330
17
100
AcDbMlineStyle
  2
Standard
 70
     0
  3

 62
   256
 51
90.0
 52
90.0
 71
     2
 49
0.5
 62
   256
  6
BYLAYER
 49
-0.5
 62
   256
  6
BYLAYER
  0
ACDBPLACEHOLDER
  5
F
102
{ACAD_REACTORS
330
E
102
}
330
E
  0
SCALE
  5
1D9
102
{ACAD_REACTORS
330
1D8
102
}
330
1D8
100
AcDbScale
 70
     0
300
1:1
140
1.0
141
1.0
290
     1
  0
SCALE
  5
1DA
102
{ACAD_REACTORS
330
1D8
102
}
330
1D8
100
AcDbScale
 70
     0
300
1:2
140
1.0
141
2.0
290
     0
  0
SCALE
  5
1DB
102
{ACAD_REACTORS
330
1D8
102
}
330
1D8
100
AcDbScale
 70
     0
300
1:4
140
1.0
141
4.0
290
     0
  0
SCALE
  5
1DC
102
{ACAD_REACTORS
330
1D8
102
}
330
1D8
100
AcDbScale
 70
     0
300
1:5
140
1.0
141
5.0
290
     0
  0
SCALE
  5
1DD
102
{ACAD_REACTORS
330
1D8
102
}
330
1D8
100
AcDbScale
 70
     0
300
1:8
140
1.0
141
8.0
290
     0
  0
SCALE
  5
1DE
102
{ACAD_REACTORS
330
1D8
102
}
330
1D8
100
AcDbScale
 70
     0
300
1:10
140
1.0
141
10.0
290
     0
  0
SCALE
  5
1DF
102
{ACAD_REACTORS
330
1D8
102
}
330
1D8
100
AcDbScale
 70
     0
300
1:16
140
1.0
141
16.0
290
     0
  0
SCALE
  5
1E0
102
{ACAD_REACTORS
330
1D8
102
}
330
1D8
100
AcDbScale
 70
     0
300
1:20
140
1.0
141
20.0
290
     0
  0
SCALE
  5
1E1
102
{ACAD_REACTORS
330
1D8
102
}
330
1D8
100
AcDbScale
 70
     0
300
1:30
140
1.0
141
30.0
290
     0
  0
SCALE
  5
1E2
102
{ACAD_REACTORS
330
1D8
102
}
330
1D8
100
AcDbScale
 70
     0
300
1:40
140
1.0
141
40.0
290
     0
  0
SCALE
  5
1E3
102
{ACAD_REACTORS
330
1D8
102
}
330
1D8
100
AcDbScale
 70
     0
300
1:50
140
1.0
141
50.0
290
     0
  0
SCALE
  5
1E4
102
{ACAD_REACTORS
330
1D8
102
}
330
1D8
100
AcDbScale
 70
     0
300
1:100
140
1.0
141
100.0
290
     0
  0
SCALE
  5
1E5
102
{ACAD_REACTORS
330
1D8
102
}
330
1D8
100
AcDbScale
 70
     0
300
2:1
140
2.0
141
1.0
290
     0
  0
SCALE
  5
1E6
102
{ACAD_REACTORS
330
1D8
102
}
330
1D8
100
AcDbScale
 70
     0
300
4:1
140
4.0
141
1.0
290
     0
  0
SCALE
  5
1E7
102
{ACAD_REACTORS
330
1D8
102
}
330
1D8
100
AcDbScale
 70
     0
300
8:1
140
8.0
141
1.0
290
     0
  0
SCALE
  5
1E8
102
{ACAD_REACTORS
330
1D8
102
}
330
1D8
100
AcDbScale
 70
     0
300
10:1
140
10.0
141
1.0
290
     0
  0
SCALE
  5
1E9
102
{ACAD_REACTORS
330
1D8
102
}
330
1D8
100
AcDbScale
 70
     0
300
100:1
140
100.0
141
1.0
290
     0
  0
SCALE
  5
1EA
102
{ACAD_REACTORS
330
1D8
102
}
330
1D8
100
AcDbScale
 70
     0
300
1/128" = 1'-0"
140
0.0078125
141
12.0
290
     0
  0
SCALE
  5
1EB
102
{ACAD_REACTORS
330
1D8
102
}
330
1D8
100
AcDbScale
 70
     0
300
1/64" = 1'-0"
140
0.015625
141
12.0
290
     0
  0
SCALE
  5
1EC
102
{ACAD_REACTORS
330
1D8
102
}
330
1D8
100
AcDbScale
 70
     0
300
1/32" = 1'-0"
140
0.03125
141
12.0
290
     0
  0
SCALE
  5
1ED
102
{ACAD_REACTORS
330
1D8
102
}
330
1D8
100
AcDbScale
 70
     0
300
1/16" = 1'-0"
140
0.0625
141
12.0
290
     0
  0
SCALE
  5
1EE
102
{ACAD_REACTORS
330
1D8
102
}
330
1D8
100
AcDbScale
 70
     0
300
3/32" = 1'-0"
140
0.09375
141
12.0
290
     0
  0
SCALE
  5
1EF
102
{ACAD_REACTORS
330
1D8
102
}
330
1D8
100
AcDbScale
 70
     0
300
1/8" = 1'-0"
140
0.125
141
12.0
290
     0
  0
SCALE
  5
1F0
102
{ACAD_REACTORS
330
1D8
102
}
330
1D8
100
AcDbScale
 70
     0
300
3/16" = 1'-0"
140
0.1875
141
12.0
290
     0
  0
SCALE
  5
1F1
102
{ACAD_REACTORS
330
1D8
102
}
330
1D8
100
AcDbScale
 70
     0
300
1/4" = 1'-0"
140
0.25
141
12.0
290
     0
  0
SCALE
  5
1F2
102
{ACAD_REACTORS
330
1D8
102
}
330
1D8
100
AcDbScale
 70
     0
300
3/8" = 1'-0"
140
0.375
141
12.0
290
     0
  0
SCALE
  5
1F3
102
{ACAD_REACTORS
330
1D8
102
}
330
1D8
100
AcDbScale
 70
     0
300
1/2" = 1'-0"
140
0.5
141
12.0
290
     0
  0
SCALE
  5
1F4
102
{ACAD_REACTORS
330
1D8
102
}
330
1D8
100
AcDbScale
 70
     0
300
3/4" = 1'-0"
140
0.75
141
12.0
290
     0
  0
SCALE
  5
1F5
102
{ACAD_REACTORS
330
1D8
102
}
330
1D8
100
AcDbScale
 70
     0
300
1" = 1'-0"
140
1.0
141
12.0
290
     0
  0
SCALE
  5
1F6
102
{ACAD_REACTORS
330
1D8
102
}
330
1D8
100
AcDbScale
 70
     0
300
1-1/2" = 1'-0"
140
1.5
141
12.0
290
     0
  0
SCALE
  5
1F7
102
{ACAD_REACTORS
330
1D8
102
}
330
1D8
100
AcDbScale
 70
     0
300
3" = 1'-0"
140
3.0
141
12.0
290
     0
  0
SCALE
  5
1F8
102
{ACAD_REACTORS
330
1D8
102
}
330
1D8
100
AcDbScale
 70
     0
300
6" = 1'-0"
140
6.0
141
12.0
290
     0
  0
SCALE
  5
1F9
102
{ACAD_REACTORS
330
1D8
102
}
330
1D8
100
AcDbScale
 70
     0
300
1'-0" = 1'-0"
140
12.0
141
12.0
290
     0
  0
VISUALSTYLE
  5
2F
102
{ACAD_REACTORS
330
2A
102
}
102
{ACAD_XDICTIONARY
360
480
102
}
330
2A
100
AcDbVisualStyle
  2
2dWireframe
 70
     4
 71
     0
 72
     2
 73
     0
 90
        0
 40
-0.6
 41
-30.0
 62
     5
 63
     7
 74
     1
 91
        4
 64
     7
 65
   257
 75
     1
175
     1
 42
1.0
 92
        0
 66
   257
 43
1.0
 76
     1
 77
     6
 78
     2
 67
     7
 79
     5
170
     0
171
     0
290
     0
174
     0
 93
        1
 44
0.0
173
     0
291
     0
 45
0.0
1001
ACAD
1000
AcDbSavedByObjectVersion
1070
     0
  0
VISUALSTYLE
  5
31
102
{ACAD_REACTORS
330
2A
102
}
102
{ACAD_XDICTIONARY
360
484
102
}
330
2A
100
AcDbVisualStyle
  2
3D Hidden
 70
     6
 71
     1
 72
     2
 73
     2
 90
        0
 40
-0.6
 41
-30.0
 62
     5
 63
     7
 74
     2
 91
        2
 64
     7
 65
   257
 75
     2
175
     1
 42
40.0
 92
        0
 66
   257
 43
1.0
 76
     1
 77
     6
 78
     2
 67
     7
 79
     3
170
     0
171
     0
290
     0
174
     0
 93
        1
 44
0.0
173
     0
291
     0
 45
0.0
1001
ACAD
1000
AcDbSavedByObjectVersion
1070
     0
  0
VISUALSTYLE
  5
30
102
{ACAD_REACTORS
330
2A
102
}
102
{ACAD_XDICTIONARY
360
482
102
}
330
2A
100
AcDbVisualStyle
  2
3dWireframe
 70
     5
 71
     0
 72
     2
 73
     0
 90
        0
 40
-0.6
 41
-30.0
 62
     5
 63
     7
 74
     1
 91
        4
 64
     7
 65
   257
 75
     1
175
     1
 42
1.0
 92
        0
 66
   257
 43
1.0
 76
     1
 77
     6
 78
     2
 67
     7
 79
     5
170
     0
171
     0
290
     0
174
     0
 93
        1
 44
0.0
173
     0
291
     0
 45
0.0
1001
ACAD
1000
AcDbSavedByObjectVersion
1070
     0
  0
VISUALSTYLE
  5
32
102
{ACAD_REACTORS
330
2A
102
}
102
{ACAD_XDICTIONARY
360
486
102
}
330
2A
100
AcDbVisualStyle
  2
Basic
 70
     7
 71
     1
 72
     0
 73
     1
 90
        0
 40
-0.6
 41
-30.0
 62
     5
 63
     7
 74
     0
 91
        4
 64
     7
 65
   257
 75
     1
175
     1
 42
1.0
 92
        8
 66
     7
 43
1.0
 76
     1
 77
     6
 78
     2
 67
     7
 79
     5
170
     0
171
     0
290
     0
174
     0
 93
        1
 44
0.0
173
     0
291
     1
 45
0.0
1001
ACAD
1000
AcDbSavedByObjectVersion
1070
     0
  0
VISUALSTYLE
  5
36
102
{ACAD_REACTORS
330
2A
102
}
102
{ACAD_XDICTIONARY
360
48E
102
}
330
2A
100
AcDbVisualStyle
  2
Brighten
 70
    12
 71
     2
 72
     2
 73
     0
 90
        0
 40
-0.6
 41
-30.0
 62
     5
 63
     7
 74
     1
 91
        4
 64
     7
 65
   257
 75
     1
175
     1
 42
1.0
 92
        8
 66
     7
 43
1.0
 76
     1
 77
     6
 78
     2
 67
     7
 79
     5
170
     0
171
     0
290
     0
174
     0
 93
        1
 44
50.0
173
     0
291
     1
 45
0.0
1001
ACAD
1000
AcDbSavedByObjectVersion
1070
     0
  0
VISUALSTYLE
  5
3A
102
{ACAD_REACTORS
330
2A
102
}
102
{ACAD_XDICTIONARY
360
496
102
}
330
2A
100
AcDbVisualStyle
  2
ColorChange
 70
    16
 71
     2
 72
     2
 73
     3
 90
        0
 40
-0.6
 41
-30.0
 62
     5
 63
     8
 74
     1
 91
        4
 64
     7
 65
   257
 75
     1
175
     1
 42
1.0
 92
        8
 66
     8
 43
1.0
 76
     1
 77
     6
 78
     2
 67
     7
 79
     5
170
     0
171
     0
290
     0
174
     0
 93
        1
 44
0.0
173
     0
291
     1
 45
0.0
1001
ACAD
1000
AcDbSavedByObjectVersion
1070
     0
  0
VISUALSTYLE
  5
34
102
{ACAD_REACTORS
330
2A
102
}
102
{ACAD_XDICTIONARY
360
48A
102
}
330
2A
100
AcDbVisualStyle
  2
Conceptual
 70
     9
 71
     3
 72
     2
 73
     0
 90
        0
 40
-0.6
 41
-30.0
 62
     5
 63
     7
 74
     2
 91
        2
 64
     7
 65
   257
 75
     1
175
     1
 42
40.0
 92
        8
 66
     7
 43
1.0
 76
     1
 77
     6
 78
     2
 67
     7
 79
     3
170
     0
171
     0
290
     0
174
     0
 93
        1
 44
0.0
173
     0
291
     0
 45
0.0
1001
ACAD
1000
AcDbSavedByObjectVersion
1070
     0
  0
VISUALSTYLE
  5
35
102
{ACAD_REACTORS
330
2A
102
}
102
{ACAD_XDICTIONARY
360
48C
102
}
330
2A
100
AcDbVisualStyle
  2
Dim
 70
    11
 71
     2
 72
     2
 73
     0
 90
        0
 40
-0.6
 41
-30.0
 62
     5
 63
     7
 74
     1
 91
        4
 64
     7
 65
   257
 75
     1
175
     1
 42
1.0
 92
        8
 66
     7
 43
1.0
 76
     1
 77
     6
 78
     2
 67
     7
 79
     5
170
     0
171
     0
290
     0
174
     0
 93
        1
 44
-50.0
173
     0
291
     1
 45
0.0
1001
ACAD
1000
AcDbSavedByObjectVersion
1070
     0
  0
VISUALSTYLE
  5
39
102
{ACAD_REACTORS
330
2A
102
}
102
{ACAD_XDICTIONARY
360
494
102
}
330
2A
100
AcDbVisualStyle
  2
Facepattern
 70
    15
 71
     2
 72
     2
 73
     0
 90
        0
 40
-0.6
 41
-30.0
 62
     5
 63
     7
 74
     1
 91
        4
 64
     7
 65
   257
 75
     1
175
     1
 42
1.0
 92
        8
 66
     7
 43
1.0
 76
     1
 77
     6
 78
     2
 67
     7
 79
     5
170
     0
171
     0
290
     0
174
     0
 93
        1
 44
0.0
173
     0
291
     1
 45
0.0
1001
ACAD
1000
AcDbSavedByObjectVersion
1070
     0
  0
VISUALSTYLE
  5
2B
102
{ACAD_REACTORS
330
2A
102
}
102
{ACAD_XDICTIONARY
360
478
102
}
330
2A
100
AcDbVisualStyle
  2
Flat
 70
     0
 71
     2
 72
     1
 73
     1
 90
        2
 40
-0.6
 41
30.0
 62
     5
 63
     7
 74
     0
 91
        4
 64
     7
 65
   257
 75
     1
175
     1
 42
1.0
 92
        8
 66
     7
 43
1.0
 76
     1
 77
     6
 78
     2
 67
     7
 79
     5
170
     0
171
     0
290
     0
174
     0
 93
       13
 44
0.0
173
     0
291
     1
 45
0.0
1001
ACAD
1000
AcDbSavedByObjectVersion
1070
     0
  0
VISUALSTYLE
  5
2C
102
{ACAD_REACTORS
330
2A
102
}
102
{ACAD_XDICTIONARY
360
47A
102
}
330
2A
100
AcDbVisualStyle
  2
FlatWithEdges
 70
     1
 71
     2
 72
     1
 73
     1
 90
        2
 40
-0.6
 41
30.0
 62
     5
 63
     7
 74
     1
 91
        4
 64
     7
 65
   257
 75
     1
175
     1
 42
1.0
 92
        0
 66
   257
 43
1.0
 76
     1
 77
     6
 78
     2
 67
     7
 79
     5
170
     0
171
     0
290
     0
174
     0
 93
       13
 44
0.0
173
     0
291
     1
 45
0.0
1001
ACAD
1000
AcDbSavedByObjectVersion
1070
     0
  0
VISUALSTYLE
  5
2D
102
{ACAD_REACTORS
330
2A
102
}
102
{ACAD_XDICTIONARY
360
47C
102
}
330
2A
100
AcDbVisualStyle
  2
Gouraud
 70
     2
 71
     2
 72
     2
 73
     1
 90
        2
 40
-0.6
 41
30.0
 62
     5
 63
     7
 74
     0
 91
        4
 64
     7
 65
   257
 75
     1
175
     1
 42
1.0
 92
        0
 66
     7
 43
1.0
 76
     1
 77
     6
 78
     2
 67
     7
 79
     5
170
     0
171
     0
290
     0
174
     0
 93
       13
 44
0.0
173
     0
291
     1
 45
0.0
1001
ACAD
1000
AcDbSavedByObjectVersion
1070
     0
  0
VISUALSTYLE
  5
2E
102
{ACAD_REACTORS
330
2A
102
}
102
{ACAD_XDICTIONARY
360
47E
102
}
330
2A
100
AcDbVisualStyle
  2
GouraudWithEdges
 70
     3
 71
     2
 72
     2
 73
     1
 90
        2
 40
-0.6
 41
30.0
 62
     5
 63
     7
 74
     1
 91
        4
 64
     7
 65
   257
 75
     1
175
     1
 42
1.0
 92
        0
 66
   257
 43
1.0
 76
     1
 77
     6
 78
     2
 67
     7
 79
     5
170
     0
171
     0
290
     0
174
     0
 93
       13
 44
0.0
173
     0
291
     1
 45
0.0
1001
ACAD
1000
AcDbSavedByObjectVersion
1070
     0
  0
VISUALSTYLE
  5
38
102
{ACAD_REACTORS
330
2A
102
}
102
{ACAD_XDICTIONARY
360
492
102
}
330
2A
100
AcDbVisualStyle
  2
Linepattern
 70
    14
 71
     2
 72
     2
 73
     0
 90
        0
 40
-0.6
 41
-30.0
 62
     5
 63
     7
 74
     1
 91
        4
 64
     7
 65
   257
 75
     7
175
     7
 42
1.0
 92
        8
 66
     7
 43
1.0
 76
     1
 77
     6
 78
     2
 67
     7
 79
     5
170
     0
171
     0
290
     0
174
     0
 93
        1
 44
0.0
173
     0
291
     1
 45
0.0
1001
ACAD
1000
AcDbSavedByObjectVersion
1070
     0
  0
VISUALSTYLE
  5
33
102
{ACAD_REACTORS
330
2A
102
}
102
{ACAD_XDICTIONARY
360
488
102
}
330
2A
100
AcDbVisualStyle
  2
Realistic
 70
     8
 71
     2
 72
     2
 73
     0
 90
        0
 40
-0.6
 41
-30.0
 62
     5
 63
     7
 74
     1
 91
        0
 64
     7
 65
   257
 75
     1
175
     1
 42
1.0
 92
        8
 66
     8
 43
1.0
 76
     1
 77
     6
 78
     2
 67
     7
 79
     5
170
     0
171
     0
290
     0
174
     0
 93
       13
 44
0.0
173
     0
291
     0
 45
0.0
1001
ACAD
1000
AcDbSavedByObjectVersion
1070
     0
  0
VISUALSTYLE
  5
37
102
{ACAD_REACTORS
330
2A
102
}
102
{ACAD_XDICTIONARY
360
490
102
}
330
2A
100
AcDbVisualStyle
  2
Thicken
 70
    13
 71
     2
 72
     2
 73
     0
 90
        0
 40
-0.6
 41
-30.0
 62
     5
 63
     7
 74
     1
 91
        4
 64
     7
 65
   257
 75
     1
175
     1
 42
1.0
 92
       12
 66
     7
 43
1.0
 76
     1
 77
     6
 78
     2
 67
     7
 79
     5
170
     0
171
     0
290
     0
174
     0
 93
        1
 44
0.0
173
     0
291
     1
 45
0.0
1001
ACAD
1000
AcDbSavedByObjectVersion
1070
     0
  0
DICTIONARYVAR
  5
474
102
{ACAD_REACTORS
330
471
102
}
330
471
100
DictionaryVariables
280
     0
  1
1:1
  0
DICTIONARYVAR
  5
475
102
{ACAD_REACTORS
330
471
102
}
330
471
100
DictionaryVariables
280
     0
  1
2
  0
DICTIONARYVAR
  5
476
102
{ACAD_REACTORS
330
471
102
}
330
471
100
DictionaryVariables
280
     0
  1
1
  0
DICTIONARY
  5
49A
330
3D
100
AcDbDictionary
280
     1
281
     1
  3
ACAD_XREC_ROUNDTRIP
360
49B
  0
DICTIONARY
  5
498
330
3C
100
AcDbDictionary
280
     1
281
     1
  3
ACAD_XREC_ROUNDTRIP
360
499
  0
DICTIONARY
  5
49C
330
3E
100
AcDbDictionary
280
     1
281
     1
  3
ACAD_XREC_ROUNDTRIP
360
49D
  0
DICTIONARY
  5
480
330
2F
100
AcDbDictionary
280
     1
281
     1
  3
ACAD_XREC_ROUNDTRIP
360
481
  0
DICTIONARY
  5
484
330
31
100
AcDbDictionary
280
     1
281
     1
  3
ACAD_XREC_ROUNDTRIP
360
485
  0
DICTIONARY
  5
482
330
30
100
AcDbDictionary
280
     1
281
     1
  3
ACAD_XREC_ROUNDTRIP
360
483
  0
DICTIONARY
  5
486
330
32
100
AcDbDictionary
280
     1
281
     1
  3
ACAD_XREC_ROUNDTRIP
360
487
  0
DICTIONARY
  5
48E
330
36
100
AcDbDictionary
280
     1
281
     1
  3
ACAD_XREC_ROUNDTRIP
360
48F
  0
DICTIONARY
  5
496
330
3A
100
AcDbDictionary
280
     1
281
     1
  3
ACAD_XREC_ROUNDTRIP
360
497
  0
DICTIONARY
  5
48A
330
34
100
AcDbDictionary
280
     1
281
     1
  3
ACAD_XREC_ROUNDTRIP
360
48B
  0
DICTIONARY
  5
48C
330
35
100
AcDbDictionary
280
     1
281
     1
  3
ACAD_XREC_ROUNDTRIP
360
48D
  0
DICTIONARY
  5
494
330
39
100
AcDbDictionary
280
     1
281
     1
  3
ACAD_XREC_ROUNDTRIP
360
495
  0
DICTIONARY
  5
478
330
2B
100
AcDbDictionary
280
     1
281
     1
  3
ACAD_XREC_ROUNDTRIP
360
479
  0
DICTIONARY
  5
47A
330
2C
100
AcDbDictionary
280
     1
281
     1
  3
ACAD_XREC_ROUNDTRIP
360
47B
  0
DICTIONARY
  5
47C
330
2D
100
AcDbDictionary
280
     1
281
     1
  3
ACAD_XREC_ROUNDTRIP
360
47D
  0
DICTIONARY
  5
47E
330
2E
100
AcDbDictionary
280
     1
281
     1
  3
ACAD_XREC_ROUNDTRIP
360
47F
  0
DICTIONARY
  5
492
330
38
100
AcDbDictionary
280
     1
281
     1
  3
ACAD_XREC_ROUNDTRIP
360
493
  0
DICTIONARY
  5
488
330
33
100
AcDbDictionary
280
     1
281
     1
  3
ACAD_XREC_ROUNDTRIP
360
489
  0
DICTIONARY
  5
490
330
37
100
AcDbDictionary
280
     1
281
     1
  3
ACAD_XREC_ROUNDTRIP
360
491
  0
XRECORD
  5
49B
102
{ACAD_REACTORS
330
49A
102
}
330
49A
100
AcDbXrecord
280
     1
102
MATERIAL
148
0.0
149
0.0
149
0.0
 93
        0
 94
      127
282
     0
 72
     1
 77
     1
171
     1
175
     1
179
     1
273
     0
  0
XRECORD
  5
499
102
{ACAD_REACTORS
330
498
102
}
330
498
100
AcDbXrecord
280
     1
102
MATERIAL
148
0.0
149
0.0
149
0.0
 93
        0
 94
      127
282
     0
 72
     1
 77
     1
171
     1
175
     1
179
     1
273
     0
  0
XRECORD
  5
49D
102
{ACAD_REACTORS
330
49C
102
}
330
49C
100
AcDbXrecord
280
     1
102
MATERIAL
148
0.0
149
0.0
149
0.0
 93
        0
 94
      127
282
     0
 72
     1
 77
     1
171
     1
175
     1
179
     1
273
     0
  0
XRECORD
  5
481
102
{ACAD_REACTORS
330
480
102
}
330
480
100
AcDbXrecord
280
     1
102
RTVSPropertyOp0
 70
     1
102
RTVSPropertyOp1
 70
     1
102
RTVSPropertyOp2
 70
     1
102
RTVSPropertyOp3
 70
     1
102
RTVSPropertyOp4
 70
     1
102
RTVSPropertyOp5
 70
     1
102
RTVSPropertyOp6
 70
     1
102
RTVSPropertyOp7
 70
     1
102
RTVSPropertyOp8
 70
     1
102
RTVSPropertyOp9
 70
     1
102
RTVSPropertyOp10
 70
     1
102
RTVSPropertyOp11
 70
     1
102
RTVSPropertyOp12
 70
     1
102
RTVSPropertyOp13
 70
     1
102
RTVSPropertyOp14
 70
     1
102
RTVSPropertyOp15
 70
     1
102
RTVSPropertyOp16
 70
     1
102
RTVSPropertyOp17
 70
     1
102
RTVSPropertyOp18
 70
     1
102
RTVSPropertyOp19
 70
     1
102
RTVSPropertyOp20
 70
     1
102
RTVSPropertyOp21
 70
     1
102
RTVSPropertyOp22
 70
     1
102
RTVSPropertyOp23
 70
     1
102
RTVSPropertyOp24
 70
     1
102
RTVSPropertyOp25
 70
     1
102
RTVSPropertyOp26
 70
     1
102
RTVSPropertyOp27
 70
     1
  0
XRECORD
  5
485
102
{ACAD_REACTORS
330
484
102
}
330
484
100
AcDbXrecord
280
     1
102
RTVSPropertyOp0
 70
     1
102
RTVSPropertyOp1
 70
     1
102
RTVSPropertyOp2
 70
     1
102
RTVSPropertyOp3
 70
     1
102
RTVSPropertyOp4
 70
     1
102
RTVSPropertyOp5
 70
     1
102
RTVSPropertyOp6
 70
     1
102
RTVSPropertyOp7
 70
     1
102
RTVSPropertyOp8
 70
     1
102
RTVSPropertyOp9
 70
     1
102
RTVSPropertyOp10
 70
     1
102
RTVSPropertyOp11
 70
     1
102
RTVSPropertyOp12
 70
     1
102
RTVSPropertyOp13
 70
     1
102
RTVSPropertyOp14
 70
     1
102
RTVSPropertyOp15
 70
     1
102
RTVSPropertyOp16
 70
     1
102
RTVSPropertyOp17
 70
     1
102
RTVSPropertyOp18
 70
     1
102
RTVSPropertyOp19
 70
     1
102
RTVSPropertyOp20
 70
     1
102
RTVSPropertyOp21
 70
     1
102
RTVSPropertyOp22
 70
     1
102
RTVSPropertyOp23
 70
     1
102
RTVSPropertyOp24
 70
     1
102
RTVSPropertyOp25
 70
     1
102
RTVSPropertyOp26
 70
     1
102
RTVSPropertyOp27
 70
     1
  0
XRECORD
  5
483
102
{ACAD_REACTORS
330
482
102
}
330
482
100
AcDbXrecord
280
     1
102
RTVSPropertyOp0
 70
     1
102
RTVSPropertyOp1
 70
     1
102
RTVSPropertyOp2
 70
     1
102
RTVSPropertyOp3
 70
     1
102
RTVSPropertyOp4
 70
     1
102
RTVSPropertyOp5
 70
     1
102
RTVSPropertyOp6
 70
     1
102
RTVSPropertyOp7
 70
     1
102
RTVSPropertyOp8
 70
     1
102
RTVSPropertyOp9
 70
     1
102
RTVSPropertyOp10
 70
     1
102
RTVSPropertyOp11
 70
     1
102
RTVSPropertyOp12
 70
     1
102
RTVSPropertyOp13
 70
     1
102
RTVSPropertyOp14
 70
     1
102
RTVSPropertyOp15
 70
     1
102
RTVSPropertyOp16
 70
     1
102
RTVSPropertyOp17
 70
     1
102
RTVSPropertyOp18
 70
     1
102
RTVSPropertyOp19
 70
     1
102
RTVSPropertyOp20
 70
     1
102
RTVSPropertyOp21
 70
     1
102
RTVSPropertyOp22
 70
     1
102
RTVSPropertyOp23
 70
     1
102
RTVSPropertyOp24
 70
     1
102
RTVSPropertyOp25
 70
     1
102
RTVSPropertyOp26
 70
     1
102
RTVSPropertyOp27
 70
     1
  0
XRECORD
  5
487
102
{ACAD_REACTORS
330
486
102
}
330
486
100
AcDbXrecord
280
     1
102
RTVSPropertyOp0
 70
     1
102
RTVSPropertyOp1
 70
     1
102
RTVSPropertyOp2
 70
     1
102
RTVSPropertyOp3
 70
     1
102
RTVSPropertyOp4
 70
     1
102
RTVSPropertyOp5
 70
     1
102
RTVSPropertyOp6
 70
     1
102
RTVSPropertyOp7
 70
     1
102
RTVSPropertyOp8
 70
     1
102
RTVSPropertyOp9
 70
     1
102
RTVSPropertyOp10
 70
     1
102
RTVSPropertyOp11
 70
     1
102
RTVSPropertyOp12
 70
     1
102
RTVSPropertyOp13
 70
     1
102
RTVSPropertyOp14
 70
     1
102
RTVSPropertyOp15
 70
     1
102
RTVSPropertyOp16
 70
     1
102
RTVSPropertyOp17
 70
     1
102
RTVSPropertyOp18
 70
     1
102
RTVSPropertyOp19
 70
     1
102
RTVSPropertyOp20
 70
     1
102
RTVSPropertyOp21
 70
     1
102
RTVSPropertyOp22
 70
     1
102
RTVSPropertyOp23
 70
     1
102
RTVSPropertyOp24
 70
     1
102
RTVSPropertyOp25
 70
     1
102
RTVSPropertyOp26
 70
     1
102
RTVSPropertyOp27
 70
     1
  0
XRECORD
  5
48F
102
{ACAD_REACTORS
330
48E
102
}
330
48E
100
AcDbXrecord
280
     1
102
RTVSPropertyOp0
 70
     1
102
RTVSPropertyOp1
 70
     1
102
RTVSPropertyOp2
 70
     1
102
RTVSPropertyOp3
 70
     1
102
RTVSPropertyOp4
 70
     1
102
RTVSPropertyOp5
 70
     1
102
RTVSPropertyOp6
 70
     1
102
RTVSPropertyOp7
 70
     1
102
RTVSPropertyOp8
 70
     1
102
RTVSPropertyOp9
 70
     1
102
RTVSPropertyOp10
 70
     1
102
RTVSPropertyOp11
 70
     1
102
RTVSPropertyOp12
 70
     1
102
RTVSPropertyOp13
 70
     1
102
RTVSPropertyOp14
 70
     1
102
RTVSPropertyOp15
 70
     1
102
RTVSPropertyOp16
 70
     1
102
RTVSPropertyOp17
 70
     1
102
RTVSPropertyOp18
 70
     1
102
RTVSPropertyOp19
 70
     1
102
RTVSPropertyOp20
 70
     1
102
RTVSPropertyOp21
 70
     1
102
RTVSPropertyOp22
 70
     1
102
RTVSPropertyOp23
 70
     1
102
RTVSPropertyOp24
 70
     1
102
RTVSPropertyOp25
 70
     1
102
RTVSPropertyOp26
 70
     1
102
RTVSPropertyOp27
 70
     1
  0
XRECORD
  5
497
102
{ACAD_REACTORS
330
496
102
}
330
496
100
AcDbXrecord
280
     1
102
RTVSPropertyOp0
 70
     1
102
RTVSPropertyOp1
 70
     1
102
RTVSPropertyOp2
 70
     1
102
RTVSPropertyOp3
 70
     1
102
RTVSPropertyOp4
 70
     1
102
RTVSPropertyOp5
 70
     1
102
RTVSPropertyOp6
 70
     1
102
RTVSPropertyOp7
 70
     1
102
RTVSPropertyOp8
 70
     1
102
RTVSPropertyOp9
 70
     1
102
RTVSPropertyOp10
 70
     1
102
RTVSPropertyOp11
 70
     1
102
RTVSPropertyOp12
 70
     1
102
RTVSPropertyOp13
 70
     1
102
RTVSPropertyOp14
 70
     1
102
RTVSPropertyOp15
 70
     1
102
RTVSPropertyOp16
 70
     1
102
RTVSPropertyOp17
 70
     1
102
RTVSPropertyOp18
 70
     1
102
RTVSPropertyOp19
 70
     1
102
RTVSPropertyOp20
 70
     1
102
RTVSPropertyOp21
 70
     1
102
RTVSPropertyOp22
 70
     1
102
RTVSPropertyOp23
 70
     1
102
RTVSPropertyOp24
 70
     1
102
RTVSPropertyOp25
 70
     1
102
RTVSPropertyOp26
 70
     1
102
RTVSPropertyOp27
 70
     1
  0
XRECORD
  5
48B
102
{ACAD_REACTORS
330
48A
102
}
330
48A
100
AcDbXrecord
280
     1
102
RTVSPropertyOp0
 70
     1
102
RTVSPropertyOp1
 70
     1
102
RTVSPropertyOp2
 70
     1
102
RTVSPropertyOp3
 70
     1
102
RTVSPropertyOp4
 70
     1
102
RTVSPropertyOp5
 70
     1
102
RTVSPropertyOp6
 70
     1
102
RTVSPropertyOp7
 70
     1
102
RTVSPropertyOp8
 70
     1
102
RTVSPropertyOp9
 70
     1
102
RTVSPropertyOp10
 70
     1
102
RTVSPropertyOp11
 70
     1
102
RTVSPropertyOp12
 70
     1
102
RTVSPropertyOp13
 70
     1
102
RTVSPropertyOp14
 70
     1
102
RTVSPropertyOp15
 70
     1
102
RTVSPropertyOp16
 70
     1
102
RTVSPropertyOp17
 70
     1
102
RTVSPropertyOp18
 70
     1
102
RTVSPropertyOp19
 70
     1
102
RTVSPropertyOp20
 70
     1
102
RTVSPropertyOp21
 70
     1
102
RTVSPropertyOp22
 70
     1
102
RTVSPropertyOp23
 70
     1
102
RTVSPropertyOp24
 70
     1
102
RTVSPropertyOp25
 70
     1
102
RTVSPropertyOp26
 70
     1
102
RTVSPropertyOp27
 70
     1
  0
XRECORD
  5
48D
102
{ACAD_REACTORS
330
48C
102
}
330
48C
100
AcDbXrecord
280
     1
102
RTVSPropertyOp0
 70
     1
102
RTVSPropertyOp1
 70
     1
102
RTVSPropertyOp2
 70
     1
102
RTVSPropertyOp3
 70
     1
102
RTVSPropertyOp4
 70
     1
102
RTVSPropertyOp5
 70
     1
102
RTVSPropertyOp6
 70
     1
102
RTVSPropertyOp7
 70
     1
102
RTVSPropertyOp8
 70
     1
102
RTVSPropertyOp9
 70
     1
102
RTVSPropertyOp10
 70
     1
102
RTVSPropertyOp11
 70
     1
102
RTVSPropertyOp12
 70
     1
102
RTVSPropertyOp13
 70
     1
102
RTVSPropertyOp14
 70
     1
102
RTVSPropertyOp15
 70
     1
102
RTVSPropertyOp16
 70
     1
102
RTVSPropertyOp17
 70
     1
102
RTVSPropertyOp18
 70
     1
102
RTVSPropertyOp19
 70
     1
102
RTVSPropertyOp20
 70
     1
102
RTVSPropertyOp21
 70
     1
102
RTVSPropertyOp22
 70
     1
102
RTVSPropertyOp23
 70
     1
102
RTVSPropertyOp24
 70
     1
102
RTVSPropertyOp25
 70
     1
102
RTVSPropertyOp26
 70
     1
102
RTVSPropertyOp27
 70
     1
  0
XRECORD
  5
495
102
{ACAD_REACTORS
330
494
102
}
330
494
100
AcDbXrecord
280
     1
102
RTVSPropertyOp0
 70
     1
102
RTVSPropertyOp1
 70
     1
102
RTVSPropertyOp2
 70
     1
102
RTVSPropertyOp3
 70
     1
102
RTVSPropertyOp4
 70
     1
102
RTVSPropertyOp5
 70
     1
102
RTVSPropertyOp6
 70
     1
102
RTVSPropertyOp7
 70
     1
102
RTVSPropertyOp8
 70
     1
102
RTVSPropertyOp9
 70
     1
102
RTVSPropertyOp10
 70
     1
102
RTVSPropertyOp11
 70
     1
102
RTVSPropertyOp12
 70
     1
102
RTVSPropertyOp13
 70
     1
102
RTVSPropertyOp14
 70
     1
102
RTVSPropertyOp15
 70
     1
102
RTVSPropertyOp16
 70
     1
102
RTVSPropertyOp17
 70
     1
102
RTVSPropertyOp18
 70
     1
102
RTVSPropertyOp19
 70
     1
102
RTVSPropertyOp20
 70
     1
102
RTVSPropertyOp21
 70
     1
102
RTVSPropertyOp22
 70
     1
102
RTVSPropertyOp23
 70
     1
102
RTVSPropertyOp24
 70
     1
102
RTVSPropertyOp25
 70
     1
102
RTVSPropertyOp26
 70
     1
102
RTVSPropertyOp27
 70
     1
  0
XRECORD
  5
479
102
{ACAD_REACTORS
330
478
102
}
330
478
100
AcDbXrecord
280
     1
102
RTVSPropertyOp0
 70
     1
102
RTVSPropertyOp1
 70
     1
102
RTVSPropertyOp2
 70
     1
102
RTVSPropertyOp3
 70
     1
102
RTVSPropertyOp4
 70
     1
102
RTVSPropertyOp5
 70
     1
102
RTVSPropertyOp6
 70
     1
102
RTVSPropertyOp7
 70
     1
102
RTVSPropertyOp8
 70
     1
102
RTVSPropertyOp9
 70
     1
102
RTVSPropertyOp10
 70
     1
102
RTVSPropertyOp11
 70
     1
102
RTVSPropertyOp12
 70
     1
102
RTVSPropertyOp13
 70
     1
102
RTVSPropertyOp14
 70
     1
102
RTVSPropertyOp15
 70
     1
102
RTVSPropertyOp16
 70
     1
102
RTVSPropertyOp17
 70
     1
102
RTVSPropertyOp18
 70
     1
102
RTVSPropertyOp19
 70
     1
102
RTVSPropertyOp20
 70
     1
102
RTVSPropertyOp21
 70
     1
102
RTVSPropertyOp22
 70
     1
102
RTVSPropertyOp23
 70
     1
102
RTVSPropertyOp24
 70
     1
102
RTVSPropertyOp25
 70
     1
102
RTVSPropertyOp26
 70
     1
102
RTVSPropertyOp27
 70
     1
  0
XRECORD
  5
47B
102
{ACAD_REACTORS
330
47A
102
}
330
47A
100
AcDbXrecord
280
     1
102
RTVSPropertyOp0
 70
     1
102
RTVSPropertyOp1
 70
     1
102
RTVSPropertyOp2
 70
     1
102
RTVSPropertyOp3
 70
     1
102
RTVSPropertyOp4
 70
     1
102
RTVSPropertyOp5
 70
     1
102
RTVSPropertyOp6
 70
     1
102
RTVSPropertyOp7
 70
     1
102
RTVSPropertyOp8
 70
     1
102
RTVSPropertyOp9
 70
     1
102
RTVSPropertyOp10
 70
     1
102
RTVSPropertyOp11
 70
     1
102
RTVSPropertyOp12
 70
     1
102
RTVSPropertyOp13
 70
     1
102
RTVSPropertyOp14
 70
     1
102
RTVSPropertyOp15
 70
     1
102
RTVSPropertyOp16
 70
     1
102
RTVSPropertyOp17
 70
     1
102
RTVSPropertyOp18
 70
     1
102
RTVSPropertyOp19
 70
     1
102
RTVSPropertyOp20
 70
     1
102
RTVSPropertyOp21
 70
     1
102
RTVSPropertyOp22
 70
     1
102
RTVSPropertyOp23
 70
     1
102
RTVSPropertyOp24
 70
     1
102
RTVSPropertyOp25
 70
     1
102
RTVSPropertyOp26
 70
     1
102
RTVSPropertyOp27
 70
     1
  0
XRECORD
  5
47D
102
{ACAD_REACTORS
330
47C
102
}
330
47C
100
AcDbXrecord
280
     1
102
RTVSPropertyOp0
 70
     1
102
RTVSPropertyOp1
 70
     1
102
RTVSPropertyOp2
 70
     1
102
RTVSPropertyOp3
 70
     1
102
RTVSPropertyOp4
 70
     1
102
RTVSPropertyOp5
 70
     1
102
RTVSPropertyOp6
 70
     1
102
RTVSPropertyOp7
 70
     1
102
RTVSPropertyOp8
 70
     1
102
RTVSPropertyOp9
 70
     1
102
RTVSPropertyOp10
 70
     1
102
RTVSPropertyOp11
 70
     1
102
RTVSPropertyOp12
 70
     1
102
RTVSPropertyOp13
 70
     1
102
RTVSPropertyOp14
 70
     1
102
RTVSPropertyOp15
 70
     1
102
RTVSPropertyOp16
 70
     1
102
RTVSPropertyOp17
 70
     1
102
RTVSPropertyOp18
 70
     1
102
RTVSPropertyOp19
 70
     1
102
RTVSPropertyOp20
 70
     1
102
RTVSPropertyOp21
 70
     1
102
RTVSPropertyOp22
 70
     1
102
RTVSPropertyOp23
 70
     1
102
RTVSPropertyOp24
 70
     1
102
RTVSPropertyOp25
 70
     1
102
RTVSPropertyOp26
 70
     1
102
RTVSPropertyOp27
 70
     1
  0
XRECORD
  5
47F
102
{ACAD_REACTORS
330
47E
102
}
330
47E
100
AcDbXrecord
280
     1
102
RTVSPropertyOp0
 70
     1
102
RTVSPropertyOp1
 70
     1
102
RTVSPropertyOp2
 70
     1
102
RTVSPropertyOp3
 70
     1
102
RTVSPropertyOp4
 70
     1
102
RTVSPropertyOp5
 70
     1
102
RTVSPropertyOp6
 70
     1
102
RTVSPropertyOp7
 70
     1
102
RTVSPropertyOp8
 70
     1
102
RTVSPropertyOp9
 70
     1
102
RTVSPropertyOp10
 70
     1
102
RTVSPropertyOp11
 70
     1
102
RTVSPropertyOp12
 70
     1
102
RTVSPropertyOp13
 70
     1
102
RTVSPropertyOp14
 70
     1
102
RTVSPropertyOp15
 70
     1
102
RTVSPropertyOp16
 70
     1
102
RTVSPropertyOp17
 70
     1
102
RTVSPropertyOp18
 70
     1
102
RTVSPropertyOp19
 70
     1
102
RTVSPropertyOp20
 70
     1
102
RTVSPropertyOp21
 70
     1
102
RTVSPropertyOp22
 70
     1
102
RTVSPropertyOp23
 70
     1
102
RTVSPropertyOp24
 70
     1
102
RTVSPropertyOp25
 70
     1
102
RTVSPropertyOp26
 70
     1
102
RTVSPropertyOp27
 70
     1
  0
XRECORD
  5
493
102
{ACAD_REACTORS
330
492
102
}
330
492
100
AcDbXrecord
280
     1
102
RTVSPropertyOp0
 70
     1
102
RTVSPropertyOp1
 70
     1
102
RTVSPropertyOp2
 70
     1
102
RTVSPropertyOp3
 70
     1
102
RTVSPropertyOp4
 70
     1
102
RTVSPropertyOp5
 70
     1
102
RTVSPropertyOp6
 70
     1
102
RTVSPropertyOp7
 70
     1
102
RTVSPropertyOp8
 70
     1
102
RTVSPropertyOp9
 70
     1
102
RTVSPropertyOp10
 70
     1
102
RTVSPropertyOp11
 70
     1
102
RTVSPropertyOp12
 70
     1
102
RTVSPropertyOp13
 70
     1
102
RTVSPropertyOp14
 70
     1
102
RTVSPropertyOp15
 70
     1
102
RTVSPropertyOp16
 70
     1
102
RTVSPropertyOp17
 70
     1
102
RTVSPropertyOp18
 70
     1
102
RTVSPropertyOp19
 70
     1
102
RTVSPropertyOp20
 70
     1
102
RTVSPropertyOp21
 70
     1
102
RTVSPropertyOp22
 70
     1
102
RTVSPropertyOp23
 70
     1
102
RTVSPropertyOp24
 70
     1
102
RTVSPropertyOp25
 70
     1
102
RTVSPropertyOp26
 70
     1
102
RTVSPropertyOp27
 70
     1
  0
XRECORD
  5
489
102
{ACAD_REACTORS
330
488
102
}
330
488
100
AcDbXrecord
280
     1
102
RTVSPropertyOp0
 70
     1
102
RTVSPropertyOp1
 70
     1
102
RTVSPropertyOp2
 70
     1
102
RTVSPropertyOp3
 70
     1
102
RTVSPropertyOp4
 70
     1
102
RTVSPropertyOp5
 70
     1
102
RTVSPropertyOp6
 70
     1
102
RTVSPropertyOp7
 70
     1
102
RTVSPropertyOp8
 70
     1
102
RTVSPropertyOp9
 70
     1
102
RTVSPropertyOp10
 70
     1
102
RTVSPropertyOp11
 70
     1
102
RTVSPropertyOp12
 70
     1
102
RTVSPropertyOp13
 70
     1
102
RTVSPropertyOp14
 70
     1
102
RTVSPropertyOp15
 70
     1
102
RTVSPropertyOp16
 70
     1
102
RTVSPropertyOp17
 70
     1
102
RTVSPropertyOp18
 70
     1
102
RTVSPropertyOp19
 70
     1
102
RTVSPropertyOp20
 70
     1
102
RTVSPropertyOp21
 70
     1
102
RTVSPropertyOp22
 70
     1
102
RTVSPropertyOp23
 70
     1
102
RTVSPropertyOp24
 70
     1
102
RTVSPropertyOp25
 70
     1
102
RTVSPropertyOp26
 70
     1
102
RTVSPropertyOp27
 70
     1
  0
XRECORD
  5
491
102
{ACAD_REACTORS
330
490
102
}
330
490
100
AcDbXrecord
280
     1
102
RTVSPropertyOp0
 70
     1
102
RTVSPropertyOp1
 70
     1
102
RTVSPropertyOp2
 70
     1
102
RTVSPropertyOp3
 70
     1
102
RTVSPropertyOp4
 70
     1
102
RTVSPropertyOp5
 70
     1
102
RTVSPropertyOp6
 70
     1
102
RTVSPropertyOp7
 70
     1
102
RTVSPropertyOp8
 70
     1
102
RTVSPropertyOp9
 70
     1
102
RTVSPropertyOp10
 70
     1
102
RTVSPropertyOp11
 70
     1
102
RTVSPropertyOp12
 70
     1
102
RTVSPropertyOp13
 70
     1
102
RTVSPropertyOp14
 70
     1
102
RTVSPropertyOp15
 70
     1
102
RTVSPropertyOp16
 70
     1
102
RTVSPropertyOp17
 70
     1
102
RTVSPropertyOp18
 70
     1
102
RTVSPropertyOp19
 70
     1
102
RTVSPropertyOp20
 70
     1
102
RTVSPropertyOp21
 70
     1
102
RTVSPropertyOp22
 70
     1
102
RTVSPropertyOp23
 70
     1
102
RTVSPropertyOp24
 70
     1
102
RTVSPropertyOp25
 70
     1
102
RTVSPropertyOp26
 70
     1
102
RTVSPropertyOp27
 70
     1
  0
ENDSEC
  0
EOF
